  0
SECTION
  2
HEADER
  9
$ACADVER
  1
AC1018
  9
$ACADMAINTVER
 70
   104
  9
$DWGCODEPAGE
  3
ANSI_1250
  9
$LASTSAVEDBY
  1
bonzo
  9
$INSBASE
 10
0.0
 20
0.0
 30
0.0
  9
$EXTMIN
 10
1886.579286963684
 20
926.060252045012
 30
0.0
  9
$EXTMAX
 10
11754.17112346035
 20
10579.53906278739
 30
0.0
  9
$LIMMIN
 10
0.0
 20
0.0
  9
$LIMMAX
 10
420.0
 20
297.0
  9
$ORTHOMODE
 70
     1
  9
$REGENMODE
 70
     1
  9
$FILLMODE
 70
     1
  9
$QTEXTMODE
 70
     0
  9
$MIRRTEXT
 70
     0
  9
$LTSCALE
 40
1.0
  9
$ATTMODE
 70
     1
  9
$TEXTSIZE
 40
2.5
  9
$TRACEWID
 40
1.0
  9
$TEXTSTYLE
  7
Standard
  9
$CLAYER
  8
WYMIAR
  9
$CELTYPE
  6
ByLayer
  9
$CECOLOR
 62
   256
  9
$CELTSCALE
 40
1.0
  9
$DISPSILH
 70
     0
  9
$DIMSCALE
 40
0.02
  9
$DIMASZ
 40
3.0
  9
$DIMEXO
 40
20.0
  9
$DIMDLI
 40
0.0
  9
$DIMRND
 40
0.1
  9
$DIMDLE
 40
0.0
  9
$DIMEXE
 40
5.0
  9
$DIMTP
 40
0.0
  9
$DIMTM
 40
0.0
  9
$DIMTXT
 40
9.0
  9
$DIMCEN
 40
12.0
  9
$DIMTSZ
 40
0.0
  9
$DIMTOL
 70
     0
  9
$DIMLIM
 70
     0
  9
$DIMTIH
 70
     0
  9
$DIMTOH
 70
     0
  9
$DIMSE1
 70
     1
  9
$DIMSE2
 70
     1
  9
$DIMTAD
 70
     1
  9
$DIMZIN
 70
     1
  9
$DIMBLK
  1

  9
$DIMASO
 70
     1
  9
$DIMSHO
 70
     1
  9
$DIMPOST
  1

  9
$DIMAPOST
  1

  9
$DIMALT
 70
     0
  9
$DIMALTD
 70
     4
  9
$DIMALTF
 40
1.0
  9
$DIMLFAC
 40
1.0
  9
$DIMTOFL
 70
     1
  9
$DIMTVP
 40
0.0
  9
$DIMTIX
 70
     1
  9
$DIMSOXD
 70
     0
  9
$DIMSAH
 70
     1
  9
$DIMBLK1
  1
MAR-STRZ
  9
$DIMBLK2
  1
MAR-STRZ
  9
$DIMSTYLE
  2
AR SKALA 1-50
  9
$DIMCLRD
 70
   256
  9
$DIMCLRE
 70
   256
  9
$DIMCLRT
 70
   256
  9
$DIMTFAC
 40
0.01
  9
$DIMGAP
 40
6.0
  9
$DIMJUST
 70
     0
  9
$DIMSD1
 70
     0
  9
$DIMSD2
 70
     0
  9
$DIMTOLJ
 70
     1
  9
$DIMTZIN
 70
     0
  9
$DIMALTZ
 70
     0
  9
$DIMALTTZ
 70
     0
  9
$DIMUPT
 70
     0
  9
$DIMDEC
 70
     2
  9
$DIMTDEC
 70
     2
  9
$DIMALTU
 70
     2
  9
$DIMALTTD
 70
     4
  9
$DIMTXSTY
  7
AR 01 SWIS
  9
$DIMAUNIT
 70
     0
  9
$DIMADEC
 70
     1
  9
$DIMALTRND
 40
0.0
  9
$DIMAZIN
 70
     0
  9
$DIMDSEP
 70
    46
  9
$DIMATFIT
 70
     3
  9
$DIMFRAC
 70
     0
  9
$DIMLDRBLK
  1
MAR-STRZ
  9
$DIMLUNIT
 70
     2
  9
$DIMLWD
 70
    -2
  9
$DIMLWE
 70
    -2
  9
$DIMTMOVE
 70
     2
  9
$LUNITS
 70
     2
  9
$LUPREC
 70
     4
  9
$SKETCHINC
 40
1.0
  9
$FILLETRAD
 40
0.015
  9
$AUNITS
 70
     0
  9
$AUPREC
 70
     0
  9
$MENU
  1
.
  9
$ELEVATION
 40
0.0
  9
$PELEVATION
 40
0.0
  9
$THICKNESS
 40
0.0
  9
$LIMCHECK
 70
     0
  9
$CHAMFERA
 40
0.0
  9
$CHAMFERB
 40
0.0
  9
$CHAMFERC
 40
0.0
  9
$CHAMFERD
 40
0.0
  9
$SKPOLY
 70
     0
  9
$TDCREATE
 40
2455965.937926968
  9
$TDUCREATE
 40
2455965.896260301
  9
$TDUPDATE
 40
2459277.344628576
  9
$TDUUPDATE
 40
2459277.302961910
  9
$TDINDWG
 40
0.0400609028
  9
$TDUSRTIMER
 40
0.0400605440
  9
$USRTIMER
 70
     1
  9
$ANGBASE
 50
0.0
  9
$ANGDIR
 70
     0
  9
$PDMODE
 70
     0
  9
$PDSIZE
 40
0.0
  9
$PLINEWID
 40
0.0
  9
$SPLFRAME
 70
     0
  9
$SPLINETYPE
 70
     6
  9
$SPLINESEGS
 70
     8
  9
$HANDSEED
  5
24B4
  9
$SURFTAB1
 70
     6
  9
$SURFTAB2
 70
     6
  9
$SURFTYPE
 70
     6
  9
$SURFU
 70
     6
  9
$SURFV
 70
     6
  9
$UCSBASE
  2

  9
$UCSNAME
  2

  9
$UCSORG
 10
0.0
 20
0.0
 30
0.0
  9
$UCSXDIR
 10
1.0
 20
0.0
 30
0.0
  9
$UCSYDIR
 10
0.0
 20
1.0
 30
0.0
  9
$UCSORTHOREF
  2

  9
$UCSORTHOVIEW
 70
     0
  9
$UCSORGTOP
 10
0.0
 20
0.0
 30
0.0
  9
$UCSORGBOTTOM
 10
0.0
 20
0.0
 30
0.0
  9
$UCSORGLEFT
 10
0.0
 20
0.0
 30
0.0
  9
$UCSORGRIGHT
 10
0.0
 20
0.0
 30
0.0
  9
$UCSORGFRONT
 10
0.0
 20
0.0
 30
0.0
  9
$UCSORGBACK
 10
0.0
 20
0.0
 30
0.0
  9
$PUCSBASE
  2

  9
$PUCSNAME
  2

  9
$PUCSORG
 10
0.0
 20
0.0
 30
0.0
  9
$PUCSXDIR
 10
1.0
 20
0.0
 30
0.0
  9
$PUCSYDIR
 10
0.0
 20
1.0
 30
0.0
  9
$PUCSORTHOREF
  2

  9
$PUCSORTHOVIEW
 70
     0
  9
$PUCSORGTOP
 10
0.0
 20
0.0
 30
0.0
  9
$PUCSORGBOTTOM
 10
0.0
 20
0.0
 30
0.0
  9
$PUCSORGLEFT
 10
0.0
 20
0.0
 30
0.0
  9
$PUCSORGRIGHT
 10
0.0
 20
0.0
 30
0.0
  9
$PUCSORGFRONT
 10
0.0
 20
0.0
 30
0.0
  9
$PUCSORGBACK
 10
0.0
 20
0.0
 30
0.0
  9
$USERI1
 70
     0
  9
$USERI2
 70
     0
  9
$USERI3
 70
     0
  9
$USERI4
 70
     0
  9
$USERI5
 70
     0
  9
$USERR1
 40
0.0
  9
$USERR2
 40
0.0
  9
$USERR3
 40
0.0
  9
$USERR4
 40
0.0
  9
$USERR5
 40
0.0
  9
$WORLDVIEW
 70
     1
  9
$SHADEDGE
 70
     3
  9
$SHADEDIF
 70
    70
  9
$TILEMODE
 70
     1
  9
$MAXACTVP
 70
    64
  9
$PINSBASE
 10
0.0
 20
0.0
 30
0.0
  9
$PLIMCHECK
 70
     0
  9
$PEXTMIN
 10
25.69999999999999
 20
19.5
 30
0.0
  9
$PEXTMAX
 10
231.3
 20
175.5
 30
0.0
  9
$PLIMMIN
 10
-20.0
 20
-7.5
  9
$PLIMMAX
 10
277.0
 20
202.5
  9
$UNITMODE
 70
     0
  9
$VISRETAIN
 70
     1
  9
$PLINEGEN
 70
     0
  9
$PSLTSCALE
 70
     1
  9
$TREEDEPTH
 70
  3020
  9
$CMLSTYLE
  2
Standard
  9
$CMLJUST
 70
     0
  9
$CMLSCALE
 40
20.0
  9
$PROXYGRAPHICS
 70
     1
  9
$MEASUREMENT
 70
     1
  9
$CELWEIGHT
370
    -1
  9
$ENDCAPS
280
     0
  9
$JOINSTYLE
280
     0
  9
$LWDISPLAY
290
     0
  9
$INSUNITS
 70
     4
  9
$HYPERLINKBASE
  1

  9
$STYLESHEET
  1

  9
$XEDIT
290
     1
  9
$CEPSNTYPE
380
     0
  9
$PSTYLEMODE
290
     1
  9
$FINGERPRINTGUID
  2
{6E7D7161-BD4E-4C17-BAC0-015A8F5CF42C}
  9
$VERSIONGUID
  2
{1390DDE9-A4B3-460E-9672-2A4CF1CCBEEA}
  9
$EXTNAMES
290
     1
  9
$PSVPSCALE
 40
0.0
  9
$OLESTARTUP
290
     0
  9
$SORTENTS
280
   127
  9
$INDEXCTL
280
     0
  9
$HIDETEXT
280
     1
  9
$XCLIPFRAME
290
     0
  9
$HALOGAP
280
     0
  9
$OBSCOLOR
 70
   257
  9
$OBSLTYPE
280
     0
  9
$INTERSECTIONDISPLAY
280
     0
  9
$INTERSECTIONCOLOR
 70
   257
  9
$DIMASSOC
280
     2
  9
$PROJECTNAME
  1

  0
ENDSEC
  0
SECTION
  2
CLASSES
  0
CLASS
  1
ACDBDICTIONARYWDFLT
  2
AcDbDictionaryWithDefault
  3
ObjectDBX Classes
 90
        0
 91
        1
280
     0
281
     0
  0
CLASS
  1
DICTIONARYVAR
  2
AcDbDictionaryVar
  3
ObjectDBX Classes
 90
        0
 91
        9
280
     0
281
     0
  0
CLASS
  1
TABLESTYLE
  2
AcDbTableStyle
  3
ObjectDBX Classes
 90
     4095
 91
        1
280
     0
281
     0
  0
CLASS
  1
MATERIAL
  2
AcDbMaterial
  3
ObjectDBX Classes
 90
     1153
 91
        3
280
     0
281
     0
  0
CLASS
  1
VISUALSTYLE
  2
AcDbVisualStyle
  3
ObjectDBX Classes
 90
     4095
 91
       16
280
     0
281
     0
  0
CLASS
  1
SCALE
  2
AcDbScale
  3
ObjectDBX Classes
 90
     1153
 91
       33
280
     0
281
     0
  0
CLASS
  1
MLEADERSTYLE
  2
AcDbMLeaderStyle
  3
ACDB_MLEADERSTYLE_CLASS
 90
     4095
 91
        2
280
     0
281
     0
  0
CLASS
  1
CELLSTYLEMAP
  2
AcDbCellStyleMap
  3
ObjectDBX Classes
 90
     1152
 91
        2
280
     0
281
     0
  0
CLASS
  1
SORTENTSTABLE
  2
AcDbSortentsTable
  3
ObjectDBX Classes
 90
        0
 91
        2
280
     0
281
     0
  0
CLASS
  1
DIMASSOC
  2
AcDbDimAssoc
  3
"AcDbDimAssoc|Product Desc:     AcDim ARX App For Dimension|Company:          Autodesk, Inc.|WEB Address:      www.autodesk.com"
 90
        0
 91
        2
280
     0
281
     0
  0
ENDSEC
  0
SECTION
  2
TABLES
  0
TABLE
  2
VPORT
  5
8
330
0
100
AcDbSymbolTable
 70
     1
  0
VPORT
  5
EA
330
8
100
AcDbSymbolTableRecord
100
AcDbViewportTableRecord
  2
*Active
 70
     0
 10
0.0
 20
0.0
 11
1.0
 21
1.0
 12
1892.356315927583
 22
930.6375765580765
 13
0.0
 23
0.0
 14
10.0
 24
10.0
 15
10.0
 25
10.0
 16
0.0
 26
0.0
 36
1.0
 17
0.0
 27
0.0
 37
0.0
 40
9.093896425995808
 41
2.04582651391162
 42
50.0
 43
0.0
 44
0.0
 50
0.0
 51
0.0
 71
     0
 72
  1000
 73
     1
 74
     3
 75
     0
 76
     0
 77
     0
 78
     0
281
     0
 65
     1
110
0.0
120
0.0
130
0.0
111
1.0
121
0.0
131
0.0
112
0.0
122
1.0
132
0.0
 79
     0
146
0.0
  0
ENDTAB
  0
TABLE
  2
LTYPE
  5
5
330
0
100
AcDbSymbolTable
 70
     2
  0
LTYPE
  5
14
330
5
100
AcDbSymbolTableRecord
100
AcDbLinetypeTableRecord
  2
ByBlock
 70
     0
  3

 72
    65
 73
     0
 40
0.0
  0
LTYPE
  5
15
330
5
100
AcDbSymbolTableRecord
100
AcDbLinetypeTableRecord
  2
ByLayer
 70
     0
  3

 72
    65
 73
     0
 40
0.0
  0
LTYPE
  5
16
330
5
100
AcDbSymbolTableRecord
100
AcDbLinetypeTableRecord
  2
Continuous
 70
     0
  3
Solid line
 72
    65
 73
     0
 40
0.0
  0
LTYPE
  5
298
330
5
100
AcDbSymbolTableRecord
100
AcDbLinetypeTableRecord
  2
DASHED
 70
     0
  3
Dashed __ __ __ __ __ __ __ __ __ __ __ __ __ _
 72
    65
 73
     2
 40
0.75
 49
0.5
 74
     0
 49
-0.25
 74
     0
  0
ENDTAB
  0
TABLE
  2
LAYER
  5
2
102
{ACAD_XDICTIONARY
360
1BE
102
}
330
0
100
AcDbSymbolTable
 70
     5
  0
LAYER
  5
10
102
{ACAD_XDICTIONARY
360
13C
102
}
330
2
100
AcDbSymbolTableRecord
100
AcDbLayerTableRecord
  2
0
 70
     0
 62
     7
  6
Continuous
370
    80
390
F
  0
LAYER
  5
1B9
102
{ACAD_XDICTIONARY
360
1BA
102
}
330
2
100
AcDbSymbolTableRecord
100
AcDbLayerTableRecord
  2
WYMIAR
 70
     0
 62
     7
  6
Continuous
370
    80
390
F
1001
AcAecLayerStandard
1000

1000

  0
LAYER
  5
299
102
{ACAD_XDICTIONARY
360
29A
102
}
330
2
100
AcDbSymbolTableRecord
100
AcDbLayerTableRecord
  2
STREFA BEZPIECZEŃSTWA
 70
     0
 62
     7
  6
DASHED
370
    80
390
F
1001
AcAecLayerStandard
1000

1000

  0
LAYER
  5
29B
330
2
100
AcDbSymbolTableRecord
100
AcDbLayerTableRecord
  2
Defpoints
 70
     0
 62
     7
  6
Continuous
290
     0
370
     5
390
F
1001
RAK
1000
{ACET-LAYISO
1070
     0
1070
     7
1000
Continuous
1071
        5
1071
        0
1005
F
1000
ACET-LAYISO}
  0
LAYER
  5
1637
330
2
100
AcDbSymbolTableRecord
100
AcDbLayerTableRecord
  2
Widoczne (ISO)
 70
     0
 62
     7
  6
Continuous
370
    50
390
F
  0
ENDTAB
  0
TABLE
  2
STYLE
  5
3
330
0
100
AcDbSymbolTable
 70
     4
  0
STYLE
  5
11
330
3
100
AcDbSymbolTableRecord
100
AcDbTextStyleTableRecord
  2
Standard
 70
     0
 40
0.0
 41
1.0
 50
0.0
 71
     0
 42
2.5
  3
txt.shx
  4

  0
STYLE
  5
132
330
3
100
AcDbSymbolTableRecord
100
AcDbTextStyleTableRecord
  2
Opisowy
 70
     0
 40
0.0
 41
1.0
 50
0.0
 71
     0
 42
2.5
  3
txt.shx
  4

1001
AcadAnnotative
1000
AnnotativeData
1002
{
1070
     1
1070
     1
1002
}
  0
STYLE
  5
1BB
330
3
100
AcDbSymbolTableRecord
100
AcDbTextStyleTableRecord
  2
AR 01 SWIS
 70
     0
 40
0.0
 41
1.0
 50
0.0
 71
     0
 42
55.0
  3

  4

1001
ACAD
1000
Swis721 Cn BT
1071
       34
  0
STYLE
  5
1638
330
3
100
AcDbSymbolTableRecord
100
AcDbTextStyleTableRecord
  2
Tekst notatki (ISO)
 70
     0
 40
0.0
 41
1.0
 50
0.0
 71
     0
 42
0.2
  3
TAHOMA.TTF
  4

1001
ACAD
1000
Tahoma
1071
      256
  0
ENDTAB
  0
TABLE
  2
VIEW
  5
6
330
0
100
AcDbSymbolTable
 70
     0
  0
ENDTAB
  0
TABLE
  2
UCS
  5
7
330
0
100
AcDbSymbolTable
 70
     0
  0
ENDTAB
  0
TABLE
  2
APPID
  5
9
330
0
100
AcDbSymbolTable
 70
    11
  0
APPID
  5
12
330
9
100
AcDbSymbolTableRecord
100
AcDbRegAppTableRecord
  2
ACAD
 70
     0
  0
APPID
  5
9E
330
9
100
AcDbSymbolTableRecord
100
AcDbRegAppTableRecord
  2
ACAD_PSEXT
 70
     0
  0
APPID
  5
133
330
9
100
AcDbSymbolTableRecord
100
AcDbRegAppTableRecord
  2
AcadAnnoPO
 70
     0
  0
APPID
  5
134
330
9
100
AcDbSymbolTableRecord
100
AcDbRegAppTableRecord
  2
AcadAnnotative
 70
     0
  0
APPID
  5
135
330
9
100
AcDbSymbolTableRecord
100
AcDbRegAppTableRecord
  2
ACAD_DSTYLE_DIMJAG
 70
     0
  0
APPID
  5
136
330
9
100
AcDbSymbolTableRecord
100
AcDbRegAppTableRecord
  2
ACAD_DSTYLE_DIMTALN
 70
     0
  0
APPID
  5
165
330
9
100
AcDbSymbolTableRecord
100
AcDbRegAppTableRecord
  2
ACAD_MLEADERVER
 70
     0
  0
APPID
  5
1BD
330
9
100
AcDbSymbolTableRecord
100
AcDbRegAppTableRecord
  2
AcAecLayerStandard
 70
     0
  0
APPID
  5
29C
330
9
100
AcDbSymbolTableRecord
100
AcDbRegAppTableRecord
  2
RAK
 70
     0
  0
APPID
  5
2C1
330
9
100
AcDbSymbolTableRecord
100
AcDbRegAppTableRecord
  2
ACAD_EXEMPT_FROM_CAD_STANDARDS
 70
     0
  0
APPID
  5
4DF
330
9
100
AcDbSymbolTableRecord
100
AcDbRegAppTableRecord
  2
ACAD_DSTYLE_DIMRADIAL_EXTENSION
 70
     0
  0
ENDTAB
  0
TABLE
  2
DIMSTYLE
  5
A
330
0
100
AcDbSymbolTable
 70
     5
100
AcDbDimStyleTable
 71
     3
340
1BC
340
27
340
137
  0
DIMSTYLE
105
27
330
A
100
AcDbSymbolTableRecord
100
AcDbDimStyleTableRecord
  2
ISO-25
 70
     0
 41
2.5
 42
0.625
 43
3.75
 44
1.25
 73
     0
 74
     0
 77
     1
 78
     8
140
2.5
141
2.5
143
0.03937007874016
147
0.625
171
     3
172
     1
271
     2
272
     2
274
     3
278
    44
283
     0
284
     8
340
11
  0
DIMSTYLE
105
137
330
A
100
AcDbSymbolTableRecord
100
AcDbDimStyleTableRecord
  2
Opisowy
 70
     0
 40
0.0
 41
2.5
 42
0.625
 43
3.75
 44
1.25
 73
     0
 74
     0
 77
     1
 78
     8
140
2.5
141
2.5
143
0.03937007874016
147
0.625
171
     3
172
     1
271
     2
272
     2
274
     3
278
    44
283
     0
284
     8
340
11
1001
AcadAnnotative
1000
AnnotativeData
1002
{
1070
     1
1070
     1
1002
}
1001
ACAD_DSTYLE_DIMJAG
1070
   388
1040
1.5
1001
ACAD_DSTYLE_DIMTALN
1070
   392
1070
     0
  0
DIMSTYLE
105
1BC
102
{ACAD_REACTORS
330
2475
330
2489
102
}
330
A
100
AcDbSymbolTableRecord
100
AcDbDimStyleTableRecord
  2
AR SKALA 1-50
 70
     0
 40
0.02
 41
3.0
 42
20.0
 43
0.0
 44
5.0
 45
0.1
 73
     0
 74
     0
 75
     1
 76
     1
 77
     1
 78
     1
140
9.0
141
12.0
143
1.0
146
0.01
147
6.0
171
     4
172
     1
173
     1
174
     1
176
   256
177
   256
178
   256
179
     1
271
     2
272
     2
274
     4
279
     2
340
1BB
341
1B3
343
1B3
344
1B3
  0
DIMSTYLE
105
1639
330
A
100
AcDbSymbolTableRecord
100
AcDbDimStyleTableRecord
  2
Standard
 70
     0
340
11
  0
DIMSTYLE
105
163A
330
A
100
AcDbSymbolTableRecord
100
AcDbDimStyleTableRecord
  2
Wymiar Comes
 70
     0
 40
50.0
 41
2.5
 42
0.0
 43
5.999999999999999
 44
3.174999999999999
 45
0.00000001
 46
10.0
 73
     0
 77
     1
 78
     8
 79
     2
140
2.5
143
0.03937
146
1.399999999999999
147
0.762
171
     3
172
     1
176
   256
177
   256
178
   256
179
     2
271
     0
272
     2
274
     3
278
    44
284
     8
286
     8
340
1638
341
1633
371
    -1
372
    -1
  0
ENDTAB
  0
TABLE
  2
BLOCK_RECORD
  5
1
330
0
100
AcDbSymbolTable
 70
     7
  0
BLOCK_RECORD
  5
1F
102
{ACAD_XDICTIONARY
360
499
102
}
330
1
100
AcDbSymbolTableRecord
100
AcDbBlockTableRecord
  2
*Model_Space
340
22
  0
BLOCK_RECORD
  5
D2
330
1
100
AcDbSymbolTableRecord
100
AcDbBlockTableRecord
  2
*Paper_Space
340
D3
  0
BLOCK_RECORD
  5
1B3
330
1
100
AcDbSymbolTableRecord
100
AcDbBlockTableRecord
  2
MAR-STRZ
340
0
310
2800000020000000200000000100080000000000000400000000000000000000000000000000000000000000000080000080000000808000800000008000800080800000C0C0C000C0DCC000F0CAA6000020400000206000002080000020A0000020C0000020E00000400000004020000040400000406000004080000040A0
310
000040C0000040E00000600000006020000060400000606000006080000060A0000060C0000060E00000800000008020000080400000806000008080000080A0000080C0000080E00000A0000000A0200000A0400000A0600000A0800000A0A00000A0C00000A0E00000C0000000C0200000C0400000C0600000C0800000C0
310
A00000C0C00000C0E00000E0000000E0200000E0400000E0600000E0800000E0A00000E0C00000E0E00040000000400020004000400040006000400080004000A0004000C0004000E00040200000402020004020400040206000402080004020A0004020C0004020E000404000004040200040404000404060004040800040
310
40A0004040C0004040E00040600000406020004060400040606000406080004060A0004060C0004060E00040800000408020004080400040806000408080004080A0004080C0004080E00040A0000040A0200040A0400040A0600040A0800040A0A00040A0C00040A0E00040C0000040C0200040C0400040C0600040C08000
310
40C0A00040C0C00040C0E00040E0000040E0200040E0400040E0600040E0800040E0A00040E0C00040E0E00080000000800020008000400080006000800080008000A0008000C0008000E00080200000802020008020400080206000802080008020A0008020C0008020E00080400000804020008040400080406000804080
310
008040A0008040C0008040E00080600000806020008060400080606000806080008060A0008060C0008060E00080800000808020008080400080806000808080008080A0008080C0008080E00080A0000080A0200080A0400080A0600080A0800080A0A00080A0C00080A0E00080C0000080C0200080C0400080C0600080C0
310
800080C0A00080C0C00080C0E00080E0000080E0200080E0400080E0600080E0800080E0A00080E0C00080E0E000C0000000C0002000C0004000C0006000C0008000C000A000C000C000C000E000C0200000C0202000C0204000C0206000C0208000C020A000C020C000C020E000C0400000C0402000C0404000C0406000C0
310
408000C040A000C040C000C040E000C0600000C0602000C0604000C0606000C0608000C060A000C060C000C060E000C0800000C0802000C0804000C0806000C0808000C080A000C080C000C080E000C0A00000C0A02000C0A04000C0A06000C0A08000C0A0A000C0A0C000C0A0E000C0C00000C0C02000C0C04000C0C06000
310
C0C08000C0C0A000F0FBFF00A4A0A000808080000000FF0000FF000000FFFF00FF000000FF00FF00FFFF0000FFFFFF00000000000000000000000000000000000000000000000000000000000000000000000000000000000000000000000000FF000000000000000000000000000000000000000000000000000000000000
310
00FF00000000000000000000000000000000000000000000000000000000000000FF00000000000000000000000000000000000000000000000000000000000000FF00000000000000000000000000000000000000000000000000000000000000FF000000000000000000000000000000000000000000F900000000000000
310
0000FF00000000000000000000000000000000000000000000F90000000000000000FF0000000000000000000000000000000000000000000000F900000000000000FF000000000000000000000000000000000000000000000000F9000000000000FF00000000000000000000000000000000000000000000000000F90000
310
000000FF0000000000000000000000000000000000000000000000000000F900000000FF000000000000000000000000000000000000000000000000000000F9000000FF00000000000000000000000000000000000000000000000000000000F90000FF000000000000000000000000000000000000000000000000000000
310
0000F900FF000000000000000000000000000000000000000000000000000000000000F9FF00000000000000000000000000000000000000000000FFFFFFFFFFFFFFFFFFFFFFFFFFFFFFFFFFFF0000000000000000000000000000000000000000000000FFF900000000000000000000000000000000000000000000000000
310
0000000000FF00F90000000000000000000000000000000000000000000000000000000000FF0000F900000000000000000000000000000000000000000000000000000000FF000000F9000000000000000000000000000000000000000000000000000000FF00000000F90000000000000000000000000000000000000000
310
000000000000FF0000000000F900000000000000000000000000000000000000000000000000FF000000000000F9000000000000000000000000000000000000000000000000FF00000000000000F90000000000000000000000000000000000000000000000FF0000000000000000F9000000000000000000000000000000
310
00000000000000FF00000000000000000000000000000000000000000000000000000000000000FF00000000000000000000000000000000000000000000000000000000000000FF00000000000000000000000000000000000000000000000000000000000000FF0000000000000000000000000000000000000000000000
310
0000000000000000FF0000000000000000000000000000000000000000000000000000000000000000000000000000000000000000000000
102
{BLKREFS
331
227D
331
227E
331
2284
331
2285
331
2482
331
2483
331
2496
331
2497
102
}
  0
BLOCK_RECORD
  5
1633
330
1
100
AcDbSymbolTableRecord
100
AcDbBlockTableRecord
  2
_DotSmall
340
0
  0
BLOCK_RECORD
  5
19A8
102
{ACAD_XDICTIONARY
360
1B5C
102
}
330
1
100
AcDbSymbolTableRecord
100
AcDbBlockTableRecord
  2
A$C4F4D1ACA
340
0
1001
ACAD
1000
DesignCenter Data
1002
{
1070
     1
1070
     4
1002
}
  0
BLOCK_RECORD
  5
2476
330
1
100
AcDbSymbolTableRecord
100
AcDbBlockTableRecord
  2
*D5
340
0
  0
BLOCK_RECORD
  5
248A
330
1
100
AcDbSymbolTableRecord
100
AcDbBlockTableRecord
  2
*D6
340
0
  0
ENDTAB
  0
ENDSEC
  0
SECTION
  2
BLOCKS
  0
BLOCK
  5
20
330
1F
100
AcDbEntity
  8
0
100
AcDbBlockBegin
  2
*Model_Space
 70
     0
 10
0.0
 20
0.0
 30
0.0
  3
*Model_Space
  1

  0
ENDBLK
  5
21
330
1F
100
AcDbEntity
  8
0
100
AcDbBlockEnd
  0
BLOCK
  5
D4
330
D2
100
AcDbEntity
 67
     1
  8
0
100
AcDbBlockBegin
  2
*Paper_Space
 70
     0
 10
0.0
 20
0.0
 30
0.0
  3
*Paper_Space
  1

  0
ENDBLK
  5
D5
330
D2
100
AcDbEntity
 67
     1
  8
0
100
AcDbBlockEnd
  0
BLOCK
  5
1B4
330
1B3
100
AcDbEntity
  8
0
100
AcDbBlockBegin
  2
MAR-STRZ
 70
     0
 10
0.0
 20
0.0
 30
0.0
  3
MAR-STRZ
  1

  0
LINE
  5
1B5
330
1B3
100
AcDbEntity
  8
0
100
AcDbLine
 10
0.0
 20
2.299999999999272
 30
0.0
 11
0.0
 21
-2.299999999999272
 31
0.0
  0
LINE
  5
1B6
330
1B3
100
AcDbEntity
  8
0
 62
    10
100
AcDbLine
 10
1.5
 20
1.5
 30
0.0
 11
-1.5
 21
-1.5
 31
0.0
  0
LINE
  5
1B7
330
1B3
100
AcDbEntity
  8
0
100
AcDbLine
 10
1.399999999999636
 20
0.0
 30
0.0
 11
-1.399999999999636
 21
0.0
 31
0.0
  0
ENDBLK
  5
1B8
330
1B3
100
AcDbEntity
  8
0
100
AcDbBlockEnd
  0
BLOCK
  5
1634
330
1633
100
AcDbEntity
  8
0
100
AcDbBlockBegin
  2
_DotSmall
 70
     0
 10
0.0
 20
0.0
 30
0.0
  3
_DotSmall
  1

  0
LWPOLYLINE
  5
1635
330
1633
100
AcDbEntity
  8
0
  6
ByBlock
 62
     0
100
AcDbPolyline
 90
        2
 70
     1
 43
0.5
 10
-0.0625
 20
0.0
 42
1.0
 10
0.0625
 20
0.0
 42
1.0
  0
ENDBLK
  5
1636
330
1633
100
AcDbEntity
  8
0
100
AcDbBlockEnd
  0
BLOCK
  5
1B5E
330
19A8
100
AcDbEntity
  8
0
100
AcDbBlockBegin
  2
A$C4F4D1ACA
 70
     0
 10
0.0
 20
0.0
 30
0.0
  3
A$C4F4D1ACA
  1

  0
ARC
  5
19A9
330
19A8
100
AcDbEntity
  8
0
100
AcDbCircle
 10
55.35277879762725
 20
43.4938704925662
 30
0.0
 40
0.8
100
AcDbArc
 50
180.0
 51
0.0
  0
LINE
  5
19AA
330
19A8
100
AcDbEntity
  8
0
100
AcDbLine
 10
55.35291518692247
 20
42.69387050419209
 30
0.0
 11
55.35618852996413
 21
23.49387078322252
 31
0.0
  0
LINE
  5
19AB
330
19A8
100
AcDbEntity
  8
0
100
AcDbLine
 10
55.35618852996413
 20
23.49387078322252
 30
0.0
 11
55.35291518692247
 21
42.69387050419209
 31
0.0
  0
LINE
  5
19AC
330
19A8
100
AcDbEntity
  8
0
100
AcDbLine
 10
54.55277880925496
 20
43.4937341032728
 30
0.0
 11
35.35277908828357
 21
43.49046076023114
 31
0.0
  0
LINE
  5
19AD
330
19A8
100
AcDbEntity
  8
0
100
AcDbLine
 10
35.35277908828357
 20
43.49046076023114
 30
0.0
 11
54.55277880925496
 21
43.4937341032728
 31
0.0
  0
LINE
  5
19AE
330
19A8
100
AcDbEntity
  8
0
100
AcDbLine
 10
56.15277878599954
 20
43.4940068818596
 30
0.0
 11
75.35277850697093
 21
43.49728022490126
 31
0.0
  0
LINE
  5
19AF
330
19A8
100
AcDbEntity
  8
0
100
AcDbLine
 10
75.35277850697093
 20
43.49728022490126
 30
0.0
 11
75.35277850697093
 21
25.09387078322288
 31
0.0
  0
LINE
  5
19B0
330
19A8
100
AcDbEntity
  8
0
100
AcDbLine
 10
73.75277850697239
 20
23.49387078322252
 30
0.0
 11
36.95277908828575
 21
23.49387078322252
 31
0.0
  0
ARC
  5
19B1
330
19A8
100
AcDbEntity
  8
0
100
AcDbCircle
 10
73.75277850697239
 20
25.09387078322288
 30
0.0
 40
1.6
100
AcDbArc
 50
270.0
 51
0.0
  0
LINE
  5
19B2
330
19A8
100
AcDbEntity
  8
0
100
AcDbLine
 10
35.35277908828357
 20
25.09387078322288
 30
0.0
 11
35.35277908828357
 21
43.4938704925662
 31
0.0
  0
ARC
  5
19B3
330
19A8
100
AcDbEntity
  8
0
100
AcDbCircle
 10
36.95277908828575
 20
25.09387078322288
 30
0.0
 40
1.6
100
AcDbArc
 50
180.0
 51
270.0
  0
LINE
  5
19B4
330
19A8
100
AcDbEntity
  8
0
100
AcDbLine
 10
54.78709337267719
 20
42.92818506761614
 30
0.0
 11
35.35277908828357
 21
23.49387078322252
 31
0.0
  0
LINE
  5
19B5
330
19A8
100
AcDbEntity
  8
0
100
AcDbLine
 10
75.35277850697093
 20
23.49387078322252
 30
0.0
 11
55.91846422257731
 21
42.92818506761614
 31
0.0
  0
LINE
  5
19B6
330
19A8
100
AcDbEntity
  8
0
100
AcDbLine
 10
56.15277879762652
 20
43.4938704925662
 30
0.0
 11
58.70277879762944
 21
43.4938704925662
 31
0.0
  0
LINE
  5
19B7
330
19A8
100
AcDbEntity
  8
0
100
AcDbLine
 10
58.70277879762944
 20
43.4938704925662
 30
0.0
 11
58.70277879762944
 21
41.7438704925662
 31
0.0
  0
ARC
  5
19B8
330
19A8
100
AcDbEntity
  8
0
100
AcDbCircle
 10
57.10277879762725
 20
41.7438704925662
 30
0.0
 40
1.6
100
AcDbArc
 50
270.0
 51
0.0
  0
LINE
  5
19B9
330
19A8
100
AcDbEntity
  8
0
100
AcDbLine
 10
57.10277879762725
 20
40.14387049256583
 30
0.0
 11
53.60277879762725
 21
40.14387049256583
 31
0.0
  0
ARC
  5
19BA
330
19A8
100
AcDbEntity
  8
0
100
AcDbCircle
 10
53.60277879762725
 20
41.7438704925662
 30
0.0
 40
1.6
100
AcDbArc
 50
180.0
 51
270.0
  0
LINE
  5
19BB
330
19A8
100
AcDbEntity
  8
0
100
AcDbLine
 10
52.00277879762871
 20
41.7438704925662
 30
0.0
 11
52.00277879762871
 21
43.4938704925662
 31
0.0
  0
LINE
  5
19BC
330
19A8
100
AcDbEntity
  8
0
100
AcDbLine
 10
55.3533499278019
 20
40.14387049256583
 30
0.0
 11
55.3533499278019
 21
36.14387049256584
 31
0.0
  0
LINE
  5
19BD
330
19A8
100
AcDbEntity
  8
0
100
AcDbLine
 10
55.3533499278019
 20
36.14387049256584
 30
0.0
 11
52.00277879762871
 21
36.14387049256584
 31
0.0
  0
LINE
  5
19BE
330
19A8
100
AcDbEntity
  8
0
100
AcDbLine
 10
61.10203730776629
 20
36.14387049256584
 30
0.0
 11
55.3533499278019
 21
36.14387049256584
 31
0.0
  0
LINE
  5
19BF
330
19A8
100
AcDbEntity
  8
0
100
AcDbLine
 10
48.0027787976287
 20
43.4938704925662
 30
0.0
 11
48.0027787976287
 21
37.7438704925662
 31
0.0
  0
LINE
  5
19C0
330
19A8
100
AcDbEntity
  8
0
100
AcDbLine
 10
52.00277879762871
 20
36.14387049256584
 30
0.0
 11
49.60277879762725
 21
36.14387049256584
 31
0.0
  0
ARC
  5
19C1
330
19A8
100
AcDbEntity
  8
0
100
AcDbCircle
 10
49.60277879762725
 20
37.7438704925662
 30
0.0
 40
1.6
100
AcDbArc
 50
180.0
 51
270.0
  0
LINE
  5
19C2
330
19A8
100
AcDbEntity
  8
0
100
AcDbLine
 10
62.69937336747898
 20
43.4938704925662
 30
0.0
 11
62.70203713603041
 21
37.74461181061452
 31
0.0
  0
ARC
  5
19C3
330
19A8
100
AcDbEntity
  8
0
100
AcDbCircle
 10
61.10203730776629
 20
37.7438704925662
 30
0.0
 40
1.6
100
AcDbArc
 50
270.0
 51
0.0265464937388123
  0
LINE
  5
19C4
330
19A8
100
AcDbEntity
  8
0
100
AcDbLine
 10
65.10277879762725
 20
32.14387049256584
 30
0.0
 11
55.35471382075775
 21
32.14387049256584
 31
0.0
  0
LINE
  5
19C5
330
19A8
100
AcDbEntity
  8
0
100
AcDbLine
 10
44.0027787976287
 20
33.74387049256621
 30
0.0
 11
44.0027787976287
 21
43.4938704925662
 31
0.0
  0
ARC
  5
19C6
330
19A8
100
AcDbEntity
  8
0
100
AcDbCircle
 10
45.60277879762725
 20
33.74387049256621
 30
0.0
 40
1.6
100
AcDbArc
 50
180.0
 51
270.0
  0
LINE
  5
19C7
330
19A8
100
AcDbEntity
  8
0
100
AcDbLine
 10
66.70277879762943
 20
43.4938704925662
 30
0.0
 11
66.70277879762943
 21
33.74387049256621
 31
0.0
  0
ARC
  5
19C8
330
19A8
100
AcDbEntity
  8
0
100
AcDbCircle
 10
65.10277879762725
 20
33.74387049256621
 30
0.0
 40
1.6
100
AcDbArc
 50
270.0
 51
0.0
  0
LINE
  5
19C9
330
19A8
100
AcDbEntity
  8
0
100
AcDbLine
 10
45.60277879762725
 20
32.14387049256584
 30
0.0
 11
55.35471382075775
 21
32.14387049256584
 31
0.0
  0
LINE
  5
19CA
330
19A8
100
AcDbEntity
  8
0
100
AcDbLine
 10
69.10277879762725
 20
28.14387049256584
 30
0.0
 11
41.60277879762725
 21
28.14387049256584
 31
0.0
  0
ARC
  5
19CB
330
19A8
100
AcDbEntity
  8
0
100
AcDbCircle
 10
69.10277879762725
 20
29.7438704925662
 30
0.0
 40
1.6
100
AcDbArc
 50
270.0
 51
0.0
  0
LINE
  5
19CC
330
19A8
100
AcDbEntity
  8
0
100
AcDbLine
 10
40.00277879762871
 20
29.7438704925662
 30
0.0
 11
40.00277879762871
 21
43.4938704925662
 31
0.0
  0
ARC
  5
19CD
330
19A8
100
AcDbEntity
  8
0
100
AcDbCircle
 10
41.60277879762725
 20
29.7438704925662
 30
0.0
 40
1.6
100
AcDbArc
 50
180.0
 51
270.0
  0
LINE
  5
19CE
330
19A8
100
AcDbEntity
  8
0
100
AcDbLine
 10
70.70277879762944
 20
43.4938704925662
 30
0.0
 11
70.70277879762944
 21
29.7438704925662
 31
0.0
  0
LINE
  5
19CF
330
19A8
100
AcDbEntity
  8
0
100
AcDbLine
 10
35.35277908828357
 20
23.49387078322252
 30
0.0
 11
31.35277908828357
 21
19.49387078322252
 31
0.0
  0
LINE
  5
19D0
330
19A8
100
AcDbEntity
  8
0
100
AcDbLine
 10
31.35277908828357
 20
21.09387078322288
 30
0.0
 11
31.35277908828357
 21
43.4938704925662
 31
0.0
  0
ARC
  5
19D1
330
19A8
100
AcDbEntity
  8
0
100
AcDbCircle
 10
32.95277908828575
 20
21.09387078322288
 30
0.0
 40
1.6
100
AcDbArc
 50
180.0
 51
270.0
  0
LINE
  5
19D2
330
19A8
100
AcDbEntity
  8
0
100
AcDbLine
 10
75.35277850697093
 20
23.49387078322252
 30
0.0
 11
79.63193859199964
 21
19.21471069819563
 31
0.0
  0
LINE
  5
19D3
330
19A8
100
AcDbEntity
  8
0
100
AcDbLine
 10
32.95277908828575
 20
19.49387078322252
 30
0.0
 11
77.75277850697239
 21
19.49387078322252
 31
0.0
  0
ARC
  5
19D4
330
19A8
100
AcDbEntity
  8
0
100
AcDbCircle
 10
77.75277850697239
 20
21.09387078322288
 30
0.0
 40
1.6
100
AcDbArc
 50
270.0
 51
0.0
  0
LINE
  5
19D5
330
19A8
100
AcDbEntity
  8
0
100
AcDbLine
 10
79.35277850697094
 20
43.4938704925662
 30
0.0
 11
79.35277850697094
 21
21.09387078322288
 31
0.0
  0
LINE
  5
19D6
330
19A8
100
AcDbEntity
  8
0
100
AcDbLine
 10
31.35277908828357
 20
19.49387078322252
 30
0.0
 11
27.35893447840499
 21
15.50002617334394
 31
0.0
  0
LINE
  5
19D7
330
19A8
100
AcDbEntity
  8
0
100
AcDbLine
 10
83.34662311684951
 20
15.50002617334394
 30
0.0
 11
79.35277850697094
 21
19.49387078322252
 31
0.0
  0
LINE
  5
19D8
330
19A8
100
AcDbEntity
  8
0
100
AcDbLine
 10
55.91846422257731
 20
42.92818506761614
 30
0.0
 11
66.70277879762943
 21
35.37714381212754
 31
0.0
  0
LINE
  5
19D9
330
19A8
100
AcDbEntity
  8
0
100
AcDbLine
 10
54.55277879762798
 20
43.4938704925662
 30
0.0
 11
41.58772435438367
 21
41.20760100287407
 31
0.0
  0
LINE
  5
19DA
330
19A8
100
AcDbEntity
  8
0
100
AcDbLine
 10
54.78709337267719
 20
42.92818506761614
 30
0.0
 11
47.23605211718677
 21
32.14387049256584
 31
0.0
  0
LINE
  5
19DB
330
19A8
100
AcDbEntity
  8
0
100
AcDbLine
 10
55.35277879762725
 20
42.6938704925651
 30
0.0
 11
57.63904828731757
 21
29.72881604932263
 31
0.0
  0
LINE
  5
19DC
330
19A8
100
AcDbEntity
  8
0
100
AcDbLine
 10
41.58772435438367
 20
41.20760100287407
 30
0.0
 11
40.00277879762871
 21
40.92811026219897
 31
0.0
  0
LINE
  5
19DD
330
19A8
100
AcDbEntity
  8
0
100
AcDbLine
 10
47.23605211718677
 20
32.14387049256584
 30
0.0
 11
44.4353024903321
 21
28.14387049256584
 31
0.0
  0
LINE
  5
19DE
330
19A8
100
AcDbEntity
  8
0
100
AcDbLine
 10
57.63904828731757
 20
29.72881604932263
 30
0.0
 11
57.91853902799267
 21
28.14387049256584
 31
0.0
  0
LINE
  5
19DF
330
19A8
100
AcDbEntity
  8
0
100
AcDbLine
 10
66.70277879762943
 20
35.37714381212754
 30
0.0
 11
70.70277879762944
 21
32.57639418527106
 31
0.0
  0
LINE
  5
19E0
330
19A8
100
AcDbEntity
  8
Widoczne (ISO)
100
AcDbLine
 10
44.37714894416785
 20
28.27114001516384
 30
0.0
 11
44.37748429916246
 21
28.46534633958618
 31
0.0
  0
LINE
  5
19E1
330
19A8
100
AcDbEntity
  8
Widoczne (ISO)
100
AcDbLine
 10
44.69714846707574
 20
28.27058744078385
 30
0.0
 11
44.69748382207035
 21
28.46479376520619
 31
0.0
  0
LINE
  5
19E2
330
19A8
100
AcDbEntity
  8
Widoczne (ISO)
100
AcDbLine
 10
44.81668735427956
 20
28.00345032480618
 30
0.0
 11
44.25668818918711
 21
28.00441732996842
 31
0.0
  0
LINE
  5
19E3
330
19A8
100
AcDbEntity
  8
Widoczne (ISO)
100
AcDbLine
 10
44.25659654869741
 20
27.95134770764708
 30
0.0
 11
44.81659571378623
 21
27.95038070248484
 31
0.0
  0
ELLIPSE
  5
19E4
330
19A8
100
AcDbEntity
  8
Widoczne (ISO)
100
AcDbEllipse
 10
44.25672281044535
 20
28.02446673105624
 30
0.0
 11
-0.0299999552726562
 21
0.0000518038480352
 31
0.0
210
0.0
220
0.0
230
1.0
 40
0.6683143659758094
 41
0.0
 42
1.570796326794899
  0
LINE
  5
19E5
330
19A8
100
AcDbEntity
  8
Widoczne (ISO)
100
AcDbLine
 10
44.22664839727076
 20
27.98139946676747
 30
0.0
 11
44.22672285517182
 21
28.02451853490493
 31
0.0
  0
ARC
  5
19E6
330
19A8
100
AcDbEntity
  8
Widoczne (ISO)
100
AcDbCircle
 10
44.25664835254429
 20
27.9813476629206
 30
0.0
 40
0.0300000000000008
100
AcDbArc
 50
179.901061884271
 51
269.9010618842712
  0
ARC
  5
19E7
330
19A8
100
AcDbEntity
  8
Widoczne (ISO)
100
AcDbCircle
 10
44.8166475176331
 20
27.98038065775654
 30
0.0
 40
0.0300000000000008
100
AcDbArc
 50
269.9010618842712
 51
359.901061884271
  0
ELLIPSE
  5
19E8
330
19A8
100
AcDbEntity
  8
Widoczne (ISO)
100
AcDbEllipse
 10
44.25672281044535
 20
28.02446673105624
 30
0.0
 11
-0.0299999552726562
 21
0.0000518038480352
 31
0.0
210
0.0
220
0.0
230
1.0
 40
0.6683143659758172
 41
0.0000000000000067
 42
1.570796326794899
  0
LINE
  5
19E9
330
19A8
100
AcDbEntity
  8
Widoczne (ISO)
100
AcDbLine
 10
44.84709643958922
 20
28.24032846627233
 30
0.0
 11
44.84672193080768
 21
28.02344792204531
 31
0.0
  0
LINE
  5
19EA
330
19A8
100
AcDbEntity
  8
Widoczne (ISO)
100
AcDbLine
 10
44.22672285517182
 20
28.02451853490493
 30
0.0
 11
44.22709736395336
 21
28.24139907913195
 31
0.0
  0
SPLINE
  5
19EB
330
19A8
100
AcDbEntity
  8
Widoczne (ISO)
100
AcDbSpline
210
0.0
220
0.0
230
1.0
 70
     8
 71
     3
 72
    26
 73
    22
 74
     0
 42
0.0000000001
 43
0.0000000001
 40
3.141592653589794
 40
3.141592653589794
 40
3.141592653589794
 40
3.141592653589794
 40
3.423445136380704
 40
3.423445136380704
 40
3.716624680336462
 40
3.716624680336462
 40
4.033735774154033
 40
4.033735774154033
 40
4.368502129829808
 40
4.368502129829808
 40
4.709082690707942
 40
4.709082690707942
 40
5.050454257127871
 40
5.050454257127871
 40
5.391071219074971
 40
5.391071219074971
 40
5.725836605839336
 40
5.725836605839336
 40
6.041567312063408
 40
6.041567312063408
 40
6.283185307179585
 40
6.283185307179585
 40
6.283185307179585
 40
6.283185307179585
 10
44.69748382207035
 20
28.46479376520619
 30
0.0
 10
44.69750605352238
 20
28.47766814796887
 30
0.0
 10
44.695046031542
 20
28.4905269409901
 30
0.0
 10
44.68551861567175
 20
28.51512834744062
 30
0.0
 10
44.67830254147338
 20
28.52679796461416
 30
0.0
 10
44.65960618647295
 20
28.54833261189014
 30
0.0
 10
44.64783594317123
 20
28.55799257671242
 30
0.0
 10
44.62082863077012
 20
28.57425750491166
 30
0.0
 10
44.60542790937688
 20
28.58067073299026
 30
0.0
 10
44.57277727426117
 20
28.5894291107561
 30
0.0
 10
44.55549827530922
 20
28.59170025065214
 30
0.0
 10
44.52087446882797
 20
28.59184519641713
 30
0.0
 10
44.50353197781441
 20
28.58970870722806
 30
0.0
 10
44.47047531061253
 20
28.58112471137065
 30
0.0
 10
44.45475608398555
 20
28.5746880125007
 30
0.0
 10
44.4267174657034
 20
28.55793267340778
 30
0.0
 10
44.41433602511824
 20
28.54767221518341
 30
0.0
 10
44.39480463399013
 20
28.52444261659184
 30
0.0
 10
44.38741193373789
 20
28.51163522014577
 30
0.0
 10
44.37933908788909
 20
28.48740680766787
 30
0.0
 10
44.37750335707096
 20
28.47638290211762
 30
0.0
 10
44.37748429916246
 20
28.46534633958618
 30
0.0
  0
ARC
  5
19EC
330
19A8
100
AcDbEntity
  8
Widoczne (ISO)
100
AcDbCircle
 10
44.8170964843157
 20
28.24038027011921
 30
0.0
 40
0.0300000000000008
100
AcDbArc
 50
359.901061884271
 51
89.90106188427121
  0
LINE
  5
19ED
330
19A8
100
AcDbEntity
  8
Widoczne (ISO)
100
AcDbLine
 10
44.25668818918711
 20
28.00441732996842
 30
0.0
 11
44.81668735427956
 21
28.00345032480618
 31
0.0
  0
ELLIPSE
  5
19EE
330
19A8
100
AcDbEntity
  8
Widoczne (ISO)
100
AcDbEllipse
 10
44.53687241842999
 20
28.1108639665199
 30
0.0
 11
0.1458789723450887
 21
-0.1463836507145655
 31
0.0
210
0.0
220
0.0
230
0.9999999999999998
 40
0.4458865642531584
 41
1.990224255978878
 42
2.722164724406109
  0
ELLIPSE
  5
19EF
330
19A8
100
AcDbEntity
  8
Widoczne (ISO)
100
AcDbEllipse
 10
44.53687241842999
 20
28.1108639665199
 30
0.0
 11
0.1463836507145714
 21
0.1458789723450827
 31
0.0
210
0.0
220
0.0
230
1.0
 40
0.4458865642531572
 41
0.4194279291845593
 42
1.151368397611416
  0
LINE
  5
19F0
330
19A8
100
AcDbEntity
  8
Widoczne (ISO)
100
AcDbLine
 10
44.8171482881662
 20
28.27038022539273
 30
0.0
 11
44.6440788447544
 21
28.27067908127538
 31
0.0
  0
LINE
  5
19F1
330
19A8
100
AcDbEntity
  8
Widoczne (ISO)
100
AcDbLine
 10
44.4302185664892
 20
28.27104837467232
 30
0.0
 11
44.25714912307739
 21
28.27134723055497
 31
0.0
  0
LINE
  5
19F2
330
19A8
100
AcDbEntity
  8
Widoczne (ISO)
100
AcDbLine
 10
44.69714846707574
 20
28.27058744078385
 30
0.0
 11
44.69748382207035
 21
28.46479376520619
 31
0.0
  0
LINE
  5
19F3
330
19A8
100
AcDbEntity
  8
Widoczne (ISO)
100
AcDbLine
 10
44.37714894416785
 20
28.27114001516384
 30
0.0
 11
44.37748429916246
 21
28.46534633958618
 31
0.0
  0
LINE
  5
19F4
330
19A8
100
AcDbEntity
  8
Widoczne (ISO)
100
AcDbLine
 10
57.71233375613156
 20
28.3409483395626
 30
0.0
 11
57.7126691111298
 21
28.53515466398494
 31
0.0
  0
LINE
  5
19F5
330
19A8
100
AcDbEntity
  8
Widoczne (ISO)
100
AcDbLine
 10
58.03233327904308
 20
28.34039576518262
 30
0.0
 11
58.03266863403769
 21
28.53460208960496
 31
0.0
  0
LINE
  5
19F6
330
19A8
100
AcDbEntity
  8
Widoczne (ISO)
100
AcDbLine
 10
58.15187216624327
 20
28.07325864920495
 30
0.0
 11
57.59187300115446
 21
28.07422565436718
 31
0.0
  0
LINE
  5
19F7
330
19A8
100
AcDbEntity
  8
Widoczne (ISO)
100
AcDbLine
 10
57.59178136066475
 20
28.02115603204584
 30
0.0
 11
58.15178052575356
 21
28.02018902688178
 31
0.0
  0
ELLIPSE
  5
19F8
330
19A8
100
AcDbEntity
  8
Widoczne (ISO)
100
AcDbEllipse
 10
57.59190762240905
 20
28.094275055455
 30
0.0
 11
-0.0299999552726562
 21
0.0000518038480352
 31
0.0
210
0.0
220
0.0
230
1.0
 40
0.6683143659758094
 41
0.0
 42
1.570796326794899
  0
LINE
  5
19F9
330
19A8
100
AcDbEntity
  8
Widoczne (ISO)
100
AcDbLine
 10
57.5618332092381
 20
28.05120779116624
 30
0.0
 11
57.56190766713917
 21
28.09432685930188
 31
0.0
  0
ARC
  5
19FA
330
19A8
100
AcDbEntity
  8
Widoczne (ISO)
100
AcDbCircle
 10
57.59183316451163
 20
28.05115598731755
 30
0.0
 40
0.0300000000000008
100
AcDbArc
 50
179.901061884271
 51
269.9010618842712
  0
ARC
  5
19FB
330
19A8
100
AcDbEntity
  8
Widoczne (ISO)
100
AcDbCircle
 10
58.15183232960044
 20
28.05018898215531
 30
0.0
 40
0.0300000000000008
100
AcDbArc
 50
269.9010618842712
 51
359.901061884271
  0
ELLIPSE
  5
19FC
330
19A8
100
AcDbEntity
  8
Widoczne (ISO)
100
AcDbEllipse
 10
57.59190762240905
 20
28.094275055455
 30
0.0
 11
-0.0299999552726562
 21
0.0000518038480352
 31
0.0
210
0.0
220
0.0
230
1.0
 40
0.6683143659758172
 41
0.0000000000000067
 42
1.570796326794899
  0
LINE
  5
19FD
330
19A8
100
AcDbEntity
  8
Widoczne (ISO)
100
AcDbLine
 10
58.18228125155656
 20
28.31013679066927
 30
0.0
 11
58.18190674277139
 21
28.09325624644407
 31
0.0
  0
LINE
  5
19FE
330
19A8
100
AcDbEntity
  8
Widoczne (ISO)
100
AcDbLine
 10
57.56190766713917
 20
28.09432685930188
 30
0.0
 11
57.5622821759207
 21
28.3112074035289
 31
0.0
  0
SPLINE
  5
19FF
330
19A8
100
AcDbEntity
  8
Widoczne (ISO)
100
AcDbSpline
210
0.0
220
0.0
230
1.0
 70
     8
 71
     3
 72
    26
 73
    22
 74
     0
 42
0.0000000001
 43
0.0000000001
 40
3.141592653589794
 40
3.141592653589794
 40
3.141592653589794
 40
3.141592653589794
 40
3.423445136380704
 40
3.423445136380704
 40
3.716624680336462
 40
3.716624680336462
 40
4.033735774154033
 40
4.033735774154033
 40
4.368502129829808
 40
4.368502129829808
 40
4.709082690707942
 40
4.709082690707942
 40
5.050454257127871
 40
5.050454257127871
 40
5.391071219074971
 40
5.391071219074971
 40
5.725836605839336
 40
5.725836605839336
 40
6.041567312063408
 40
6.041567312063408
 40
6.283185307179585
 40
6.283185307179585
 40
6.283185307179585
 40
6.283185307179585
 10
58.03266863403769
 20
28.53460208960496
 30
0.0
 10
58.03269086548971
 20
28.54747647236763
 30
0.0
 10
58.03023084350934
 20
28.56033526538886
 30
0.0
 10
58.02070342763909
 20
28.58493667183939
 30
0.0
 10
58.01348735344072
 20
28.5966062890111
 30
0.0
 10
57.99479099844029
 20
28.61814093628891
 30
0.0
 10
57.98302075513857
 20
28.62780090111119
 30
0.0
 10
57.95601344273745
 20
28.64406582931042
 30
0.0
 10
57.94061272134422
 20
28.65047905738902
 30
0.0
 10
57.9079620862285
 20
28.65923743515486
 30
0.0
 10
57.89068308727656
 20
28.6615085750509
 30
0.0
 10
57.8560592807953
 20
28.66165352081589
 30
0.0
 10
57.83871678977812
 20
28.65951703162682
 30
0.0
 10
57.80566012257986
 20
28.6509330357676
 30
0.0
 10
57.78994089594926
 20
28.64449633689947
 30
0.0
 10
57.7619022776671
 20
28.62774099780654
 30
0.0
 10
57.74952083708194
 20
28.61748053958218
 30
0.0
 10
57.72998944595747
 20
28.59425094099061
 30
0.0
 10
57.72259674570523
 20
28.58144354454453
 30
0.0
 10
57.71452389985643
 20
28.55721513206481
 30
0.0
 10
57.7126881690383
 20
28.54619122651639
 30
0.0
 10
57.7126691111298
 20
28.53515466398494
 30
0.0
  0
ARC
  5
1A00
330
19A8
100
AcDbEntity
  8
Widoczne (ISO)
100
AcDbCircle
 10
58.15228129628303
 20
28.31018859451797
 30
0.0
 40
0.0300000000000008
100
AcDbArc
 50
359.901061884271
 51
89.90106188427121
  0
LINE
  5
1A01
330
19A8
100
AcDbEntity
  8
Widoczne (ISO)
100
AcDbLine
 10
57.59187300115446
 20
28.07422565436718
 30
0.0
 11
58.15187216624327
 21
28.07325864920495
 31
0.0
  0
ELLIPSE
  5
1A02
330
19A8
100
AcDbEntity
  8
Widoczne (ISO)
100
AcDbEllipse
 10
57.87205723039733
 20
28.18067229091866
 30
0.0
 11
0.1458789723450887
 21
-0.1463836507145655
 31
0.0
210
0.0
220
0.0
230
0.9999999999999998
 40
0.4458865642531584
 41
1.990224255978878
 42
2.722164724406109
  0
ELLIPSE
  5
1A03
330
19A8
100
AcDbEntity
  8
Widoczne (ISO)
100
AcDbEllipse
 10
57.87205723039733
 20
28.18067229091866
 30
0.0
 11
0.1463836507145714
 21
0.1458789723450827
 31
0.0
210
0.0
220
0.0
230
1.0
 40
0.4458865642531572
 41
0.4194279291845593
 42
1.151368397611416
  0
LINE
  5
1A04
330
19A8
100
AcDbEntity
  8
Widoczne (ISO)
100
AcDbLine
 10
58.15233310013354
 20
28.34018854979149
 30
0.0
 11
57.9792636567181
 21
28.34048740567414
 31
0.0
  0
LINE
  5
1A05
330
19A8
100
AcDbEntity
  8
Widoczne (ISO)
100
AcDbLine
 10
57.7654033784529
 20
28.34085669907108
 30
0.0
 11
57.5923339350411
 21
28.34115555495373
 31
0.0
  0
LINE
  5
1A06
330
19A8
100
AcDbEntity
  8
Widoczne (ISO)
100
AcDbLine
 10
58.03233327904308
 20
28.34039576518262
 30
0.0
 11
58.03266863403769
 21
28.53460208960496
 31
0.0
  0
LINE
  5
1A07
330
19A8
100
AcDbEntity
  8
Widoczne (ISO)
100
AcDbLine
 10
57.71233375613156
 20
28.3409483395626
 30
0.0
 11
57.7126691111298
 21
28.53515466398494
 31
0.0
  0
CIRCLE
  5
1A08
330
19A8
100
AcDbEntity
  8
0
100
AcDbCircle
 10
74.88414935686887
 20
23.96249993332458
 30
0.0
 40
0.3186153093464729
  0
CIRCLE
  5
1A09
330
19A8
100
AcDbEntity
  8
0
100
AcDbCircle
 10
35.82140823838563
 20
23.96249993332458
 30
0.0
 40
0.3186153093464729
  0
CIRCLE
  5
1A0A
330
19A8
100
AcDbEntity
  8
0
100
AcDbCircle
 10
31.82140823838563
 20
19.96249993332458
 30
0.0
 40
0.3186153093464729
  0
CIRCLE
  5
1A0B
330
19A8
100
AcDbEntity
  8
0
100
AcDbCircle
 10
78.88414935686888
 20
19.96249993332458
 30
0.0
 40
0.3186153093464729
  0
CIRCLE
  5
1A0C
330
19A8
100
AcDbEntity
  8
0
100
AcDbCircle
 10
40.47140794773077
 20
28.6124996426679
 30
0.0
 40
0.3186153093464729
  0
CIRCLE
  5
1A0D
330
19A8
100
AcDbEntity
  8
0
100
AcDbCircle
 10
44.47140794773076
 20
32.6124996426679
 30
0.0
 40
0.3186153093464729
  0
CIRCLE
  5
1A0E
330
19A8
100
AcDbEntity
  8
0
100
AcDbCircle
 10
70.23414964752737
 20
28.6124996426679
 30
0.0
 40
0.3186153093464729
  0
CIRCLE
  5
1A0F
330
19A8
100
AcDbEntity
  8
0
100
AcDbCircle
 10
62.2337788418481
 20
36.61287044834535
 30
0.0
 40
0.3186153093464729
  0
CIRCLE
  5
1A10
330
19A8
100
AcDbEntity
  8
0
100
AcDbCircle
 10
66.23414964752737
 20
32.6124996426679
 30
0.0
 40
0.3186153093464729
  0
CIRCLE
  5
1A11
330
19A8
100
AcDbEntity
  8
0
100
AcDbCircle
 10
58.23414964752737
 20
40.6124996426679
 30
0.0
 40
0.3186153093464729
  0
CIRCLE
  5
1A12
330
19A8
100
AcDbEntity
  8
0
100
AcDbCircle
 10
52.47140794773077
 20
40.6124996426679
 30
0.0
 40
0.3186153093464729
  0
CIRCLE
  5
1A13
330
19A8
100
AcDbEntity
  8
0
100
AcDbCircle
 10
48.47140794773077
 20
36.6124996426679
 30
0.0
 40
0.3186153093464729
  0
LINE
  5
1A14
330
19A8
100
AcDbEntity
  8
Widoczne (ISO)
100
AcDbLine
 10
40.17300597267968
 20
41.08603556939852
 30
0.0
 11
40.36721229710383
 21
41.08570021440027
 31
0.0
  0
LINE
  5
1A15
330
19A8
100
AcDbEntity
  8
Widoczne (ISO)
100
AcDbLine
 10
40.17245339830333
 20
40.76603604649062
 30
0.0
 11
40.36665972272385
 21
40.76570069149238
 31
0.0
  0
LINE
  5
1A16
330
19A8
100
AcDbEntity
  8
Widoczne (ISO)
100
AcDbLine
 10
39.90531628232202
 20
40.6464971592868
 30
0.0
 11
39.9062832874879
 21
41.20649632437562
 31
0.0
  0
LINE
  5
1A17
330
19A8
100
AcDbEntity
  8
Widoczne (ISO)
100
AcDbLine
 10
39.85321366516655
 20
41.20658796486714
 30
0.0
 11
39.85224666000068
 21
40.64658879977833
 31
0.0
  0
ELLIPSE
  5
1A18
330
19A8
100
AcDbEntity
  8
Widoczne (ISO)
100
AcDbEllipse
 10
39.92633268857389
 20
41.20646170312102
 30
0.0
 11
0.0000518038480352
 21
0.0299999552726562
 31
0.0
210
0.0
220
0.0
230
1.0
 40
0.6683143659758094
 41
0.0
 42
1.570796326794899
  0
LINE
  5
1A19
330
19A8
100
AcDbEntity
  8
Widoczne (ISO)
100
AcDbLine
 10
39.88326542428695
 20
41.23653611629197
 30
0.0
 11
39.92638449242077
 21
41.23646165839272
 31
0.0
  0
ARC
  5
1A1A
330
19A8
100
AcDbEntity
  8
Widoczne (ISO)
100
AcDbCircle
 10
39.88321362043644
 20
41.20653616102027
 30
0.0
 40
0.0300000000000008
100
AcDbArc
 50
89.90106188427121
 51
179.901061884271
  0
ARC
  5
1A1B
330
19A8
100
AcDbEntity
  8
Widoczne (ISO)
100
AcDbCircle
 10
39.8822466152742
 20
40.64653699592963
 30
0.0
 40
0.0300000000000008
100
AcDbArc
 50
179.901061884271
 51
269.9010618842712
  0
ELLIPSE
  5
1A1C
330
19A8
100
AcDbEntity
  8
Widoczne (ISO)
100
AcDbEllipse
 10
39.92633268857389
 20
41.20646170312102
 30
0.0
 11
0.0000518038480353
 21
0.0299999552726562
 31
0.0
210
0.0
220
0.0
230
1.0
 40
0.6683143659758172
 41
0.0000000000000067
 42
1.570796326794899
  0
LINE
  5
1A1D
330
19A8
100
AcDbEntity
  8
Widoczne (ISO)
100
AcDbLine
 10
40.14219442378816
 20
40.61608807397533
 30
0.0
 11
39.92531387956115
 21
40.61646258275868
 31
0.0
  0
LINE
  5
1A1E
330
19A8
100
AcDbEntity
  8
Widoczne (ISO)
100
AcDbLine
 10
39.92638449242077
 20
41.23646165839272
 30
0.0
 11
40.14326503664778
 21
41.23608714960937
 31
0.0
  0
SPLINE
  5
1A1F
330
19A8
100
AcDbEntity
  8
Widoczne (ISO)
100
AcDbSpline
210
0.0
220
0.0
230
1.0
 70
     8
 71
     3
 72
    26
 73
    22
 74
     0
 42
0.0000000001
 43
0.0000000001
 40
3.141592653589794
 40
3.141592653589794
 40
3.141592653589794
 40
3.141592653589794
 40
3.423445136380704
 40
3.423445136380704
 40
3.716624680336462
 40
3.716624680336462
 40
4.033735774154033
 40
4.033735774154033
 40
4.368502129829808
 40
4.368502129829808
 40
4.709082690707942
 40
4.709082690707942
 40
5.050454257127871
 40
5.050454257127871
 40
5.391071219074971
 40
5.391071219074971
 40
5.725836605839336
 40
5.725836605839336
 40
6.041567312063408
 40
6.041567312063408
 40
6.283185307179585
 40
6.283185307179585
 40
6.283185307179585
 40
6.283185307179585
 10
40.36665972272385
 20
40.76570069149238
 30
0.0
 10
40.37953410548652
 20
40.76567846004036
 30
0.0
 10
40.39239289850593
 20
40.76813848202255
 30
0.0
 10
40.41699430496009
 20
40.77766589789098
 30
0.0
 10
40.42866392213182
 20
40.78488197208935
 30
0.0
 10
40.4501985694078
 20
40.80357832708978
 30
0.0
 10
40.45985853423189
 20
40.81534857039332
 30
0.0
 10
40.47612346243113
 20
40.84235588279262
 30
0.0
 10
40.48253669050973
 20
40.85775660418767
 30
0.0
 10
40.49129506827376
 20
40.89040723930156
 30
0.0
 10
40.49356620816979
 20
40.90768623825534
 30
0.0
 10
40.4937111539366
 20
40.94231004473658
 30
0.0
 10
40.49157466474571
 20
40.95965253575196
 30
0.0
 10
40.48299066888648
 20
40.99270920295384
 30
0.0
 10
40.47655397002017
 20
41.00842842958082
 30
0.0
 10
40.45979863092362
 20
41.03646704786297
 30
0.0
 10
40.44953817269925
 20
41.04884848844813
 30
0.0
 10
40.42630857411132
 20
41.0683798795726
 30
0.0
 10
40.41350117766342
 20
41.07577257982666
 30
0.0
 10
40.38927276518371
 20
41.08384542567364
 30
0.0
 10
40.3782488596371
 20
41.08568115649177
 30
0.0
 10
40.36721229710383
 20
41.08570021440027
 30
0.0
  0
ARC
  5
1A20
330
19A8
100
AcDbEntity
  8
Widoczne (ISO)
100
AcDbCircle
 10
40.14224622763868
 20
40.64608802924704
 30
0.0
 40
0.0300000000000008
100
AcDbArc
 50
269.9010618842712
 51
359.901061884271
  0
LINE
  5
1A21
330
19A8
100
AcDbEntity
  8
Widoczne (ISO)
100
AcDbLine
 10
39.9062832874879
 20
41.20649632437562
 30
0.0
 11
39.90531628232202
 21
40.6464971592868
 31
0.0
  0
ELLIPSE
  5
1A22
330
19A8
100
AcDbEntity
  8
Widoczne (ISO)
100
AcDbEllipse
 10
40.01272992403755
 20
40.92631209513274
 30
0.0
 11
-0.1463836507145655
 21
-0.1458789723450886
 31
0.0
210
0.0
220
0.0
230
0.9999999999999998
 40
0.4458865642531584
 41
1.990224255978878
 42
2.722164724406109
  0
ELLIPSE
  5
1A23
330
19A8
100
AcDbEntity
  8
Widoczne (ISO)
100
AcDbEllipse
 10
40.01272992403755
 20
40.92631209513274
 30
0.0
 11
0.1458789723450827
 21
-0.1463836507145714
 31
0.0
210
0.0
220
0.0
230
1.0
 40
0.4458865642531572
 41
0.4194279291845593
 42
1.151368397611416
  0
LINE
  5
1A24
330
19A8
100
AcDbEntity
  8
Widoczne (ISO)
100
AcDbLine
 10
40.17224618290856
 20
40.64603622539834
 30
0.0
 11
40.17254503879303
 21
40.81910566881197
 31
0.0
  0
LINE
  5
1A25
330
19A8
100
AcDbEntity
  8
Widoczne (ISO)
100
AcDbLine
 10
40.17291433218997
 20
41.03296594707717
 30
0.0
 11
40.17321318807444
 21
41.20603539048897
 31
0.0
  0
LINE
  5
1A26
330
19A8
100
AcDbEntity
  8
Widoczne (ISO)
100
AcDbLine
 10
40.17245339830333
 20
40.76603604649062
 30
0.0
 11
40.36665972272385
 21
40.76570069149238
 31
0.0
  0
LINE
  5
1A27
330
19A8
100
AcDbEntity
  8
Widoczne (ISO)
100
AcDbLine
 10
40.17300597267968
 20
41.08603556939852
 30
0.0
 11
40.36721229710383
 21
41.08570021440027
 31
0.0
  0
LINE
  5
1A28
330
19A8
100
AcDbEntity
  8
Widoczne (ISO)
100
AcDbLine
 10
70.55307243885181
 20
32.44744259426443
 30
0.0
 11
70.35886611443129
 21
32.44777794926267
 31
0.0
  0
LINE
  5
1A29
330
19A8
100
AcDbEntity
  8
Widoczne (ISO)
100
AcDbLine
 10
70.55362501323179
 20
32.76744211717414
 30
0.0
 11
70.35941868881128
 21
32.76777747217057
 31
0.0
  0
LINE
  5
1A2A
330
19A8
100
AcDbEntity
  8
Widoczne (ISO)
100
AcDbLine
 10
70.82076212921311
 20
32.88698100437614
 30
0.0
 11
70.81979512404723
 21
32.32698183928733
 31
0.0
  0
LINE
  5
1A2B
330
19A8
100
AcDbEntity
  8
Widoczne (ISO)
100
AcDbLine
 10
70.87286474636858
 20
32.32689019879581
 30
0.0
 11
70.87383175153445
 21
32.88688936388462
 31
0.0
  0
ELLIPSE
  5
1A2C
330
19A8
100
AcDbEntity
  8
Widoczne (ISO)
100
AcDbEllipse
 10
70.79974572296123
 20
32.32701646054193
 30
0.0
 11
-0.0000518038480352
 21
-0.0299999552726562
 31
0.0
210
0.0
220
0.0
230
1.0
 40
0.6683143659758094
 41
0.0
 42
1.570796326794899
  0
LINE
  5
1A2D
330
19A8
100
AcDbEntity
  8
Widoczne (ISO)
100
AcDbLine
 10
70.84281298724818
 20
32.29694204737098
 30
0.0
 11
70.79969391911436
 21
32.29701650527022
 31
0.0
  0
ARC
  5
1A2E
330
19A8
100
AcDbEntity
  8
Widoczne (ISO)
100
AcDbCircle
 10
70.84286479109869
 20
32.32694200264268
 30
0.0
 40
0.0300000000000008
100
AcDbArc
 50
269.9010618842712
 51
359.901061884271
  0
ARC
  5
1A2F
330
19A8
100
AcDbEntity
  8
Widoczne (ISO)
100
AcDbCircle
 10
70.84383179626093
 20
32.88694116773331
 30
0.0
 40
0.0300000000000008
100
AcDbArc
 50
359.901061884271
 51
89.90106188427121
  0
ELLIPSE
  5
1A30
330
19A8
100
AcDbEntity
  8
Widoczne (ISO)
100
AcDbEllipse
 10
70.79974572296123
 20
32.32701646054193
 30
0.0
 11
-0.0000518038480353
 21
-0.0299999552726562
 31
0.0
210
0.0
220
0.0
230
1.0
 40
0.6683143659758172
 41
0.0000000000000067
 42
1.570796326794899
  0
LINE
  5
1A31
330
19A8
100
AcDbEntity
  8
Widoczne (ISO)
100
AcDbLine
 10
70.58388398774695
 20
32.91739008968761
 30
0.0
 11
70.80076453197398
 21
32.91701558090426
 31
0.0
  0
LINE
  5
1A32
330
19A8
100
AcDbEntity
  8
Widoczne (ISO)
100
AcDbLine
 10
70.79969391911436
 20
32.29701650527022
 30
0.0
 11
70.58281337488733
 21
32.29739101405357
 31
0.0
  0
SPLINE
  5
1A33
330
19A8
100
AcDbEntity
  8
Widoczne (ISO)
100
AcDbSpline
210
0.0
220
0.0
230
1.0
 70
     8
 71
     3
 72
    26
 73
    22
 74
     0
 42
0.0000000001
 43
0.0000000001
 40
3.141592653589794
 40
3.141592653589794
 40
3.141592653589794
 40
3.141592653589794
 40
3.423445136380704
 40
3.423445136380704
 40
3.716624680336462
 40
3.716624680336462
 40
4.033735774154033
 40
4.033735774154033
 40
4.368502129829808
 40
4.368502129829808
 40
4.709082690707942
 40
4.709082690707942
 40
5.050454257127871
 40
5.050454257127871
 40
5.391071219074971
 40
5.391071219074971
 40
5.725836605839336
 40
5.725836605839336
 40
6.041567312063408
 40
6.041567312063408
 40
6.283185307179585
 40
6.283185307179585
 40
6.283185307179585
 40
6.283185307179585
 10
70.35941868881128
 20
32.76777747217057
 30
0.0
 10
70.34654430604859
 20
32.76779970362259
 30
0.0
 10
70.33368551302555
 20
32.7653396816404
 30
0.0
 10
70.30908410657502
 20
32.75581226577197
 30
0.0
 10
70.29741448940331
 20
32.7485961915736
 30
0.0
 10
70.27587984212733
 20
32.72989983657317
 30
0.0
 10
70.26621987730322
 20
32.71812959326962
 30
0.0
 10
70.24995494910399
 20
32.69112228087033
 30
0.0
 10
70.24354172102539
 20
32.67572155947528
 30
0.0
 10
70.23478334326137
 20
32.64307092436138
 30
0.0
 10
70.23251220336533
 20
32.62579192540761
 30
0.0
 10
70.23236725759852
 20
32.59116811892636
 30
0.0
 10
70.23450374678941
 20
32.57382562791099
 30
0.0
 10
70.24308774264864
 20
32.54076896071092
 30
0.0
 10
70.24952444151495
 20
32.52504973408213
 30
0.0
 10
70.26627978060787
 20
32.49701111579998
 30
0.0
 10
70.27654023883588
 20
32.48462967521482
 30
0.0
 10
70.29976983742381
 20
32.46509828409035
 30
0.0
 10
70.3125772338717
 20
32.45770558383629
 30
0.0
 10
70.33680564635142
 20
32.4496327379893
 30
0.0
 10
70.34782955189803
 20
32.44779700717117
 30
0.0
 10
70.35886611443129
 20
32.44777794926267
 30
0.0
  0
ARC
  5
1A34
330
19A8
100
AcDbEntity
  8
Widoczne (ISO)
100
AcDbCircle
 10
70.58383218389645
 20
32.88739013441591
 30
0.0
 40
0.0300000000000008
100
AcDbArc
 50
89.90106188427121
 51
179.901061884271
  0
LINE
  5
1A35
330
19A8
100
AcDbEntity
  8
Widoczne (ISO)
100
AcDbLine
 10
70.81979512404723
 20
32.32698183928733
 30
0.0
 11
70.82076212921311
 21
32.88698100437614
 31
0.0
  0
ELLIPSE
  5
1A36
330
19A8
100
AcDbEntity
  8
Widoczne (ISO)
100
AcDbEllipse
 10
70.71334848749756
 20
32.60716606853021
 30
0.0
 11
0.1463836507145655
 21
0.1458789723450886
 31
0.0
210
0.0
220
0.0
230
1.0
 40
0.4458865642531583
 41
1.990224255978878
 42
2.722164724406109
  0
ELLIPSE
  5
1A37
330
19A8
100
AcDbEntity
  8
Widoczne (ISO)
100
AcDbEllipse
 10
70.71334848749756
 20
32.60716606853021
 30
0.0
 11
-0.1458789723450827
 21
0.1463836507145714
 31
0.0
210
0.0
220
0.0
230
0.9999999999999998
 40
0.4458865642531572
 41
0.4194279291845593
 42
1.151368397611416
  0
LINE
  5
1A38
330
19A8
100
AcDbEntity
  8
Widoczne (ISO)
100
AcDbLine
 10
70.55383222862656
 20
32.8874419382646
 30
0.0
 11
70.55353337274209
 21
32.71437249485098
 31
0.0
  0
LINE
  5
1A39
330
19A8
100
AcDbEntity
  8
Widoczne (ISO)
100
AcDbLine
 10
70.55316407934515
 20
32.50051221658578
 30
0.0
 11
70.55286522346069
 21
32.32744277317397
 31
0.0
  0
LINE
  5
1A3A
330
19A8
100
AcDbEntity
  8
Widoczne (ISO)
100
AcDbLine
 10
70.55362501323179
 20
32.76744211717414
 30
0.0
 11
70.35941868881128
 21
32.76777747217057
 31
0.0
  0
LINE
  5
1A3B
330
19A8
100
AcDbEntity
  8
Widoczne (ISO)
100
AcDbLine
 10
70.55307243885181
 20
32.44744259426443
 30
0.0
 11
70.35886611443129
 21
32.44777794926267
 31
0.0
  0
ARC
  5
1A3C
330
19A8
100
AcDbEntity
  8
0
100
AcDbCircle
 10
55.35277879762725
 20
43.4938704925662
 30
0.0
 40
0.8
100
AcDbArc
 50
0.0
 51
180.0
  0
LINE
  5
1A3D
330
19A8
100
AcDbEntity
  8
0
100
AcDbLine
 10
55.35291518692247
 20
44.29387048094031
 30
0.0
 11
55.35618852996413
 21
63.49387020190988
 31
0.0
  0
LINE
  5
1A3E
330
19A8
100
AcDbEntity
  8
0
100
AcDbLine
 10
55.35618852996413
 20
63.49387020190988
 30
0.0
 11
55.35291518692247
 21
44.29387048094031
 31
0.0
  0
LINE
  5
1A3F
330
19A8
100
AcDbEntity
  8
0
100
AcDbLine
 10
75.35277850697093
 20
43.49046076023114
 30
0.0
 11
75.35277850697093
 21
61.89387020190952
 31
0.0
  0
LINE
  5
1A40
330
19A8
100
AcDbEntity
  8
0
100
AcDbLine
 10
73.75277850697239
 20
63.49387020190988
 30
0.0
 11
36.95277908828575
 21
63.49387020190988
 31
0.0
  0
ARC
  5
1A41
330
19A8
100
AcDbEntity
  8
0
100
AcDbCircle
 10
73.75277850697239
 20
61.89387020190952
 30
0.0
 40
1.6
100
AcDbArc
 50
0.0
 51
90.0
  0
LINE
  5
1A42
330
19A8
100
AcDbEntity
  8
0
100
AcDbLine
 10
35.35277908828357
 20
61.89387020190952
 30
0.0
 11
35.35277908828357
 21
43.4938704925662
 31
0.0
  0
ARC
  5
1A43
330
19A8
100
AcDbEntity
  8
0
100
AcDbCircle
 10
36.95277908828575
 20
61.89387020190952
 30
0.0
 40
1.6
100
AcDbArc
 50
90.0
 51
180.0
  0
LINE
  5
1A44
330
19A8
100
AcDbEntity
  8
0
100
AcDbLine
 10
54.78709337267719
 20
44.05955591751444
 30
0.0
 11
35.35277908828357
 21
63.49387020190988
 31
0.0
  0
LINE
  5
1A45
330
19A8
100
AcDbEntity
  8
0
100
AcDbLine
 10
75.35277850697093
 20
63.49387020190807
 30
0.0
 11
55.91846422257731
 21
44.05955591751444
 31
0.0
  0
LINE
  5
1A46
330
19A8
100
AcDbEntity
  8
0
100
AcDbLine
 10
58.70277879762944
 20
43.4938704925662
 30
0.0
 11
58.70277879762944
 21
45.2438704925662
 31
0.0
  0
ARC
  5
1A47
330
19A8
100
AcDbEntity
  8
0
100
AcDbCircle
 10
57.10277879762725
 20
45.2438704925662
 30
0.0
 40
1.6
100
AcDbArc
 50
0.0
 51
90.0
  0
LINE
  5
1A48
330
19A8
100
AcDbEntity
  8
0
100
AcDbLine
 10
57.10277879762725
 20
46.84387049256656
 30
0.0
 11
53.60277879762725
 21
46.84387049256656
 31
0.0
  0
ARC
  5
1A49
330
19A8
100
AcDbEntity
  8
0
100
AcDbCircle
 10
53.60277879762725
 20
45.2438704925662
 30
0.0
 40
1.6
100
AcDbArc
 50
90.0
 51
180.0
  0
LINE
  5
1A4A
330
19A8
100
AcDbEntity
  8
0
100
AcDbLine
 10
52.00277879762871
 20
45.2438704925662
 30
0.0
 11
52.00277879762871
 21
43.4938704925662
 31
0.0
  0
LINE
  5
1A4B
330
19A8
100
AcDbEntity
  8
0
100
AcDbLine
 10
55.3533499278019
 20
46.84387049256656
 30
0.0
 11
55.3533499278019
 21
50.84387049256656
 31
0.0
  0
LINE
  5
1A4C
330
19A8
100
AcDbEntity
  8
0
100
AcDbLine
 10
55.3533499278019
 20
50.84387049256656
 30
0.0
 11
52.00277879762871
 21
50.84387049256474
 31
0.0
  0
LINE
  5
1A4D
330
19A8
100
AcDbEntity
  8
0
100
AcDbLine
 10
61.10203730776629
 20
50.84387049256474
 30
0.0
 11
55.3533499278019
 21
50.84387049256656
 31
0.0
  0
LINE
  5
1A4E
330
19A8
100
AcDbEntity
  8
0
100
AcDbLine
 10
48.0027787976287
 20
43.4938704925662
 30
0.0
 11
48.0027787976287
 21
49.2438704925662
 31
0.0
  0
LINE
  5
1A4F
330
19A8
100
AcDbEntity
  8
0
100
AcDbLine
 10
52.00277879762871
 20
50.84387049256474
 30
0.0
 11
49.60277879762725
 21
50.84387049256474
 31
0.0
  0
ARC
  5
1A50
330
19A8
100
AcDbEntity
  8
0
100
AcDbCircle
 10
49.60277879762725
 20
49.2438704925662
 30
0.0
 40
1.6
100
AcDbArc
 50
90.0
 51
180.0
  0
LINE
  5
1A51
330
19A8
100
AcDbEntity
  8
0
100
AcDbLine
 10
62.69937336747898
 20
43.4938704925662
 30
0.0
 11
62.70203713603041
 21
49.24312917451789
 31
0.0
  0
ARC
  5
1A52
330
19A8
100
AcDbEntity
  8
0
100
AcDbCircle
 10
61.10203730776629
 20
49.2438704925662
 30
0.0
 40
1.6
100
AcDbArc
 50
359.9734535062612
 51
90.0
  0
LINE
  5
1A53
330
19A8
100
AcDbEntity
  8
0
100
AcDbLine
 10
55.3533499278019
 20
50.84387049256656
 30
0.0
 11
55.3533499278019
 21
54.84387049256657
 31
0.0
  0
LINE
  5
1A54
330
19A8
100
AcDbEntity
  8
0
100
AcDbLine
 10
65.10277879762725
 20
54.84387049256657
 30
0.0
 11
55.35471382075775
 21
54.84387049256657
 31
0.0
  0
LINE
  5
1A55
330
19A8
100
AcDbEntity
  8
0
100
AcDbLine
 10
44.0027787976287
 20
53.2438704925662
 30
0.0
 11
44.0027787976287
 21
43.4938704925662
 31
0.0
  0
ARC
  5
1A56
330
19A8
100
AcDbEntity
  8
0
100
AcDbCircle
 10
45.60277879762725
 20
53.2438704925662
 30
0.0
 40
1.6
100
AcDbArc
 50
90.0
 51
180.0
  0
LINE
  5
1A57
330
19A8
100
AcDbEntity
  8
0
100
AcDbLine
 10
66.70277879762943
 20
43.4938704925662
 30
0.0
 11
66.70277879762943
 21
53.2438704925662
 31
0.0
  0
ARC
  5
1A58
330
19A8
100
AcDbEntity
  8
0
100
AcDbCircle
 10
65.10277879762725
 20
53.2438704925662
 30
0.0
 40
1.6
100
AcDbArc
 50
0.0
 51
90.0
  0
LINE
  5
1A59
330
19A8
100
AcDbEntity
  8
0
100
AcDbLine
 10
45.60277879762725
 20
54.84387049256657
 30
0.0
 11
55.35471382075775
 21
54.84387049256657
 31
0.0
  0
LINE
  5
1A5A
330
19A8
100
AcDbEntity
  8
0
100
AcDbLine
 10
55.3533499278019
 20
54.84387049256657
 30
0.0
 11
55.3533499278019
 21
58.84387049256656
 31
0.0
  0
LINE
  5
1A5B
330
19A8
100
AcDbEntity
  8
0
100
AcDbLine
 10
69.10277879762725
 20
58.84387049256656
 30
0.0
 11
41.60277879762725
 21
58.84387049256656
 31
0.0
  0
ARC
  5
1A5C
330
19A8
100
AcDbEntity
  8
0
100
AcDbCircle
 10
69.10277879762725
 20
57.2438704925662
 30
0.0
 40
1.6
100
AcDbArc
 50
0.0
 51
90.0
  0
LINE
  5
1A5D
330
19A8
100
AcDbEntity
  8
0
100
AcDbLine
 10
40.00277879762871
 20
57.2438704925662
 30
0.0
 11
40.00277879762871
 21
43.4938704925662
 31
0.0
  0
ARC
  5
1A5E
330
19A8
100
AcDbEntity
  8
0
100
AcDbCircle
 10
41.60277879762725
 20
57.2438704925662
 30
0.0
 40
1.6
100
AcDbArc
 50
90.0
 51
180.0
  0
LINE
  5
1A5F
330
19A8
100
AcDbEntity
  8
0
100
AcDbLine
 10
70.70277879762944
 20
43.4938704925662
 30
0.0
 11
70.70277879762944
 21
57.2438704925662
 31
0.0
  0
LINE
  5
1A60
330
19A8
100
AcDbEntity
  8
0
100
AcDbLine
 10
35.35277908828357
 20
63.49387020190988
 30
0.0
 11
31.35277908828357
 21
67.49387020190806
 31
0.0
  0
LINE
  5
1A61
330
19A8
100
AcDbEntity
  8
0
100
AcDbLine
 10
31.35277908828357
 20
65.89387020190952
 30
0.0
 11
31.35277908828357
 21
43.4938704925662
 31
0.0
  0
ARC
  5
1A62
330
19A8
100
AcDbEntity
  8
0
100
AcDbCircle
 10
32.95277908828575
 20
65.89387020190952
 30
0.0
 40
1.6
100
AcDbArc
 50
90.0
 51
180.0
  0
LINE
  5
1A63
330
19A8
100
AcDbEntity
  8
0
100
AcDbLine
 10
75.35277850697093
 20
63.49387020190807
 30
0.0
 11
79.63193859199964
 21
67.77303028693677
 31
0.0
  0
LINE
  5
1A64
330
19A8
100
AcDbEntity
  8
0
100
AcDbLine
 10
32.95277908828575
 20
67.49387020190806
 30
0.0
 11
77.75277850697239
 21
67.49387020190806
 31
0.0
  0
ARC
  5
1A65
330
19A8
100
AcDbEntity
  8
0
100
AcDbCircle
 10
77.75277850697239
 20
65.89387020190952
 30
0.0
 40
1.6
100
AcDbArc
 50
0.0
 51
90.0
  0
LINE
  5
1A66
330
19A8
100
AcDbEntity
  8
0
100
AcDbLine
 10
79.35277850697094
 20
43.4938704925662
 30
0.0
 11
79.35277850697094
 21
65.89387020190952
 31
0.0
  0
LINE
  5
1A67
330
19A8
100
AcDbEntity
  8
0
100
AcDbLine
 10
31.35277908828357
 20
67.49387020190806
 30
0.0
 11
27.35893447840499
 21
71.48771481178846
 31
0.0
  0
LINE
  5
1A68
330
19A8
100
AcDbEntity
  8
0
100
AcDbLine
 10
83.34662311684951
 20
71.48771481178846
 30
0.0
 11
79.35277850697094
 21
67.49387020190806
 31
0.0
  0
CIRCLE
  5
1A69
330
19A8
100
AcDbEntity
  8
0
100
AcDbCircle
 10
74.88414935686887
 20
63.02524105180783
 30
0.0
 40
0.3186153093464729
  0
CIRCLE
  5
1A6A
330
19A8
100
AcDbEntity
  8
0
100
AcDbCircle
 10
35.82140823838563
 20
63.02524105180783
 30
0.0
 40
0.3186153093464729
  0
CIRCLE
  5
1A6B
330
19A8
100
AcDbEntity
  8
0
100
AcDbCircle
 10
31.82140823838563
 20
67.02524105180782
 30
0.0
 40
0.3186153093464729
  0
CIRCLE
  5
1A6C
330
19A8
100
AcDbEntity
  8
0
100
AcDbCircle
 10
78.88414935686888
 20
67.02524105180782
 30
0.0
 40
0.3186153093464729
  0
CIRCLE
  5
1A6D
330
19A8
100
AcDbEntity
  8
0
100
AcDbCircle
 10
40.47140794773077
 20
58.3752413424645
 30
0.0
 40
0.3186153093464729
  0
CIRCLE
  5
1A6E
330
19A8
100
AcDbEntity
  8
0
100
AcDbCircle
 10
44.47140794773076
 20
54.37524134246451
 30
0.0
 40
0.3186153093464729
  0
CIRCLE
  5
1A6F
330
19A8
100
AcDbEntity
  8
0
100
AcDbCircle
 10
70.23414964752737
 20
58.3752413424645
 30
0.0
 40
0.3186153093464729
  0
CIRCLE
  5
1A70
330
19A8
100
AcDbEntity
  8
0
100
AcDbCircle
 10
62.2337788418481
 20
50.37487053678706
 30
0.0
 40
0.3186153093464729
  0
CIRCLE
  5
1A71
330
19A8
100
AcDbEntity
  8
0
100
AcDbCircle
 10
66.23414964752737
 20
54.37524134246451
 30
0.0
 40
0.3186153093464729
  0
CIRCLE
  5
1A72
330
19A8
100
AcDbEntity
  8
0
100
AcDbCircle
 10
58.23414964752737
 20
46.3752413424645
 30
0.0
 40
0.3186153093464729
  0
CIRCLE
  5
1A73
330
19A8
100
AcDbEntity
  8
0
100
AcDbCircle
 10
52.47140794773077
 20
46.3752413424645
 30
0.0
 40
0.3186153093464729
  0
CIRCLE
  5
1A74
330
19A8
100
AcDbEntity
  8
0
100
AcDbCircle
 10
48.47140794773077
 20
50.3752413424645
 30
0.0
 40
0.3186153093464729
  0
LINE
  5
1A75
330
19A8
100
AcDbEntity
  8
0
100
AcDbLine
 10
35.35277908828357
 20
43.4938704925662
 30
0.0
 11
31.35277908828357
 21
43.4938704925662
 31
0.0
  0
LINE
  5
1A76
330
19A8
100
AcDbEntity
  8
0
100
AcDbLine
 10
75.35277850697093
 20
43.49046076023114
 30
0.0
 11
79.35277850697094
 21
43.4938704925662
 31
0.0
  0
LINE
  5
1A77
330
19A8
100
AcDbEntity
  8
0
100
AcDbLine
 10
55.35618852996413
 20
67.49387020190806
 30
0.0
 11
55.35618852996413
 21
63.49387020190988
 31
0.0
  0
LINE
  5
1A78
330
19A8
100
AcDbEntity
  8
0
100
AcDbLine
 10
55.35618852996413
 20
19.49387078322252
 30
0.0
 11
55.35618852996413
 21
23.49387078322252
 31
0.0
  0
LINE
  5
1A79
330
19A8
100
AcDbEntity
  8
Widoczne (ISO)
100
AcDbLine
 10
55.16611322327299
 20
67.37031403531
 30
0.0
 11
55.16644857826759
 21
67.17610771088766
 31
0.0
  0
LINE
  5
1A7A
330
19A8
100
AcDbEntity
  8
Widoczne (ISO)
100
AcDbLine
 10
55.48611274618088
 20
67.37086660968998
 30
0.0
 11
55.48644810117912
 21
67.17666028526764
 31
0.0
  0
LINE
  5
1A7B
330
19A8
100
AcDbEntity
  8
Widoczne (ISO)
100
AcDbLine
 10
55.6056516333847
 20
67.63800372566947
 30
0.0
 11
55.04565246829224
 21
67.63703672050542
 31
0.0
  0
LINE
  5
1A7C
330
19A8
100
AcDbEntity
  8
Widoczne (ISO)
100
AcDbLine
 10
55.04556082780254
 20
67.69010634282676
 30
0.0
 11
55.60555999289135
 21
67.69107334799082
 31
0.0
  0
ELLIPSE
  5
1A7D
330
19A8
100
AcDbEntity
  8
Widoczne (ISO)
100
AcDbEllipse
 10
55.04568708955048
 20
67.6169873194176
 30
0.0
 11
-0.0299999552726562
 21
-0.0000518038480352
 31
0.0
210
0.0
220
0.0
230
-1.0
 40
0.6683143659758094
 41
0.0
 42
1.570796326794899
  0
LINE
  5
1A7E
330
19A8
100
AcDbEntity
  8
Widoczne (ISO)
100
AcDbLine
 10
55.0156126763759
 20
67.66005458370637
 30
0.0
 11
55.01568713427696
 21
67.61693551557073
 31
0.0
  0
ARC
  5
1A7F
330
19A8
100
AcDbEntity
  8
Widoczne (ISO)
100
AcDbCircle
 10
55.04561263164942
 20
67.66010638755506
 30
0.0
 40
0.0300000000000008
100
AcDbArc
 50
90.09893811572878
 51
180.0989381157289
  0
ARC
  5
1A80
330
19A8
100
AcDbEntity
  8
Widoczne (ISO)
100
AcDbCircle
 10
55.60561179673823
 20
67.6610733927173
 30
0.0
 40
0.0300000000000008
100
AcDbArc
 50
0.0989381157289653
 51
90.09893811572878
  0
ELLIPSE
  5
1A81
330
19A8
100
AcDbEntity
  8
Widoczne (ISO)
100
AcDbEllipse
 10
55.04568708955048
 20
67.6169873194176
 30
0.0
 11
-0.0299999552726562
 21
-0.0000518038480352
 31
0.0
210
0.0
220
0.0
230
-1.0
 40
0.6683143659758172
 41
0.0000000000000067
 42
1.570796326794899
  0
LINE
  5
1A82
330
19A8
100
AcDbEntity
  8
Widoczne (ISO)
100
AcDbLine
 10
55.63606071869435
 20
67.40112558420332
 30
0.0
 11
55.63568620991282
 21
67.61800612842853
 31
0.0
  0
LINE
  5
1A83
330
19A8
100
AcDbEntity
  8
Widoczne (ISO)
100
AcDbLine
 10
55.01568713427696
 20
67.61693551557073
 30
0.0
 11
55.01606164306213
 21
67.40005497134371
 31
0.0
  0
SPLINE
  5
1A84
330
19A8
100
AcDbEntity
  8
Widoczne (ISO)
100
AcDbSpline
210
0.0
220
0.0
230
1.0
 70
     8
 71
     3
 72
    26
 73
    22
 74
     0
 42
0.0000000001
 43
0.0000000001
 40
3.141592653589794
 40
3.141592653589794
 40
3.141592653589794
 40
3.141592653589794
 40
3.423445136380704
 40
3.423445136380704
 40
3.716624680336462
 40
3.716624680336462
 40
4.033735774154033
 40
4.033735774154033
 40
4.368502129829808
 40
4.368502129829808
 40
4.709082690707942
 40
4.709082690707942
 40
5.050454257127871
 40
5.050454257127871
 40
5.391071219074971
 40
5.391071219074971
 40
5.725836605839336
 40
5.725836605839336
 40
6.041567312063408
 40
6.041567312063408
 40
6.283185307179585
 40
6.283185307179585
 40
6.283185307179585
 40
6.283185307179585
 10
55.48644810117912
 20
67.17666028526764
 30
0.0
 10
55.48647033263114
 20
67.16378590250679
 30
0.0
 10
55.48401031064713
 20
67.15092710948375
 30
0.0
 10
55.47448289477689
 20
67.12632570303322
 30
0.0
 10
55.46726682058215
 20
67.11465608586149
 30
0.0
 10
55.44857046557808
 20
67.09312143858369
 30
0.0
 10
55.43680022227636
 20
67.08346147376142
 30
0.0
 10
55.40979290987888
 20
67.06719654556218
 30
0.0
 10
55.39439218848201
 20
67.06078331748358
 30
0.0
 10
55.36174155336993
 20
67.05202493971774
 30
0.0
 10
55.34446255441435
 20
67.0497537998217
 30
0.0
 10
55.3098387479331
 20
67.04960885405672
 30
0.0
 10
55.29249625691955
 20
67.05174534324578
 30
0.0
 10
55.25943958971765
 20
67.06032933910501
 30
0.0
 10
55.24372036309069
 20
67.06676603797314
 30
0.0
 10
55.21568174480854
 20
67.08352137706606
 30
0.0
 10
55.20330030422337
 20
67.09378183529224
 30
0.0
 10
55.18376891309526
 20
67.117011433882
 30
0.0
 10
55.17637621284302
 20
67.12981883032807
 30
0.0
 10
55.16830336699422
 20
67.15404724280779
 30
0.0
 10
55.16646763617973
 20
67.16507114835621
 30
0.0
 10
55.16644857826759
 20
67.17610771088766
 30
0.0
  0
ARC
  5
1A85
330
19A8
100
AcDbEntity
  8
Widoczne (ISO)
100
AcDbCircle
 10
55.60606076342446
 20
67.40107378035464
 30
0.0
 40
0.0300000000000008
100
AcDbArc
 50
270.0989381157288
 51
0.0989381157289653
  0
LINE
  5
1A86
330
19A8
100
AcDbEntity
  8
Widoczne (ISO)
100
AcDbLine
 10
55.04565246829224
 20
67.63703672050542
 30
0.0
 11
55.6056516333847
 21
67.63800372566947
 31
0.0
  0
ELLIPSE
  5
1A87
330
19A8
100
AcDbEntity
  8
Widoczne (ISO)
100
AcDbEllipse
 10
55.32583669753512
 20
67.53059008395394
 30
0.0
 11
0.1458789723450887
 21
0.1463836507145655
 31
0.0
210
0.0
220
0.0
230
-0.9999999999999998
 40
0.4458865642531584
 41
1.990224255978878
 42
2.722164724406109
  0
ELLIPSE
  5
1A88
330
19A8
100
AcDbEntity
  8
Widoczne (ISO)
100
AcDbEllipse
 10
55.32583669753512
 20
67.53059008395394
 30
0.0
 11
0.1463836507145714
 21
-0.1458789723450827
 31
0.0
210
0.0
220
0.0
230
-1.0
 40
0.4458865642531572
 41
0.4194279291845593
 42
1.151368397611416
  0
LINE
  5
1A89
330
19A8
100
AcDbEntity
  8
Widoczne (ISO)
100
AcDbLine
 10
55.60611256727134
 20
67.37107382508111
 30
0.0
 11
55.43304312385953
 21
67.37077496919846
 31
0.0
  0
LINE
  5
1A8A
330
19A8
100
AcDbEntity
  8
Widoczne (ISO)
100
AcDbLine
 10
55.21918284559433
 20
67.37040567580334
 30
0.0
 11
55.04611340218253
 21
67.37010681991887
 31
0.0
  0
LINE
  5
1A8B
330
19A8
100
AcDbEntity
  8
Widoczne (ISO)
100
AcDbLine
 10
55.48611274618088
 20
67.37086660968998
 30
0.0
 11
55.48644810117912
 21
67.17666028526764
 31
0.0
  0
LINE
  5
1A8C
330
19A8
100
AcDbEntity
  8
Widoczne (ISO)
100
AcDbLine
 10
55.16611322327299
 20
67.37031403531
 30
0.0
 11
55.16644857826759
 21
67.17610771088766
 31
0.0
  0
LINE
  5
1A8D
330
19A8
100
AcDbEntity
  8
Widoczne (ISO)
100
AcDbLine
 10
31.51927672197416
 20
43.31554451249394
 30
0.0
 11
31.71348304639832
 21
43.31587986749037
 31
0.0
  0
LINE
  5
1A8E
330
19A8
100
AcDbEntity
  8
Widoczne (ISO)
100
AcDbLine
 10
31.51872414759419
 20
43.63554403540184
 30
0.0
 11
31.71293047201834
 21
43.63587939039826
 31
0.0
  0
LINE
  5
1A8F
330
19A8
100
AcDbEntity
  8
Widoczne (ISO)
100
AcDbLine
 10
31.25158703161651
 20
43.75508292260565
 30
0.0
 11
31.25255403677875
 21
43.19508375751502
 31
0.0
  0
LINE
  5
1A90
330
19A8
100
AcDbEntity
  8
Widoczne (ISO)
100
AcDbLine
 10
31.1994844144574
 20
43.1949921170235
 30
0.0
 11
31.19851740929517
 21
43.75499128211413
 31
0.0
  0
ELLIPSE
  5
1A91
330
19A8
100
AcDbEntity
  8
Widoczne (ISO)
100
AcDbEllipse
 10
31.27260343786839
 20
43.19511837877143
 30
0.0
 11
0.0000518038480352
 21
-0.0299999552726562
 31
0.0
210
0.0
220
0.0
230
-1.0
 40
0.6683143659758094
 41
0.0
 42
1.570796326794899
  0
LINE
  5
1A92
330
19A8
100
AcDbEntity
  8
Widoczne (ISO)
100
AcDbLine
 10
31.2295361735778
 20
43.16504396559866
 30
0.0
 11
31.27265524171526
 21
43.16511842349791
 31
0.0
  0
ARC
  5
1A93
330
19A8
100
AcDbEntity
  8
Widoczne (ISO)
100
AcDbCircle
 10
31.22948436973093
 20
43.19504392087219
 30
0.0
 40
0.0300000000000008
100
AcDbArc
 50
180.0989381157289
 51
270.0989381157288
  0
ARC
  5
1A94
330
19A8
100
AcDbEntity
  8
Widoczne (ISO)
100
AcDbCircle
 10
31.22851736456869
 20
43.755043085961
 30
0.0
 40
0.0300000000000008
100
AcDbArc
 50
90.09893811572878
 51
180.0989381157289
  0
ELLIPSE
  5
1A95
330
19A8
100
AcDbEntity
  8
Widoczne (ISO)
100
AcDbEllipse
 10
31.27260343786839
 20
43.19511837877143
 30
0.0
 11
0.0000518038480352
 21
-0.0299999552726562
 31
0.0
210
0.0
220
0.0
230
-1.0
 40
0.6683143659758172
 41
0.0000000000000067
 42
1.570796326794899
  0
LINE
  5
1A96
330
19A8
100
AcDbEntity
  8
Widoczne (ISO)
100
AcDbLine
 10
31.48846517308266
 20
43.78549200791712
 30
0.0
 11
31.27158462885564
 21
43.78511749913378
 31
0.0
  0
LINE
  5
1A97
330
19A8
100
AcDbEntity
  8
Widoczne (ISO)
100
AcDbLine
 10
31.27265524171526
 20
43.16511842349791
 30
0.0
 11
31.48953578594228
 21
43.16549293228308
 31
0.0
  0
SPLINE
  5
1A98
330
19A8
100
AcDbEntity
  8
Widoczne (ISO)
100
AcDbSpline
210
0.0
220
0.0
230
1.0
 70
     8
 71
     3
 72
    26
 73
    22
 74
     0
 42
0.0000000001
 43
0.0000000001
 40
3.141592653589794
 40
3.141592653589794
 40
3.141592653589794
 40
3.141592653589794
 40
3.423445136380704
 40
3.423445136380704
 40
3.716624680336462
 40
3.716624680336462
 40
4.033735774154033
 40
4.033735774154033
 40
4.368502129829808
 40
4.368502129829808
 40
4.709082690707942
 40
4.709082690707942
 40
5.050454257127871
 40
5.050454257127871
 40
5.391071219074971
 40
5.391071219074971
 40
5.725836605839336
 40
5.725836605839336
 40
6.041567312063408
 40
6.041567312063408
 40
6.283185307179585
 40
6.283185307179585
 40
6.283185307179585
 40
6.283185307179585
 10
31.71293047201834
 20
43.63587939039826
 30
0.0
 10
31.72580485478102
 20
43.6359016218521
 30
0.0
 10
31.73866364780042
 20
43.63344159986991
 30
0.0
 10
31.76326505425095
 20
43.62391418399965
 30
0.0
 10
31.77493467142631
 20
43.61669810980311
 30
0.0
 10
31.79646931870229
 20
43.59800175480086
 30
0.0
 10
31.80612928352275
 20
43.58623151149913
 30
0.0
 10
31.82239421172198
 20
43.55922419909802
 30
0.0
 10
31.82880743980059
 20
43.54382347770479
 30
0.0
 10
31.83756581756825
 20
43.51117284258907
 30
0.0
 10
31.83983695746429
 20
43.49389384363712
 30
0.0
 10
31.83998190322745
 20
43.45927003715587
 30
0.0
 10
31.8378454140402
 20
43.4419275461405
 30
0.0
 10
31.82926141818098
 20
43.40887087893861
 30
0.0
 10
31.82282471931103
 20
43.39315165231164
 30
0.0
 10
31.8060693802181
 20
43.36511303402949
 30
0.0
 10
31.79580892199374
 20
43.35273159344433
 30
0.0
 10
31.77257932340217
 20
43.33320020231804
 30
0.0
 10
31.75977192695791
 20
43.3258075020658
 30
0.0
 10
31.73554351447819
 20
43.317734656217
 30
0.0
 10
31.72451960892795
 20
43.31589892539887
 30
0.0
 10
31.71348304639832
 20
43.31587986749037
 30
0.0
  0
ARC
  5
1A99
330
19A8
100
AcDbEntity
  8
Widoczne (ISO)
100
AcDbCircle
 10
31.48851697692953
 20
43.7554920526436
 30
0.0
 40
0.0300000000000008
100
AcDbArc
 50
0.0989381157289653
 51
90.09893811572878
  0
LINE
  5
1A9A
330
19A8
100
AcDbEntity
  8
Widoczne (ISO)
100
AcDbLine
 10
31.25255403677875
 20
43.19508375751502
 30
0.0
 11
31.25158703161651
 21
43.75508292260565
 31
0.0
  0
ELLIPSE
  5
1A9B
330
19A8
100
AcDbEntity
  8
Widoczne (ISO)
100
AcDbEllipse
 10
31.35900067333205
 20
43.47526798675789
 30
0.0
 11
-0.1463836507145655
 21
0.1458789723450887
 31
0.0
210
0.0
220
0.0
230
-0.9999999999999998
 40
0.4458865642531584
 41
1.990224255978878
 42
2.722164724406109
  0
ELLIPSE
  5
1A9C
330
19A8
100
AcDbEntity
  8
Widoczne (ISO)
100
AcDbEllipse
 10
31.35900067333205
 20
43.47526798675789
 30
0.0
 11
0.1458789723450827
 21
0.1463836507145714
 31
0.0
210
0.0
220
0.0
230
-1.0
 40
0.4458865642531572
 41
0.4194279291845593
 42
1.151368397611416
  0
LINE
  5
1A9D
330
19A8
100
AcDbEntity
  8
Widoczne (ISO)
100
AcDbLine
 10
31.51851693220306
 20
43.7555438564923
 30
0.0
 11
31.51881578808752
 21
43.58247441308049
 31
0.0
  0
LINE
  5
1A9E
330
19A8
100
AcDbEntity
  8
Widoczne (ISO)
100
AcDbLine
 10
31.51918508148447
 20
43.36861413481528
 30
0.0
 11
31.5194839373653
 21
43.19554469140348
 31
0.0
  0
LINE
  5
1A9F
330
19A8
100
AcDbEntity
  8
Widoczne (ISO)
100
AcDbLine
 10
31.51872414759419
 20
43.63554403540184
 30
0.0
 11
31.71293047201834
 21
43.63587939039826
 31
0.0
  0
LINE
  5
1AA0
330
19A8
100
AcDbEntity
  8
Widoczne (ISO)
100
AcDbLine
 10
31.51927672197416
 20
43.31554451249394
 30
0.0
 11
31.71348304639832
 21
43.31587986749037
 31
0.0
  0
LINE
  5
1AA1
330
19A8
100
AcDbEntity
  8
Widoczne (ISO)
100
AcDbLine
 10
55.53668807040958
 20
19.58876547766886
 30
0.0
 11
55.53635271541134
 21
19.7829718020912
 31
0.0
  0
LINE
  5
1AA2
330
19A8
100
AcDbEntity
  8
Widoczne (ISO)
100
AcDbLine
 10
55.21668854750169
 20
19.58821290328888
 30
0.0
 11
55.21635319250345
 21
19.78241922771121
 31
0.0
  0
LINE
  5
1AA3
330
19A8
100
AcDbEntity
  8
Widoczne (ISO)
100
AcDbLine
 10
55.09714966029787
 20
19.32107578730938
 30
0.0
 11
55.65714882538668
 21
19.32204279247344
 31
0.0
  0
LINE
  5
1AA4
330
19A8
100
AcDbEntity
  8
Widoczne (ISO)
100
AcDbLine
 10
55.65724046588002
 20
19.26897317015209
 30
0.0
 11
55.09724130079121
 21
19.26800616498804
 31
0.0
  0
ELLIPSE
  5
1AA5
330
19A8
100
AcDbEntity
  8
Widoczne (ISO)
100
AcDbEllipse
 10
55.65711420413208
 20
19.34209219356126
 30
0.0
 11
0.0299999552726562
 21
0.0000518038480352
 31
0.0
210
0.0
220
0.0
230
-1.0
 40
0.6683143659758094
 41
0.0
 42
1.570796326794899
  0
LINE
  5
1AA6
330
19A8
100
AcDbEntity
  8
Widoczne (ISO)
100
AcDbLine
 10
55.68718861730303
 20
19.29902492927249
 30
0.0
 11
55.68711415940561
 21
19.34214399740813
 31
0.0
  0
ARC
  5
1AA7
330
19A8
100
AcDbEntity
  8
Widoczne (ISO)
100
AcDbCircle
 10
55.65718866203315
 20
19.2989731254238
 30
0.0
 40
0.0300000000000008
100
AcDbArc
 50
270.0989381157288
 51
0.0989381157289653
  0
ARC
  5
1AA8
330
19A8
100
AcDbEntity
  8
Widoczne (ISO)
100
AcDbCircle
 10
55.0971894969407
 20
19.29800612026156
 30
0.0
 40
0.0300000000000008
100
AcDbArc
 50
180.0989381157289
 51
270.0989381157288
  0
ELLIPSE
  5
1AA9
330
19A8
100
AcDbEntity
  8
Widoczne (ISO)
100
AcDbEllipse
 10
55.65711420413208
 20
19.34209219356126
 30
0.0
 11
0.0299999552726562
 21
0.0000518038480352
 31
0.0
210
0.0
220
0.0
230
-1.0
 40
0.6683143659758172
 41
0.0000000000000067
 42
1.570796326794899
  0
LINE
  5
1AAA
330
19A8
100
AcDbEntity
  8
Widoczne (ISO)
100
AcDbLine
 10
55.06674057498821
 20
19.55795392877553
 30
0.0
 11
55.06711508376975
 21
19.34107338455033
 31
0.0
  0
LINE
  5
1AAB
330
19A8
100
AcDbEntity
  8
Widoczne (ISO)
100
AcDbLine
 10
55.68711415940561
 20
19.34214399740813
 30
0.0
 11
55.68673965062044
 21
19.55902454163515
 31
0.0
  0
SPLINE
  5
1AAC
330
19A8
100
AcDbEntity
  8
Widoczne (ISO)
100
AcDbSpline
210
0.0
220
0.0
230
1.0
 70
     8
 71
     3
 72
    26
 73
    22
 74
     0
 42
0.0000000001
 43
0.0000000001
 40
3.141592653589794
 40
3.141592653589794
 40
3.141592653589794
 40
3.141592653589794
 40
3.423445136380704
 40
3.423445136380704
 40
3.716624680336462
 40
3.716624680336462
 40
4.033735774154033
 40
4.033735774154033
 40
4.368502129829808
 40
4.368502129829808
 40
4.709082690707942
 40
4.709082690707942
 40
5.050454257127871
 40
5.050454257127871
 40
5.391071219074971
 40
5.391071219074971
 40
5.725836605839336
 40
5.725836605839336
 40
6.041567312063408
 40
6.041567312063408
 40
6.283185307179585
 40
6.283185307179585
 40
6.283185307179585
 40
6.283185307179585
 10
55.21635319250345
 20
19.78241922771121
 30
0.0
 10
55.21633096105142
 20
19.79529361047389
 30
0.0
 10
55.21879098303543
 20
19.80815240349511
 30
0.0
 10
55.22831839890568
 20
19.83275380994564
 30
0.0
 10
55.23553447310042
 20
19.84442342711736
 30
0.0
 10
55.25423082810448
 20
19.86595807439517
 30
0.0
 10
55.2660010714062
 20
19.87561803921744
 30
0.0
 10
55.29300838380368
 20
19.89188296741668
 30
0.0
 10
55.30840910520055
 20
19.89829619549528
 30
0.0
 10
55.34105974031263
 20
19.90705457326112
 30
0.0
 10
55.35833873926822
 20
19.90932571315716
 30
0.0
 10
55.39296254574947
 20
19.90947065892214
 30
0.0
 10
55.41030503676302
 20
19.90733416973307
 30
0.0
 10
55.44336170396491
 20
19.89875017387385
 30
0.0
 10
55.45908093059188
 20
19.89231347500572
 30
0.0
 10
55.48711954887403
 20
19.8755581359128
 30
0.0
 10
55.49950098945919
 20
19.86529767768843
 30
0.0
 10
55.51903238058731
 20
19.84206807909686
 30
0.0
 10
55.52642508083954
 20
19.82926068265078
 30
0.0
 10
55.53449792668835
 20
19.80503227017107
 30
0.0
 10
55.53633365750283
 20
19.79400836462264
 30
0.0
 10
55.53635271541134
 20
19.7829718020912
 30
0.0
  0
ARC
  5
1AAD
330
19A8
100
AcDbEntity
  8
Widoczne (ISO)
100
AcDbCircle
 10
55.0967405302581
 20
19.55800573262422
 30
0.0
 40
0.0300000000000008
100
AcDbArc
 50
90.09893811572878
 51
180.0989381157289
  0
LINE
  5
1AAE
330
19A8
100
AcDbEntity
  8
Widoczne (ISO)
100
AcDbLine
 10
55.65714882538668
 20
19.32204279247344
 30
0.0
 11
55.09714966029787
 21
19.32107578730938
 31
0.0
  0
ELLIPSE
  5
1AAF
330
19A8
100
AcDbEntity
  8
Widoczne (ISO)
100
AcDbEllipse
 10
55.37696459614744
 20
19.42848942902492
 30
0.0
 11
-0.1458789723450887
 21
-0.1463836507145655
 31
0.0
210
0.0
220
0.0
230
-0.9999999999999998
 40
0.4458865642531584
 41
1.990224255978878
 42
2.722164724406109
  0
ELLIPSE
  5
1AB0
330
19A8
100
AcDbEntity
  8
Widoczne (ISO)
100
AcDbEllipse
 10
55.37696459614744
 20
19.42848942902492
 30
0.0
 11
-0.1463836507145714
 21
0.1458789723450827
 31
0.0
210
0.0
220
0.0
230
-1.0
 40
0.4458865642531572
 41
0.4194279291845593
 42
1.151368397611416
  0
LINE
  5
1AB1
330
19A8
100
AcDbEntity
  8
Widoczne (ISO)
100
AcDbLine
 10
55.09668872641123
 20
19.58800568789775
 30
0.0
 11
55.26975816982304
 21
19.58830454378039
 31
0.0
  0
LINE
  5
1AB2
330
19A8
100
AcDbEntity
  8
Widoczne (ISO)
100
AcDbLine
 10
55.48361844808823
 20
19.58867383717734
 30
0.0
 11
55.65668789150004
 21
19.58897269305998
 31
0.0
  0
LINE
  5
1AB3
330
19A8
100
AcDbEntity
  8
Widoczne (ISO)
100
AcDbLine
 10
55.21668854750169
 20
19.58821290328888
 30
0.0
 11
55.21635319250345
 21
19.78241922771121
 31
0.0
  0
LINE
  5
1AB4
330
19A8
100
AcDbEntity
  8
Widoczne (ISO)
100
AcDbLine
 10
55.53668807040958
 20
19.58876547766886
 30
0.0
 11
55.53635271541134
 21
19.7829718020912
 31
0.0
  0
LINE
  5
1AB5
330
19A8
100
AcDbEntity
  8
Widoczne (ISO)
100
AcDbLine
 10
79.19487123762156
 20
43.63441627137945
 30
0.0
 11
79.0006649131974
 21
43.6340809163812
 31
0.0
  0
LINE
  5
1AB6
330
19A8
100
AcDbEntity
  8
Widoczne (ISO)
100
AcDbLine
 10
79.19542381200153
 20
43.31441674846973
 30
0.0
 11
79.00121748757737
 21
43.31408139347331
 31
0.0
  0
LINE
  5
1AB7
330
19A8
100
AcDbEntity
  8
Widoczne (ISO)
100
AcDbLine
 10
79.46256092797921
 20
43.19487786126773
 30
0.0
 11
79.46159392281697
 21
43.75487702635655
 31
0.0
  0
LINE
  5
1AB8
330
19A8
100
AcDbEntity
  8
Widoczne (ISO)
100
AcDbLine
 10
79.51466354513832
 20
43.75496866684807
 30
0.0
 11
79.51563055030056
 21
43.19496950175926
 31
0.0
  0
ELLIPSE
  5
1AB9
330
19A8
100
AcDbEntity
  8
Widoczne (ISO)
100
AcDbEllipse
 10
79.44154452172734
 20
43.75484240510013
 30
0.0
 11
-0.0000518038480352
 21
0.0299999552726562
 31
0.0
210
0.0
220
0.0
230
-1.0
 40
0.6683143659758094
 41
0.0
 42
1.570796326794899
  0
LINE
  5
1ABA
330
19A8
100
AcDbEntity
  8
Widoczne (ISO)
100
AcDbLine
 10
79.48461178601792
 20
43.7849168182729
 30
0.0
 11
79.44149271788046
 21
43.78484236037365
 31
0.0
  0
ARC
  5
1ABB
330
19A8
100
AcDbEntity
  8
Widoczne (ISO)
100
AcDbCircle
 10
79.48466358986479
 20
43.7549168630012
 30
0.0
 40
0.0300000000000008
100
AcDbArc
 50
0.0989381157289653
 51
90.09893811572878
  0
ARC
  5
1ABC
330
19A8
100
AcDbEntity
  8
Widoczne (ISO)
100
AcDbCircle
 10
79.48563059502703
 20
43.19491769791056
 30
0.0
 40
0.0300000000000008
100
AcDbArc
 50
270.0989381157288
 51
0.0989381157289653
  0
ELLIPSE
  5
1ABD
330
19A8
100
AcDbEntity
  8
Widoczne (ISO)
100
AcDbEllipse
 10
79.44154452172734
 20
43.75484240510013
 30
0.0
 11
-0.0000518038480352
 21
0.0299999552726562
 31
0.0
210
0.0
220
0.0
230
-1.0
 40
0.6683143659758172
 41
0.0000000000000067
 42
1.570796326794899
  0
LINE
  5
1ABE
330
19A8
100
AcDbEntity
  8
Widoczne (ISO)
100
AcDbLine
 10
79.22568278651306
 20
43.16446877595445
 30
0.0
 11
79.44256333074008
 21
43.16484328473961
 31
0.0
  0
LINE
  5
1ABF
330
19A8
100
AcDbEntity
  8
Widoczne (ISO)
100
AcDbLine
 10
79.44149271788046
 20
43.78484236037365
 30
0.0
 11
79.22461217365344
 21
43.7844678515903
 31
0.0
  0
SPLINE
  5
1AC0
330
19A8
100
AcDbEntity
  8
Widoczne (ISO)
100
AcDbSpline
210
0.0
220
0.0
230
1.0
 70
     8
 71
     3
 72
    26
 73
    22
 74
     0
 42
0.0000000001
 43
0.0000000001
 40
3.141592653589794
 40
3.141592653589794
 40
3.141592653589794
 40
3.141592653589794
 40
3.423445136380704
 40
3.423445136380704
 40
3.716624680336462
 40
3.716624680336462
 40
4.033735774154033
 40
4.033735774154033
 40
4.368502129829808
 40
4.368502129829808
 40
4.709082690707942
 40
4.709082690707942
 40
5.050454257127871
 40
5.050454257127871
 40
5.391071219074971
 40
5.391071219074971
 40
5.725836605839336
 40
5.725836605839336
 40
6.041567312063408
 40
6.041567312063408
 40
6.283185307179585
 40
6.283185307179585
 40
6.283185307179585
 40
6.283185307179585
 10
79.00121748757737
 20
43.31408139347331
 30
0.0
 10
78.9883431048147
 20
43.31405916202129
 30
0.0
 10
78.97548431179529
 20
43.31651918400166
 30
0.0
 10
78.95088290534477
 20
43.32604659987191
 30
0.0
 10
78.93921328816941
 20
43.33326267407028
 30
0.0
 10
78.91767864089342
 20
43.35195902907071
 30
0.0
 10
78.90801867607297
 20
43.36372927237244
 30
0.0
 10
78.89175374787374
 20
43.39073658477355
 30
0.0
 10
78.88534051979513
 20
43.40613730616678
 30
0.0
 10
78.87658214202748
 20
43.4387879412825
 30
0.0
 10
78.87431100213143
 20
43.45606694023627
 30
0.0
 10
78.87416605636826
 20
43.49069074671752
 30
0.0
 10
78.87630254555552
 20
43.50803323773289
 30
0.0
 10
78.88488654141474
 20
43.54108990493296
 30
0.0
 10
78.89132324028469
 20
43.55680913156175
 30
0.0
 10
78.90807857937762
 20
43.5848477498439
 30
0.0
 10
78.91833903760198
 20
43.59722919042906
 30
0.0
 10
78.94156863619355
 20
43.61676058155353
 30
0.0
 10
78.95437603263781
 20
43.62415328180759
 30
0.0
 10
78.97860444511753
 20
43.63222612765457
 30
0.0
 10
78.98962835066777
 20
43.6340618584727
 30
0.0
 10
79.0006649131974
 20
43.6340809163812
 30
0.0
  0
ARC
  5
1AC1
330
19A8
100
AcDbEntity
  8
Widoczne (ISO)
100
AcDbCircle
 10
79.22563098266619
 20
43.19446873122797
 30
0.0
 40
0.0300000000000008
100
AcDbArc
 50
180.0989381157289
 51
270.0989381157288
  0
LINE
  5
1AC2
330
19A8
100
AcDbEntity
  8
Widoczne (ISO)
100
AcDbLine
 10
79.46159392281697
 20
43.75487702635655
 30
0.0
 11
79.46256092797921
 21
43.19487786126773
 31
0.0
  0
ELLIPSE
  5
1AC3
330
19A8
100
AcDbEntity
  8
Widoczne (ISO)
100
AcDbEllipse
 10
79.35514728626367
 20
43.47469279711368
 30
0.0
 11
0.1463836507145655
 21
-0.1458789723450887
 31
0.0
210
0.0
220
0.0
230
-0.9999999999999998
 40
0.4458865642531584
 41
1.990224255978878
 42
2.722164724406109
  0
ELLIPSE
  5
1AC4
330
19A8
100
AcDbEntity
  8
Widoczne (ISO)
100
AcDbEllipse
 10
79.35514728626367
 20
43.47469279711368
 30
0.0
 11
-0.1458789723450827
 21
-0.1463836507145714
 31
0.0
210
0.0
220
0.0
230
-1.0
 40
0.4458865642531572
 41
0.4194279291845593
 42
1.151368397611416
  0
LINE
  5
1AC5
330
19A8
100
AcDbEntity
  8
Widoczne (ISO)
100
AcDbLine
 10
79.19563102739267
 20
43.19441692737927
 30
0.0
 11
79.1953321715082
 21
43.3674863707929
 31
0.0
  0
LINE
  5
1AC6
330
19A8
100
AcDbEntity
  8
Widoczne (ISO)
100
AcDbLine
 10
79.19496287811125
 20
43.58134664905811
 30
0.0
 11
79.19466402223043
 21
43.7544160924699
 31
0.0
  0
LINE
  5
1AC7
330
19A8
100
AcDbEntity
  8
Widoczne (ISO)
100
AcDbLine
 10
79.19542381200153
 20
43.31441674846973
 30
0.0
 11
79.00121748757737
 21
43.31408139347331
 31
0.0
  0
LINE
  5
1AC8
330
19A8
100
AcDbEntity
  8
Widoczne (ISO)
100
AcDbLine
 10
79.19487123762156
 20
43.63441627137945
 30
0.0
 11
79.0006649131974
 21
43.6340809163812
 31
0.0
  0
CIRCLE
  5
1AC9
330
19A8
100
AcDbEntity
  8
0
100
AcDbCircle
 10
75.35535614532273
 20
43.48498178939007
 30
0.0
 40
0.3186153093464729
  0
CIRCLE
  5
1ACA
330
19A8
100
AcDbEntity
  8
0
100
AcDbCircle
 10
70.67612079164973
 20
43.52053216489184
 30
0.0
 40
0.3186153093464729
  0
CIRCLE
  5
1ACB
330
19A8
100
AcDbEntity
  8
0
100
AcDbCircle
 10
66.74414048113249
 20
43.50275697714096
 30
0.0
 40
0.3186153093464729
  0
CIRCLE
  5
1ACC
330
19A8
100
AcDbEntity
  8
0
100
AcDbCircle
 10
62.70540889413678
 20
43.50275697714096
 30
0.0
 40
0.3186153093464729
  0
CIRCLE
  5
1ACD
330
19A8
100
AcDbEntity
  8
0
100
AcDbCircle
 10
35.34769914481149
 20
43.49148230105856
 30
0.0
 40
0.3186153093464729
  0
CIRCLE
  5
1ACE
330
19A8
100
AcDbEntity
  8
0
100
AcDbCircle
 10
39.99037743102599
 20
43.49148230105856
 30
0.0
 40
0.3186153093464729
  0
CIRCLE
  5
1ACF
330
19A8
100
AcDbEntity
  8
0
100
AcDbCircle
 10
44.00995863225398
 20
43.52810105489516
 30
0.0
 40
0.3186153093464729
  0
CIRCLE
  5
1AD0
330
19A8
100
AcDbEntity
  8
0
100
AcDbCircle
 10
47.99404300037713
 20
43.52088759949583
 30
0.0
 40
0.3186153093464729
  0
CIRCLE
  5
1AD1
330
19A8
100
AcDbEntity
  8
0
100
AcDbCircle
 10
51.98478613846237
 20
43.49626649232414
 30
0.0
 40
0.3186153093464729
  0
CIRCLE
  5
1AD2
330
19A8
100
AcDbEntity
  8
0
100
AcDbCircle
 10
58.72214500105838
 20
43.50374099161854
 30
0.0
 40
0.3186153093464729
  0
CIRCLE
  5
1AD3
330
19A8
100
AcDbEntity
  8
0
100
AcDbCircle
 10
55.35243608375822
 20
46.85850013188974
 30
0.0
 40
0.3186153093464729
  0
CIRCLE
  5
1AD4
330
19A8
100
AcDbEntity
  8
0
100
AcDbCircle
 10
55.34366852166932
 20
40.11294430915586
 30
0.0
 40
0.3186153093464729
  0
CIRCLE
  5
1AD5
330
19A8
100
AcDbEntity
  8
0
100
AcDbCircle
 10
55.36597392201293
 20
36.13193878512175
 30
0.0
 40
0.3186153093464729
  0
CIRCLE
  5
1AD6
330
19A8
100
AcDbEntity
  8
0
100
AcDbCircle
 10
55.34669976438817
 20
32.12656005917779
 30
0.0
 40
0.3186153093464729
  0
CIRCLE
  5
1AD7
330
19A8
100
AcDbEntity
  8
0
100
AcDbCircle
 10
55.33797579490419
 20
28.1348389424802
 30
0.0
 40
0.3186153093464729
  0
CIRCLE
  5
1AD8
330
19A8
100
AcDbEntity
  8
0
100
AcDbCircle
 10
55.36463422793895
 20
23.481206967861
 30
0.0
 40
0.3186153093464729
  0
CIRCLE
  5
1AD9
330
19A8
100
AcDbEntity
  8
0
100
AcDbCircle
 10
55.37192197687545
 20
50.8260741694703
 30
0.0
 40
0.3186153093464729
  0
CIRCLE
  5
1ADA
330
19A8
100
AcDbEntity
  8
0
100
AcDbCircle
 10
55.34844424691255
 20
54.83710596523997
 30
0.0
 40
0.3186153093464729
  0
CIRCLE
  5
1ADB
330
19A8
100
AcDbEntity
  8
0
100
AcDbCircle
 10
55.3646544673611
 20
58.83817625674419
 30
0.0
 40
0.3186153093464729
  0
CIRCLE
  5
1ADC
330
19A8
100
AcDbEntity
  8
0
100
AcDbCircle
 10
55.34531725615306
 20
63.52877619624087
 30
0.0
 40
0.3186153093464729
  0
LINE
  5
1ADD
330
19A8
100
AcDbEntity
  8
0
100
AcDbLine
 10
54.62772343391771
 20
43.83194551316774
 30
0.0
 11
40.00277879762871
 21
54.07214757138354
 31
0.0
  0
LINE
  5
1ADE
330
19A8
100
AcDbEntity
  8
0
100
AcDbLine
 10
55.35291531891198
 20
42.69309630304451
 30
0.0
 11
55.35277879762725
 21
42.6938704925651
 31
0.0
  0
LINE
  5
1ADF
330
19A8
100
AcDbEntity
  8
0
100
AcDbLine
 10
55.07914237282967
 20
44.24561719659869
 30
0.0
 11
53.21023674958997
 21
54.84387049256657
 31
0.0
  0
LINE
  5
1AE0
330
19A8
100
AcDbEntity
  8
0
100
AcDbLine
 10
55.69085381822879
 20
44.21892585627574
 30
0.0
 11
63.13030624958992
 21
54.84387049256657
 31
0.0
  0
LINE
  5
1AE1
330
19A8
100
AcDbEntity
  8
0
100
AcDbLine
 10
56.15277878818961
 20
43.49374761552462
 30
0.0
 11
70.70277879762944
 21
43.4938704925662
 31
0.0
  0
LINE
  5
1AE2
330
19A8
100
AcDbEntity
  8
0
100
AcDbLine
 10
54.55200460810738
 20
43.49373397128147
 30
0.0
 11
54.55277879762798
 21
43.4938704925662
 31
0.0
  0
LINE
  5
1AE3
330
19A8
100
AcDbEntity
  8
0
100
AcDbLine
 10
56.10452550166155
 20
43.76750691736378
 30
0.0
 11
70.70277879762944
 21
46.34177617781825
 31
0.0
  0
LINE
  5
1AE4
330
19A8
100
AcDbEntity
  8
0
100
AcDbLine
 10
53.21023674958997
 20
54.84387049256657
 30
0.0
 11
52.5048731123752
 21
58.84387049256656
 31
0.0
  0
LINE
  5
1AE5
330
19A8
100
AcDbEntity
  8
0
100
AcDbLine
 10
63.13030624958992
 20
54.84387049256657
 30
0.0
 11
65.93105587644458
 21
58.84387049256656
 31
0.0
  0
LINE
  5
1AE6
330
19A8
100
AcDbEntity
  8
Widoczne (ISO)
100
AcDbLine
 10
70.57357078334462
 20
46.46157815774131
 30
0.0
 11
70.37936445892047
 21
46.46124280274307
 31
0.0
  0
LINE
  5
1AE7
330
19A8
100
AcDbEntity
  8
Widoczne (ISO)
100
AcDbLine
 10
70.57412335772096
 20
46.14157863483342
 30
0.0
 11
70.37991703330044
 21
46.14124327983518
 31
0.0
  0
LINE
  5
1AE8
330
19A8
100
AcDbEntity
  8
Widoczne (ISO)
100
AcDbLine
 10
70.84126047370228
 20
46.0220397476296
 30
0.0
 11
70.8402934685364
 21
46.58203891271841
 31
0.0
  0
LINE
  5
1AE9
330
19A8
100
AcDbEntity
  8
Widoczne (ISO)
100
AcDbLine
 10
70.89336309085775
 20
46.58213055320993
 30
0.0
 11
70.89433009602363
 21
46.02213138812112
 31
0.0
  0
ELLIPSE
  5
1AEA
330
19A8
100
AcDbEntity
  8
Widoczne (ISO)
100
AcDbEllipse
 10
70.8202440674504
 20
46.58200429146382
 30
0.0
 11
-0.0000518038480352
 21
0.0299999552726562
 31
0.0
210
0.0
220
0.0
230
-1.0
 40
0.6683143659758094
 41
0.0
 42
1.570796326794899
  0
LINE
  5
1AEB
330
19A8
100
AcDbEntity
  8
Widoczne (ISO)
100
AcDbLine
 10
70.86331133173735
 20
46.61207870463477
 30
0.0
 11
70.82019226360353
 21
46.61200424673552
 31
0.0
  0
ARC
  5
1AEC
330
19A8
100
AcDbEntity
  8
Widoczne (ISO)
100
AcDbCircle
 10
70.86336313558786
 20
46.58207874936306
 30
0.0
 40
0.0300000000000008
100
AcDbArc
 50
0.0989381157289653
 51
90.09893811572878
  0
ARC
  5
1AED
330
19A8
100
AcDbEntity
  8
Widoczne (ISO)
100
AcDbCircle
 10
70.8643301407501
 20
46.02207958427243
 30
0.0
 40
0.0300000000000008
100
AcDbArc
 50
270.0989381157288
 51
0.0989381157289653
  0
ELLIPSE
  5
1AEE
330
19A8
100
AcDbEntity
  8
Widoczne (ISO)
100
AcDbEllipse
 10
70.8202440674504
 20
46.58200429146382
 30
0.0
 11
-0.0000518038480352
 21
0.0299999552726562
 31
0.0
210
0.0
220
0.0
230
-1.0
 40
0.6683143659758172
 41
0.0000000000000067
 42
1.570796326794899
  0
LINE
  5
1AEF
330
19A8
100
AcDbEntity
  8
Widoczne (ISO)
100
AcDbLine
 10
70.60438233223613
 20
45.99163066231812
 30
0.0
 11
70.82126287646315
 21
45.99200517110148
 31
0.0
  0
LINE
  5
1AF0
330
19A8
100
AcDbEntity
  8
Widoczne (ISO)
100
AcDbLine
 10
70.82019226360353
 20
46.61200424673552
 30
0.0
 11
70.60331171937651
 21
46.61162973795216
 31
0.0
  0
SPLINE
  5
1AF1
330
19A8
100
AcDbEntity
  8
Widoczne (ISO)
100
AcDbSpline
210
0.0
220
0.0
230
1.0
 70
     8
 71
     3
 72
    26
 73
    22
 74
     0
 42
0.0000000001
 43
0.0000000001
 40
3.141592653589794
 40
3.141592653589794
 40
3.141592653589794
 40
3.141592653589794
 40
3.423445136380704
 40
3.423445136380704
 40
3.716624680336462
 40
3.716624680336462
 40
4.033735774154033
 40
4.033735774154033
 40
4.368502129829808
 40
4.368502129829808
 40
4.709082690707942
 40
4.709082690707942
 40
5.050454257127871
 40
5.050454257127871
 40
5.391071219074971
 40
5.391071219074971
 40
5.725836605839336
 40
5.725836605839336
 40
6.041567312063408
 40
6.041567312063408
 40
6.283185307179585
 40
6.283185307179585
 40
6.283185307179585
 40
6.283185307179585
 10
70.37991703330044
 20
46.14124327983518
 30
0.0
 10
70.36704265053777
 20
46.14122104838315
 30
0.0
 10
70.35418385751836
 20
46.14368107036534
 30
0.0
 10
70.3295824510642
 20
46.15320848623378
 30
0.0
 10
70.31791283389248
 20
46.16042456043214
 30
0.0
 10
70.29637818661649
 20
46.17912091543257
 30
0.0
 10
70.2867182217924
 20
46.19089115873612
 30
0.0
 10
70.27045329359316
 20
46.21789847113541
 30
0.0
 10
70.26404006551456
 20
46.23329919253047
 30
0.0
 10
70.25528168775053
 20
46.26594982764436
 30
0.0
 10
70.2530105478545
 20
46.28322882659813
 30
0.0
 10
70.25286560208769
 20
46.31785263307938
 30
0.0
 10
70.25500209127859
 20
46.33519512409475
 30
0.0
 10
70.26358608713781
 20
46.36825179129664
 30
0.0
 10
70.27002278600412
 20
46.38397101792361
 30
0.0
 10
70.28677812509704
 20
46.41200963620576
 30
0.0
 10
70.29703858332505
 20
46.42439107679092
 30
0.0
 10
70.32026818191297
 20
46.44392246791539
 30
0.0
 10
70.33307557836088
 20
46.45131516816945
 30
0.0
 10
70.35730399084059
 20
46.45938801401643
 30
0.0
 10
70.3683278963872
 20
46.46122374483456
 30
0.0
 10
70.37936445892047
 20
46.46124280274307
 30
0.0
  0
ARC
  5
1AF2
330
19A8
100
AcDbEntity
  8
Widoczne (ISO)
100
AcDbCircle
 10
70.60433052838561
 20
46.02163061758983
 30
0.0
 40
0.0300000000000008
100
AcDbArc
 50
180.0989381157289
 51
270.0989381157288
  0
LINE
  5
1AF3
330
19A8
100
AcDbEntity
  8
Widoczne (ISO)
100
AcDbLine
 10
70.8402934685364
 20
46.58203891271841
 30
0.0
 11
70.84126047370228
 21
46.0220397476296
 31
0.0
  0
ELLIPSE
  5
1AF4
330
19A8
100
AcDbEntity
  8
Widoczne (ISO)
100
AcDbEllipse
 10
70.73384683198674
 20
46.30185468347554
 30
0.0
 11
0.1463836507145655
 21
-0.1458789723450887
 31
0.0
210
0.0
220
0.0
230
-0.9999999999999998
 40
0.4458865642531584
 41
1.990224255978878
 42
2.722164724406109
  0
ELLIPSE
  5
1AF5
330
19A8
100
AcDbEntity
  8
Widoczne (ISO)
100
AcDbEllipse
 10
70.73384683198674
 20
46.30185468347554
 30
0.0
 11
-0.1458789723450827
 21
-0.1463836507145714
 31
0.0
210
0.0
220
0.0
230
-1.0
 40
0.4458865642531572
 41
0.4194279291845593
 42
1.151368397611416
  0
LINE
  5
1AF6
330
19A8
100
AcDbEntity
  8
Widoczne (ISO)
100
AcDbLine
 10
70.57433057311573
 20
46.02157881374114
 30
0.0
 11
70.57403171723127
 21
46.19464825715477
 31
0.0
  0
LINE
  5
1AF7
330
19A8
100
AcDbEntity
  8
Widoczne (ISO)
100
AcDbLine
 10
70.57366242383432
 20
46.40850853541997
 30
0.0
 11
70.57336356794985
 21
46.58157797883177
 31
0.0
  0
LINE
  5
1AF8
330
19A8
100
AcDbEntity
  8
Widoczne (ISO)
100
AcDbLine
 10
70.57412335772096
 20
46.14157863483342
 30
0.0
 11
70.37991703330044
 21
46.14124327983518
 31
0.0
  0
LINE
  5
1AF9
330
19A8
100
AcDbEntity
  8
Widoczne (ISO)
100
AcDbLine
 10
70.57357078334462
 20
46.46157815774131
 30
0.0
 11
70.37936445892047
 21
46.46124280274307
 31
0.0
  0
LINE
  5
1AFA
330
19A8
100
AcDbEntity
  8
Widoczne (ISO)
100
AcDbLine
 10
52.35494226270384
 20
58.67245288230515
 30
0.0
 11
52.35527761770208
 21
58.47824655788281
 31
0.0
  0
LINE
  5
1AFB
330
19A8
100
AcDbEntity
  8
Widoczne (ISO)
100
AcDbLine
 10
52.67494178561173
 20
58.67300545668513
 30
0.0
 11
52.67527714060998
 21
58.47879913226279
 31
0.0
  0
LINE
  5
1AFC
330
19A8
100
AcDbEntity
  8
Widoczne (ISO)
100
AcDbLine
 10
52.79448067281555
 20
58.94014257266281
 30
0.0
 11
52.23448150772674
 21
58.93917556750057
 31
0.0
  0
LINE
  5
1AFD
330
19A8
100
AcDbEntity
  8
Widoczne (ISO)
100
AcDbLine
 10
52.23438986723341
 20
58.99224518982191
 30
0.0
 11
52.79438903232585
 21
58.99321219498597
 31
0.0
  0
ELLIPSE
  5
1AFE
330
19A8
100
AcDbEntity
  8
Widoczne (ISO)
100
AcDbEllipse
 10
52.23451612898134
 20
58.91912616641275
 30
0.0
 11
-0.0299999552726562
 21
-0.0000518038480352
 31
0.0
210
0.0
220
0.0
230
-1.0
 40
0.6683143659758094
 41
0.0
 42
1.570796326794899
  0
LINE
  5
1AFF
330
19A8
100
AcDbEntity
  8
Widoczne (ISO)
100
AcDbLine
 10
52.20444171581039
 20
58.96219343070152
 30
0.0
 11
52.20451617370781
 21
58.91907436256406
 31
0.0
  0
ARC
  5
1B00
330
19A8
100
AcDbEntity
  8
Widoczne (ISO)
100
AcDbCircle
 10
52.23444167108391
 20
58.96224523454839
 30
0.0
 40
0.0300000000000008
100
AcDbArc
 50
90.09893811572878
 51
180.0989381157289
  0
ARC
  5
1B01
330
19A8
100
AcDbEntity
  8
Widoczne (ISO)
100
AcDbCircle
 10
52.79444083617272
 20
58.96321223971245
 30
0.0
 40
0.0300000000000008
100
AcDbArc
 50
0.0989381157289653
 51
90.09893811572878
  0
ELLIPSE
  5
1B02
330
19A8
100
AcDbEntity
  8
Widoczne (ISO)
100
AcDbEllipse
 10
52.23451612898134
 20
58.91912616641275
 30
0.0
 11
-0.0299999552726562
 21
-0.0000518038480352
 31
0.0
210
0.0
220
0.0
230
-1.0
 40
0.6683143659758172
 41
0.0000000000000067
 42
1.570796326794899
  0
LINE
  5
1B03
330
19A8
100
AcDbEntity
  8
Widoczne (ISO)
100
AcDbLine
 10
52.82488975812885
 20
58.70326443119665
 30
0.0
 11
52.82451524934367
 21
58.92014497542368
 31
0.0
  0
LINE
  5
1B04
330
19A8
100
AcDbEntity
  8
Widoczne (ISO)
100
AcDbLine
 10
52.20451617370781
 20
58.91907436256406
 30
0.0
 11
52.20489068249299
 21
58.70219381833885
 31
0.0
  0
SPLINE
  5
1B05
330
19A8
100
AcDbEntity
  8
Widoczne (ISO)
100
AcDbSpline
210
0.0
220
0.0
230
1.0
 70
     8
 71
     3
 72
    26
 73
    22
 74
     0
 42
0.0000000001
 43
0.0000000001
 40
3.141592653589794
 40
3.141592653589794
 40
3.141592653589794
 40
3.141592653589794
 40
3.423445136380704
 40
3.423445136380704
 40
3.716624680336462
 40
3.716624680336462
 40
4.033735774154033
 40
4.033735774154033
 40
4.368502129829808
 40
4.368502129829808
 40
4.709082690707942
 40
4.709082690707942
 40
5.050454257127871
 40
5.050454257127871
 40
5.391071219074971
 40
5.391071219074971
 40
5.725836605839336
 40
5.725836605839336
 40
6.041567312063408
 40
6.041567312063408
 40
6.283185307179585
 40
6.283185307179585
 40
6.283185307179585
 40
6.283185307179585
 10
52.67527714060998
 20
58.47879913226279
 30
0.0
 10
52.675299372062
 20
58.46592474950011
 30
0.0
 10
52.67283935008163
 20
58.4530659564789
 30
0.0
 10
52.66331193421137
 20
58.42846455002836
 30
0.0
 10
52.65609586001301
 20
58.41679493285482
 30
0.0
 10
52.63739950501258
 20
58.39526028557884
 30
0.0
 10
52.62562926171085
 20
58.38560032075656
 30
0.0
 10
52.59862194930974
 20
58.36933539255733
 30
0.0
 10
52.58322122791651
 20
58.36292216447873
 30
0.0
 10
52.5505705928008
 20
58.35416378671289
 30
0.0
 10
52.53329159384884
 20
58.35189264681685
 30
0.0
 10
52.49866778736759
 20
58.35174770105187
 30
0.0
 10
52.4813252963504
 20
58.35388419024093
 30
0.0
 10
52.44826862914852
 20
58.36246818609834
 30
0.0
 10
52.43254940252154
 20
58.36890488496829
 30
0.0
 10
52.40451078423939
 20
58.38566022406121
 30
0.0
 10
52.39212934365423
 20
58.39592068228558
 30
0.0
 10
52.37259795252976
 20
58.41915028087715
 30
0.0
 10
52.36520525227752
 20
58.43195767732322
 30
0.0
 10
52.35713240642872
 20
58.45618608980112
 30
0.0
 10
52.35529667561059
 20
58.46720999535136
 30
0.0
 10
52.35527761770208
 20
58.47824655788281
 30
0.0
  0
ARC
  5
1B06
330
19A8
100
AcDbEntity
  8
Widoczne (ISO)
100
AcDbCircle
 10
52.79488980285532
 20
58.70321262734979
 30
0.0
 40
0.0300000000000008
100
AcDbArc
 50
270.0989381157288
 51
0.0989381157289653
  0
LINE
  5
1B07
330
19A8
100
AcDbEntity
  8
Widoczne (ISO)
100
AcDbLine
 10
52.23448150772674
 20
58.93917556750057
 30
0.0
 11
52.79448067281555
 21
58.94014257266281
 31
0.0
  0
ELLIPSE
  5
1B08
330
19A8
100
AcDbEntity
  8
Widoczne (ISO)
100
AcDbEllipse
 10
52.51466573696962
 20
58.83272893094908
 30
0.0
 11
0.1458789723450887
 21
0.1463836507145655
 31
0.0
210
0.0
220
0.0
230
-0.9999999999999998
 40
0.4458865642531584
 41
1.990224255978878
 42
2.722164724406109
  0
ELLIPSE
  5
1B09
330
19A8
100
AcDbEntity
  8
Widoczne (ISO)
100
AcDbEllipse
 10
52.51466573696962
 20
58.83272893094908
 30
0.0
 11
0.1463836507145714
 21
-0.1458789723450827
 31
0.0
210
0.0
220
0.0
230
-1.0
 40
0.4458865642531572
 41
0.4194279291845593
 42
1.151368397611416
  0
LINE
  5
1B0A
330
19A8
100
AcDbEntity
  8
Widoczne (ISO)
100
AcDbLine
 10
52.79494160670219
 20
58.67321267207626
 30
0.0
 11
52.62187216329039
 21
58.67291381619361
 31
0.0
  0
LINE
  5
1B0B
330
19A8
100
AcDbEntity
  8
Widoczne (ISO)
100
AcDbLine
 10
52.40801188502519
 20
58.67254452279667
 30
0.0
 11
52.23494244161338
 21
58.67224566691402
 31
0.0
  0
LINE
  5
1B0C
330
19A8
100
AcDbEntity
  8
Widoczne (ISO)
100
AcDbLine
 10
52.67494178561173
 20
58.67300545668513
 30
0.0
 11
52.67527714060998
 21
58.47879913226279
 31
0.0
  0
LINE
  5
1B0D
330
19A8
100
AcDbEntity
  8
Widoczne (ISO)
100
AcDbLine
 10
52.35494226270384
 20
58.67245288230515
 30
0.0
 11
52.35527761770208
 21
58.47824655788281
 31
0.0
  0
LINE
  5
1B0E
330
19A8
100
AcDbEntity
  8
Widoczne (ISO)
100
AcDbLine
 10
65.75289185879956
 20
58.65353048442194
 30
0.0
 11
65.75322721379416
 21
58.4593241599996
 31
0.0
  0
LINE
  5
1B0F
330
19A8
100
AcDbEntity
  8
Widoczne (ISO)
100
AcDbLine
 10
66.07289138170745
 20
58.65408305880009
 30
0.0
 11
66.07322673670205
 21
58.45987673437775
 31
0.0
  0
LINE
  5
1B10
330
19A8
100
AcDbEntity
  8
Widoczne (ISO)
100
AcDbLine
 10
66.19243026890763
 20
58.92122017477959
 30
0.0
 11
65.63243110381882
 21
58.92025316961554
 31
0.0
  0
LINE
  5
1B11
330
19A8
100
AcDbEntity
  8
Widoczne (ISO)
100
AcDbLine
 10
65.63233946332911
 20
58.97332279193688
 30
0.0
 11
66.19233862841793
 21
58.97428979710094
 31
0.0
  0
ELLIPSE
  5
1B12
330
19A8
100
AcDbEntity
  8
Widoczne (ISO)
100
AcDbEllipse
 10
65.63246572507705
 20
58.90020376852771
 30
0.0
 11
-0.0299999552726562
 21
-0.0000518038480352
 31
0.0
210
0.0
220
0.0
230
-1.0
 40
0.6683143659758094
 41
0.0
 42
1.570796326794899
  0
LINE
  5
1B13
330
19A8
100
AcDbEntity
  8
Widoczne (ISO)
100
AcDbLine
 10
65.60239131190247
 20
58.94327103281648
 30
0.0
 11
65.60246576980353
 21
58.90015196468084
 31
0.0
  0
ARC
  5
1B14
330
19A8
100
AcDbEntity
  8
Widoczne (ISO)
100
AcDbCircle
 10
65.63239126717599
 20
58.94332283666518
 30
0.0
 40
0.0300000000000008
100
AcDbArc
 50
90.09893811572878
 51
180.0989381157289
  0
ARC
  5
1B15
330
19A8
100
AcDbEntity
  8
Widoczne (ISO)
100
AcDbCircle
 10
66.1923904322648
 20
58.94428984182741
 30
0.0
 40
0.0300000000000008
100
AcDbArc
 50
0.0989381157289653
 51
90.09893811572878
  0
ELLIPSE
  5
1B16
330
19A8
100
AcDbEntity
  8
Widoczne (ISO)
100
AcDbEllipse
 10
65.63246572507705
 20
58.90020376852771
 30
0.0
 11
-0.0299999552726562
 21
-0.0000518038480352
 31
0.0
210
0.0
220
0.0
230
-1.0
 40
0.6683143659758172
 41
0.0000000000000067
 42
1.570796326794899
  0
LINE
  5
1B17
330
19A8
100
AcDbEntity
  8
Widoczne (ISO)
100
AcDbLine
 10
66.22283935422093
 20
58.68434203331344
 30
0.0
 11
66.22246484543939
 21
58.90122257754047
 31
0.0
  0
LINE
  5
1B18
330
19A8
100
AcDbEntity
  8
Widoczne (ISO)
100
AcDbLine
 10
65.60246576980353
 20
58.90015196468084
 30
0.0
 11
65.60284027858506
 21
58.68327142045382
 31
0.0
  0
SPLINE
  5
1B19
330
19A8
100
AcDbEntity
  8
Widoczne (ISO)
100
AcDbSpline
210
0.0
220
0.0
230
1.0
 70
     8
 71
     3
 72
    26
 73
    22
 74
     0
 42
0.0000000001
 43
0.0000000001
 40
3.141592653589794
 40
3.141592653589794
 40
3.141592653589794
 40
3.141592653589794
 40
3.423445136380704
 40
3.423445136380704
 40
3.716624680336462
 40
3.716624680336462
 40
4.033735774154033
 40
4.033735774154033
 40
4.368502129829808
 40
4.368502129829808
 40
4.709082690707942
 40
4.709082690707942
 40
5.050454257127871
 40
5.050454257127871
 40
5.391071219074971
 40
5.391071219074971
 40
5.725836605839336
 40
5.725836605839336
 40
6.041567312063408
 40
6.041567312063408
 40
6.283185307179585
 40
6.283185307179585
 40
6.283185307179585
 40
6.283185307179585
 10
66.07322673670205
 20
58.45987673437775
 30
0.0
 10
66.07324896815407
 20
58.4470023516169
 30
0.0
 10
66.0707889461737
 20
58.43414355859568
 30
0.0
 10
66.06126153030345
 20
58.40954215214333
 30
0.0
 10
66.05404545610508
 20
58.39787253497161
 30
0.0
 10
66.03534910110465
 20
58.3763378876938
 30
0.0
 10
66.02357885780293
 20
58.36667792287153
 30
0.0
 10
65.99657154540182
 20
58.3504129946723
 30
0.0
 10
65.98117082400858
 20
58.34399976659369
 30
0.0
 10
65.94852018889287
 20
58.33524138882785
 30
0.0
 10
65.93124118994092
 20
58.33297024893181
 30
0.0
 10
65.89661738345967
 20
58.33282530316683
 30
0.0
 10
65.87927489244612
 20
58.3349617923559
 30
0.0
 10
65.84621822524423
 20
58.34354578821512
 30
0.0
 10
65.83049899861362
 20
58.34998248708325
 30
0.0
 10
65.80246038033147
 20
58.36673782617618
 30
0.0
 10
65.79007893974631
 20
58.37699828440236
 30
0.0
 10
65.77054754862183
 20
58.40022788299211
 30
0.0
 10
65.7631548483696
 20
58.41303527943819
 30
0.0
 10
65.75508200252079
 20
58.43726369191791
 30
0.0
 10
65.75324627170267
 20
58.44828759746633
 30
0.0
 10
65.75322721379416
 20
58.4593241599996
 30
0.0
  0
ARC
  5
1B1A
330
19A8
100
AcDbEntity
  8
Widoczne (ISO)
100
AcDbCircle
 10
66.1928393989474
 20
58.68429022946475
 30
0.0
 40
0.0300000000000008
100
AcDbArc
 50
270.0989381157288
 51
0.0989381157289653
  0
LINE
  5
1B1B
330
19A8
100
AcDbEntity
  8
Widoczne (ISO)
100
AcDbLine
 10
65.63243110381882
 20
58.92025316961554
 30
0.0
 11
66.19243026890763
 21
58.92122017477959
 31
0.0
  0
ELLIPSE
  5
1B1C
330
19A8
100
AcDbEntity
  8
Widoczne (ISO)
100
AcDbEllipse
 10
65.9126153330617
 20
58.81380653306405
 30
0.0
 11
0.1458789723450887
 21
0.1463836507145655
 31
0.0
210
0.0
220
0.0
230
-0.9999999999999998
 40
0.4458865642531584
 41
1.990224255978878
 42
2.722164724406109
  0
ELLIPSE
  5
1B1D
330
19A8
100
AcDbEntity
  8
Widoczne (ISO)
100
AcDbEllipse
 10
65.9126153330617
 20
58.81380653306405
 30
0.0
 11
0.1463836507145714
 21
-0.1458789723450827
 31
0.0
210
0.0
220
0.0
230
-1.0
 40
0.4458865642531572
 41
0.4194279291845593
 42
1.151368397611416
  0
LINE
  5
1B1E
330
19A8
100
AcDbEntity
  8
Widoczne (ISO)
100
AcDbLine
 10
66.19289120279791
 20
58.65429027419304
 30
0.0
 11
66.0198217593861
 21
58.65399141830858
 31
0.0
  0
LINE
  5
1B1F
330
19A8
100
AcDbEntity
  8
Widoczne (ISO)
100
AcDbLine
 10
65.8059614811209
 20
58.65362212491345
 30
0.0
 11
65.63289203770546
 21
58.65332326902898
 31
0.0
  0
LINE
  5
1B20
330
19A8
100
AcDbEntity
  8
Widoczne (ISO)
100
AcDbLine
 10
66.07289138170745
 20
58.65408305880009
 30
0.0
 11
66.07322673670205
 21
58.45987673437775
 31
0.0
  0
LINE
  5
1B21
330
19A8
100
AcDbEntity
  8
Widoczne (ISO)
100
AcDbLine
 10
65.75289185879956
 20
58.65353048442194
 30
0.0
 11
65.75322721379416
 21
58.4593241599996
 31
0.0
  0
LINE
  5
1B22
330
19A8
100
AcDbEntity
  8
Widoczne (ISO)
100
AcDbLine
 10
40.13180269909571
 20
53.85485241262904
 30
0.0
 11
40.32600902351624
 21
53.85518776762729
 31
0.0
  0
LINE
  5
1B23
330
19A8
100
AcDbEntity
  8
Widoczne (ISO)
100
AcDbLine
 10
40.13125012471573
 20
54.17485193553694
 30
0.0
 11
40.32545644913625
 21
54.17518729053518
 31
0.0
  0
LINE
  5
1B24
330
19A8
100
AcDbEntity
  8
Widoczne (ISO)
100
AcDbLine
 10
39.86411300873806
 20
54.29439082274075
 30
0.0
 11
39.8650800139003
 21
53.73439165765194
 31
0.0
  0
LINE
  5
1B25
330
19A8
100
AcDbEntity
  8
Widoczne (ISO)
100
AcDbLine
 10
39.81201039157895
 20
53.73430001716042
 30
0.0
 11
39.81104338641308
 21
54.29429918224923
 31
0.0
  0
ELLIPSE
  5
1B26
330
19A8
100
AcDbEntity
  8
Widoczne (ISO)
100
AcDbEllipse
 10
39.8851294149863
 20
53.73442627890653
 30
0.0
 11
0.0000518038480352
 21
-0.0299999552726562
 31
0.0
210
0.0
220
0.0
230
-1.0
 40
0.6683143659758094
 41
0.0
 42
1.570796326794899
  0
LINE
  5
1B27
330
19A8
100
AcDbEntity
  8
Widoczne (ISO)
100
AcDbLine
 10
39.84206215069935
 20
53.70435186573558
 30
0.0
 11
39.88518121883681
 21
53.70442632363483
 31
0.0
  0
ARC
  5
1B28
330
19A8
100
AcDbEntity
  8
Widoczne (ISO)
100
AcDbCircle
 10
39.84201034685248
 20
53.73435182100729
 30
0.0
 40
0.0300000000000008
100
AcDbArc
 50
180.0989381157289
 51
270.0989381157288
  0
ARC
  5
1B29
330
19A8
100
AcDbEntity
  8
Widoczne (ISO)
100
AcDbCircle
 10
39.8410433416866
 20
54.29435098609793
 30
0.0
 40
0.0300000000000008
100
AcDbArc
 50
90.09893811572878
 51
180.0989381157289
  0
ELLIPSE
  5
1B2A
330
19A8
100
AcDbEntity
  8
Widoczne (ISO)
100
AcDbEllipse
 10
39.8851294149863
 20
53.73442627890653
 30
0.0
 11
0.0000518038480352
 21
-0.0299999552726562
 31
0.0
210
0.0
220
0.0
230
-1.0
 40
0.6683143659758172
 41
0.0000000000000067
 42
1.570796326794899
  0
LINE
  5
1B2B
330
19A8
100
AcDbEntity
  8
Widoczne (ISO)
100
AcDbLine
 10
40.10099115020421
 20
54.32479990805223
 30
0.0
 11
39.88411060597718
 21
54.32442539926888
 31
0.0
  0
LINE
  5
1B2C
330
19A8
100
AcDbEntity
  8
Widoczne (ISO)
100
AcDbLine
 10
39.88518121883681
 20
53.70442632363483
 30
0.0
 11
40.10206176306019
 21
53.70480083241819
 31
0.0
  0
SPLINE
  5
1B2D
330
19A8
100
AcDbEntity
  8
Widoczne (ISO)
100
AcDbSpline
210
0.0
220
0.0
230
1.0
 70
     8
 71
     3
 72
    26
 73
    22
 74
     0
 42
0.0000000001
 43
0.0000000001
 40
3.141592653589794
 40
3.141592653589794
 40
3.141592653589794
 40
3.141592653589794
 40
3.423445136380704
 40
3.423445136380704
 40
3.716624680336462
 40
3.716624680336462
 40
4.033735774154033
 40
4.033735774154033
 40
4.368502129829808
 40
4.368502129829808
 40
4.709082690707942
 40
4.709082690707942
 40
5.050454257127871
 40
5.050454257127871
 40
5.391071219074971
 40
5.391071219074971
 40
5.725836605839336
 40
5.725836605839336
 40
6.041567312063408
 40
6.041567312063408
 40
6.283185307179585
 40
6.283185307179585
 40
6.283185307179585
 40
6.283185307179585
 10
40.32545644913625
 20
54.17518729053518
 30
0.0
 10
40.33833083189892
 20
54.1752095219872
 30
0.0
 10
40.35118962492197
 20
54.17274950000501
 30
0.0
 10
40.37579103137249
 20
54.16322208413475
 30
0.0
 10
40.38746064854422
 20
54.15600600993821
 30
0.0
 10
40.4089952958202
 20
54.13730965493778
 30
0.0
 10
40.41865526064429
 20
54.12553941163423
 30
0.0
 10
40.43492018884353
 20
54.09853209923494
 30
0.0
 10
40.44133341692213
 20
54.08313137783989
 30
0.0
 10
40.45009179468616
 20
54.05048074272599
 30
0.0
 10
40.45236293458219
 20
54.03320174377222
 30
0.0
 10
40.452507880349
 20
53.99857793729097
 30
0.0
 10
40.45037139115811
 20
53.9812354462756
 30
0.0
 10
40.44178739530252
 20
53.94817877907371
 30
0.0
 10
40.43535069643257
 20
53.93245955244674
 30
0.0
 10
40.41859535733965
 20
53.90442093416459
 30
0.0
 10
40.40833489911529
 20
53.89203949357943
 30
0.0
 10
40.38510530052372
 20
53.87250810245314
 30
0.0
 10
40.37229790407582
 20
53.8651154022009
 30
0.0
 10
40.34806949159974
 20
53.8570425563521
 30
0.0
 10
40.3370455860495
 20
53.85520682553579
 30
0.0
 10
40.32600902351624
 20
53.85518776762729
 30
0.0
  0
ARC
  5
1B2E
330
19A8
100
AcDbEntity
  8
Widoczne (ISO)
100
AcDbCircle
 10
40.10104295405108
 20
54.29479995278052
 30
0.0
 40
0.0300000000000008
100
AcDbArc
 50
0.0989381157289653
 51
90.09893811572878
  0
LINE
  5
1B2F
330
19A8
100
AcDbEntity
  8
Widoczne (ISO)
100
AcDbLine
 10
39.8650800139003
 20
53.73439165765194
 30
0.0
 11
39.86411300873806
 21
54.29439082274075
 31
0.0
  0
ELLIPSE
  5
1B30
330
19A8
100
AcDbEntity
  8
Widoczne (ISO)
100
AcDbEllipse
 10
39.97152665044996
 20
54.01457588689481
 30
0.0
 11
-0.1463836507145654
 21
0.1458789723450887
 31
0.0
210
0.0
220
0.0
230
-1.0
 40
0.4458865642531583
 41
1.990224255978878
 42
2.722164724406109
  0
ELLIPSE
  5
1B31
330
19A8
100
AcDbEntity
  8
Widoczne (ISO)
100
AcDbEllipse
 10
39.97152665044996
 20
54.01457588689481
 30
0.0
 11
0.1458789723450828
 21
0.1463836507145714
 31
0.0
210
0.0
220
0.0
230
-1.0
 40
0.4458865642531572
 41
0.4194279291845593
 42
1.151368397611416
  0
LINE
  5
1B32
330
19A8
100
AcDbEntity
  8
Widoczne (ISO)
100
AcDbLine
 10
40.1310429093246
 20
54.2948517566274
 30
0.0
 11
40.13134176520543
 21
54.12178231321559
 31
0.0
  0
LINE
  5
1B33
330
19A8
100
AcDbEntity
  8
Widoczne (ISO)
100
AcDbLine
 10
40.13171105860237
 20
53.90792203495038
 30
0.0
 11
40.13200991448684
 21
53.73485259153858
 31
0.0
  0
LINE
  5
1B34
330
19A8
100
AcDbEntity
  8
Widoczne (ISO)
100
AcDbLine
 10
40.13125012471573
 20
54.17485193553694
 30
0.0
 11
40.32545644913625
 21
54.17518729053518
 31
0.0
  0
LINE
  5
1B35
330
19A8
100
AcDbEntity
  8
Widoczne (ISO)
100
AcDbLine
 10
40.13180269909571
 20
53.85485241262904
 30
0.0
 11
40.32600902351624
 21
53.85518776762729
 31
0.0
  0
LINE
  5
1B36
330
19A8
100
AcDbEntity
  8
0
100
AcDbLine
 10
26.85893447840499
 20
86.98771481178846
 30
0.0
 11
83.84662311684952
 21
86.98771481178846
 31
0.0
  0
LINE
  5
1B37
330
19A8
100
AcDbEntity
  8
0
100
AcDbLine
 10
83.84662311684952
 20
86.98771481178846
 30
0.0
 11
98.84662311684952
 21
86.98771481178846
 31
0.0
  0
LINE
  5
1B38
330
19A8
100
AcDbEntity
  8
0
100
AcDbLine
 10
98.84662311684952
 20
86.98771481178846
 30
0.0
 11
98.84662311684952
 21
15.00002617334394
 31
0.0
  0
LINE
  5
1B39
330
19A8
100
AcDbEntity
  8
0
100
AcDbLine
 10
98.84662311684952
 20
15.00002617334394
 30
0.0
 11
98.84662311684952
 21
0.0000261733439402
 31
0.0
  0
LINE
  5
1B3A
330
19A8
100
AcDbEntity
  8
0
100
AcDbLine
 10
98.84662311684952
 20
0.0000261733439402
 30
0.0
 11
26.85893447840499
 21
0.0000261733439402
 31
0.0
  0
LINE
  5
1B3B
330
19A8
100
AcDbEntity
  8
0
100
AcDbLine
 10
26.85893447840499
 20
0.0000261733439402
 30
0.0
 11
11.85893447840499
 21
0.0000261733439402
 31
0.0
  0
LINE
  5
1B3C
330
19A8
100
AcDbEntity
  8
0
100
AcDbLine
 10
11.85893447840499
 20
0.0000261733439402
 30
0.0
 11
11.85893447840499
 21
86.98771481178846
 31
0.0
  0
LINE
  5
1B3D
330
19A8
100
AcDbEntity
  8
0
100
AcDbLine
 10
11.85893447840499
 20
86.98771481178846
 30
0.0
 11
26.85893447840499
 21
86.98771481178846
 31
0.0
  0
LINE
  5
1B3E
330
19A8
100
AcDbEntity
  8
0
100
AcDbLine
 10
11.85893447840499
 20
86.98833981178905
 30
0.0
 11
11.85893447840499
 21
92.98720326869261
 31
0.0
  0
LINE
  5
1B3F
330
19A8
100
AcDbEntity
  8
0
100
AcDbLine
 10
98.84662311684952
 20
86.98833981178722
 30
0.0
 11
98.84662311684952
 21
92.98720326869261
 31
0.0
  0
LINE
  5
1B40
330
19A8
100
AcDbEntity
  8
0
100
AcDbLine
 10
11.87693447840502
 20
92.98540326869261
 30
0.0
 11
55.3439833980301
 21
92.98540326869261
 31
0.0
  0
LINE
  5
1B41
330
19A8
100
AcDbEntity
  8
0
100
AcDbLine
 10
98.82862311684949
 20
92.98540326869261
 30
0.0
 11
55.3615741972244
 21
92.98540326869261
 31
0.0
  0
SOLID
  5
1B42
330
19A8
100
AcDbEntity
  8
0
100
AcDbTrace
 10
14.57693447840575
 20
93.43540326869334
 30
0.0
 11
14.57693447840575
 21
92.53540326869734
 31
0.0
 12
11.87693447840502
 22
92.98540326869261
 32
0.0
 13
11.87693447840502
 23
92.98540326869261
 33
0.0
  0
SOLID
  5
1B43
330
19A8
100
AcDbEntity
  8
0
100
AcDbTrace
 10
96.14662311685243
 20
93.4354032686897
 30
0.0
 11
96.14662311685243
 21
92.53540326869552
 31
0.0
 12
98.84662311685316
 22
92.98540326869078
 32
0.0
 13
98.84662311685316
 23
92.98540326869078
 33
0.0
  0
MTEXT
  5
1B44
330
19A8
100
AcDbEntity
  8
0
100
AcDbMText
 10
55.35277879762725
 20
95.53160089291486
 30
0.0
 40
2.0
 41
0.0
 71
     5
 72
     1
  1
\A1;7000
 73
     1
 44
1.0
  0
LINE
  5
1B45
330
19A8
100
AcDbEntity
  8
0
100
AcDbLine
 10
11.8583094784044
 20
86.98771481178846
 30
0.0
 11
4.257936964739201
 21
86.98771481178846
 31
0.0
  0
LINE
  5
1B46
330
19A8
100
AcDbEntity
  8
0
100
AcDbLine
 10
11.8583094784044
 20
0.0000261733439402
 30
0.0
 11
4.257936964739201
 21
0.0000261733439402
 31
0.0
  0
LINE
  5
1B47
330
19A8
100
AcDbEntity
  8
0
100
AcDbLine
 10
4.259736964741023
 20
86.96971481178843
 30
0.0
 11
4.259736964741023
 21
43.49607757785816
 31
0.0
  0
LINE
  5
1B48
330
19A8
100
AcDbEntity
  8
0
100
AcDbLine
 10
4.259736964741023
 20
0.0180261733439693
 30
0.0
 11
4.259736964741023
 21
43.49166340727424
 31
0.0
  0
SOLID
  5
1B49
330
19A8
100
AcDbEntity
  8
0
100
AcDbTrace
 10
3.809736964740295
 20
84.28771481178591
 30
0.0
 11
4.709736964738112
 21
84.28771481178591
 31
0.0
 12
4.259736964741023
 22
86.98771481178665
 32
0.0
 13
4.259736964741023
 23
86.98771481178665
 33
0.0
  0
SOLID
  5
1B4A
330
19A8
100
AcDbEntity
  8
0
100
AcDbTrace
 10
3.809736964743933
 20
2.700026173342848
 30
0.0
 11
4.709736964738112
 21
2.700026173342848
 31
0.0
 12
4.259736964744661
 22
0.0000261733439402
 32
0.0
 13
4.259736964744661
 23
0.0000261733439402
 33
0.0
  0
MTEXT
  5
1B4B
330
19A8
100
AcDbEntity
  8
0
100
AcDbMText
 10
1.839480172613548
 20
44.6104623856263
 30
0.0
 40
2.0
 41
0.0
 71
     5
 72
     1
  1
\A1;7000
 11
0.0000000000000001
 21
1.0
 31
0.0
 73
     1
 44
1.0
  0
LINE
  5
1B4C
330
19A8
100
AcDbEntity
  8
0
100
AcDbLine
 10
83.84662311684952
 20
15.00002617334394
 30
0.0
 11
82.84662311684952
 21
15.00002617334394
 31
0.0
  0
LINE
  5
1B4D
330
19A8
100
AcDbEntity
  8
0
100
AcDbLine
 10
82.84662311684952
 20
15.00002617334394
 30
0.0
 11
83.84662311684952
 21
15.00002617334394
 31
0.0
  0
LINE
  5
1B4E
330
19A8
100
AcDbEntity
  8
0
100
AcDbLine
 10
83.84662311684952
 20
15.00002617334394
 30
0.0
 11
83.84662311684952
 21
16.00002617334394
 31
0.0
  0
LINE
  5
1B4F
330
19A8
100
AcDbEntity
  8
0
100
AcDbLine
 10
83.84662311684952
 20
16.00002617334394
 30
0.0
 11
82.84662311684952
 21
15.00002617334394
 31
0.0
  0
LINE
  5
1B50
330
19A8
100
AcDbEntity
  8
0
100
AcDbLine
 10
83.84662311684952
 20
71.98771481178846
 30
0.0
 11
83.84662311684952
 21
70.98771481178847
 31
0.0
  0
LINE
  5
1B51
330
19A8
100
AcDbEntity
  8
0
100
AcDbLine
 10
83.84662311684952
 20
70.98771481178847
 30
0.0
 11
83.84662311684952
 21
71.98771481178846
 31
0.0
  0
LINE
  5
1B52
330
19A8
100
AcDbEntity
  8
0
100
AcDbLine
 10
83.84662311684952
 20
71.98771481178846
 30
0.0
 11
82.84662311684952
 21
71.98771481178846
 31
0.0
  0
LINE
  5
1B53
330
19A8
100
AcDbEntity
  8
0
100
AcDbLine
 10
82.84662311684952
 20
71.98771481178846
 30
0.0
 11
83.84662311684952
 21
70.98771481178847
 31
0.0
  0
LINE
  5
1B54
330
19A8
100
AcDbEntity
  8
0
100
AcDbLine
 10
26.85893447840499
 20
71.98771481178846
 30
0.0
 11
27.85893447840499
 21
71.98771481178846
 31
0.0
  0
LINE
  5
1B55
330
19A8
100
AcDbEntity
  8
0
100
AcDbLine
 10
27.85893447840499
 20
71.98771481178846
 30
0.0
 11
26.85893447840499
 21
71.98771481178846
 31
0.0
  0
LINE
  5
1B56
330
19A8
100
AcDbEntity
  8
0
100
AcDbLine
 10
26.85893447840499
 20
71.98771481178846
 30
0.0
 11
26.85893447840499
 21
70.98771481178847
 31
0.0
  0
LINE
  5
1B57
330
19A8
100
AcDbEntity
  8
0
100
AcDbLine
 10
26.85893447840499
 20
70.98771481178847
 30
0.0
 11
27.85893447840499
 21
71.98771481178846
 31
0.0
  0
LINE
  5
1B58
330
19A8
100
AcDbEntity
  8
0
100
AcDbLine
 10
26.85893447840499
 20
15.00002617334394
 30
0.0
 11
27.85893447840499
 21
15.00002617334394
 31
0.0
  0
LINE
  5
1B59
330
19A8
100
AcDbEntity
  8
0
100
AcDbLine
 10
27.85893447840499
 20
15.00002617334394
 30
0.0
 11
26.85893447840499
 21
15.00002617334394
 31
0.0
  0
LINE
  5
1B5A
330
19A8
100
AcDbEntity
  8
0
100
AcDbLine
 10
26.85893447840499
 20
15.00002617334394
 30
0.0
 11
26.85893447840499
 21
16.00002617334394
 31
0.0
  0
LINE
  5
1B5B
330
19A8
100
AcDbEntity
  8
0
100
AcDbLine
 10
26.85893447840499
 20
16.00002617334394
 30
0.0
 11
27.85893447840499
 21
15.00002617334394
 31
0.0
  0
ENDBLK
  5
1B5F
330
19A8
100
AcDbEntity
  8
0
100
AcDbBlockEnd
  0
BLOCK
  5
2477
330
2476
100
AcDbEntity
  8
0
100
AcDbBlockBegin
  2
*D5
 70
     1
 10
0.0
 20
0.0
 30
0.0
  3
*D5
  1

  0
LINE
  5
2481
330
2476
100
AcDbEntity
  8
WYMIAR
370
    -2
100
AcDbLine
 10
1887.683789900268
 20
934.5122049705851
 30
0.0
 11
1894.563789900267
 21
934.5122049705851
 31
0.0
  0
INSERT
  5
2482
330
2476
100
AcDbEntity
  8
WYMIAR
370
    -2
100
AcDbBlockReference
  2
MAR-STRZ
 10
1887.623789900268
 20
934.5122049705851
 30
0.0
 41
0.06
 42
0.06
 43
0.06
 50
180.0
  0
INSERT
  5
2483
330
2476
100
AcDbEntity
  8
WYMIAR
370
    -2
100
AcDbBlockReference
  2
MAR-STRZ
 10
1894.623789900268
 20
934.5122049705851
 30
0.0
 41
0.06
 42
0.06
 43
0.06
  0
MTEXT
  5
2484
330
2476
100
AcDbEntity
  8
WYMIAR
100
AcDbMText
 10
1891.123789900268
 20
934.7222049705852
 30
0.0
 40
0.18
 41
0.0
 71
     5
 72
     1
  1
\A1;7.00
  7
AR 01 SWIS
 73
     1
 44
1.0
  0
POINT
  5
2485
330
2476
100
AcDbEntity
  8
Defpoints
 62
     0
100
AcDbPoint
 10
1887.623789900268
 20
933.9524371536056
 30
0.0
  0
POINT
  5
2486
330
2476
100
AcDbEntity
  8
Defpoints
 62
     0
100
AcDbPoint
 10
1894.623789900268
 20
933.9524371536056
 30
0.0
  0
POINT
  5
2487
330
2476
100
AcDbEntity
  8
Defpoints
 62
     0
100
AcDbPoint
 10
1894.623789900268
 20
934.5122049705851
 30
0.0
  0
ENDBLK
  5
2478
330
2476
100
AcDbEntity
  8
0
100
AcDbBlockEnd
  0
BLOCK
  5
248B
330
248A
100
AcDbEntity
  8
0
100
AcDbBlockBegin
  2
*D6
 70
     1
 10
0.0
 20
0.0
 30
0.0
  3
*D6
  1

  0
LINE
  5
2495
330
248A
100
AcDbEntity
  8
WYMIAR
370
    -2
100
AcDbLine
 10
1886.931592158489
 20
933.8924371536057
 30
0.0
 11
1886.931592158489
 21
927.0124371536047
 31
0.0
  0
INSERT
  5
2496
330
248A
100
AcDbEntity
  8
WYMIAR
370
    -2
100
AcDbBlockReference
  2
MAR-STRZ
 10
1886.931592158489
 20
933.9524371536056
 30
0.0
 41
0.06
 42
0.06
 43
0.06
 50
90.0
  0
INSERT
  5
2497
330
248A
100
AcDbEntity
  8
WYMIAR
370
    -2
100
AcDbBlockReference
  2
MAR-STRZ
 10
1886.931592158489
 20
926.9524371536046
 30
0.0
 41
0.06
 42
0.06
 43
0.06
 50
270.0
  0
MTEXT
  5
2498
330
248A
100
AcDbEntity
  8
WYMIAR
100
AcDbMText
 10
1886.721592158489
 20
930.4524371536055
 30
0.0
 40
0.18
 41
0.0
 71
     5
 72
     1
  1
\A1;7.00
  7
AR 01 SWIS
 11
0.0000000000000001
 21
1.0
 31
0.0
 73
     1
 44
1.0
  0
POINT
  5
2499
330
248A
100
AcDbEntity
  8
Defpoints
 62
     0
100
AcDbPoint
 10
1887.623789900268
 20
933.9524371536056
 30
0.0
  0
POINT
  5
249A
330
248A
100
AcDbEntity
  8
Defpoints
 62
     0
100
AcDbPoint
 10
1887.623789900266
 20
926.9524371536046
 30
0.0
  0
POINT
  5
249B
330
248A
100
AcDbEntity
  8
Defpoints
 62
     0
100
AcDbPoint
 10
1886.931592158489
 20
926.9524371536046
 30
0.0
  0
ENDBLK
  5
248C
330
248A
100
AcDbEntity
  8
0
100
AcDbBlockEnd
  0
ENDSEC
  0
SECTION
  2
ENTITIES
  0
ARC
  5
17F5
330
1F
100
AcDbEntity
  8
0
100
AcDbCircle
 10
7404.786691537906
 20
5275.766022752533
 30
0.0
 40
80.0
100
AcDbArc
 50
180.0
 51
0.0
  0
LINE
  5
17F6
330
1F
100
AcDbEntity
  8
0
100
AcDbLine
 10
7404.800330467246
 20
5195.76602391516
 30
0.0
 11
7405.127664771445
 21
3275.766051818219
 31
0.0
  0
LINE
  5
17F7
330
1F
100
AcDbEntity
  8
0
100
AcDbLine
 10
7405.127664771445
 20
3275.766051818219
 30
0.0
 11
7404.80033046725
 21
5195.76602391516
 31
0.0
  0
LINE
  5
17F8
330
1F
100
AcDbEntity
  8
0
100
AcDbLine
 10
7324.786692700534
 20
5275.752383823191
 30
0.0
 11
5404.786720603588
 21
5275.425049518998
 31
0.0
  0
LINE
  5
17F9
330
1F
100
AcDbEntity
  8
0
100
AcDbLine
 10
5404.786720603588
 20
5275.425049518998
 30
0.0
 11
7324.786692700534
 21
5275.752383823192
 31
0.0
  0
LINE
  5
17FA
330
1F
100
AcDbEntity
  8
0
100
AcDbLine
 10
7484.786690375277
 20
5275.779661681877
 30
0.0
 11
9404.786662472218
 21
5276.106995986072
 31
0.0
  0
LINE
  5
17FB
330
1F
100
AcDbEntity
  8
0
100
AcDbLine
 10
9404.786662472218
 20
5276.106995986072
 30
0.0
 11
9404.786662472238
 21
3435.766051818222
 31
0.0
  0
LINE
  5
17FC
330
1F
100
AcDbEntity
  8
0
100
AcDbLine
 10
9244.786662472238
 20
3275.766051818219
 30
0.0
 11
5564.786720603589
 21
3275.76605181821
 31
0.0
  0
ARC
  5
17FD
330
1F
100
AcDbEntity
  8
0
100
AcDbCircle
 10
9244.786662472238
 20
3435.76605181822
 30
0.0
 40
160.0
100
AcDbArc
 50
270.0
 51
0.0
  0
LINE
  5
17FE
330
1F
100
AcDbEntity
  8
0
100
AcDbLine
 10
5404.786720603588
 20
3435.76605181821
 30
0.0
 11
5404.7867206036
 21
5275.766022752533
 31
0.0
  0
ARC
  5
17FF
330
1F
100
AcDbEntity
  8
0
100
AcDbCircle
 10
5564.786720603589
 20
3435.76605181821
 30
0.0
 40
160.0
100
AcDbArc
 50
180.0
 51
270.0
  0
LINE
  5
1800
330
1F
100
AcDbEntity
  8
0
100
AcDbLine
 10
7348.218149042984
 20
5219.197480257609
 30
0.0
 11
5404.786720603588
 21
3275.76605181821
 31
0.0
  0
LINE
  5
1801
330
1F
100
AcDbEntity
  8
0
100
AcDbLine
 10
9404.786662472238
 20
3275.766051818222
 30
0.0
 11
7461.355234032836
 21
5219.197480257616
 31
0.0
  0
LINE
  5
1802
330
1F
100
AcDbEntity
  8
0
100
AcDbLine
 10
7484.786691537907
 20
5275.766022752533
 30
0.0
 11
7739.786691537926
 21
5275.766022752533
 31
0.0
  0
LINE
  5
1803
330
1F
100
AcDbEntity
  8
0
100
AcDbLine
 10
7739.786691537926
 20
5275.766022752533
 30
0.0
 11
7739.786691537926
 21
5100.766022752531
 31
0.0
  0
ARC
  5
1804
330
1F
100
AcDbEntity
  8
0
100
AcDbCircle
 10
7579.786691537925
 20
5100.766022752531
 30
0.0
 40
160.0
100
AcDbArc
 50
270.0
 51
0.0
  0
LINE
  5
1805
330
1F
100
AcDbEntity
  8
0
100
AcDbLine
 10
7579.786691537925
 20
4940.766022752531
 30
0.0
 11
7229.786691537928
 21
4940.766022752534
 31
0.0
  0
ARC
  5
1806
330
1F
100
AcDbEntity
  8
0
100
AcDbCircle
 10
7229.786691537928
 20
5100.766022752533
 30
0.0
 40
160.0
100
AcDbArc
 50
180.0
 51
270.0
  0
LINE
  5
1807
330
1F
100
AcDbEntity
  8
0
100
AcDbLine
 10
7069.786691537927
 20
5100.766022752533
 30
0.0
 11
7069.786691537925
 21
5275.766022752533
 31
0.0
  0
LINE
  5
1808
330
1F
100
AcDbEntity
  8
0
100
AcDbLine
 10
7404.843804555357
 20
4940.766022752534
 30
0.0
 11
7404.843804555357
 21
4540.766022752533
 31
0.0
  0
LINE
  5
1809
330
1F
100
AcDbEntity
  8
0
100
AcDbLine
 10
7404.843804555357
 20
4540.766022752533
 30
0.0
 11
7069.786691537925
 21
4540.766022752566
 31
0.0
  0
LINE
  5
180A
330
1F
100
AcDbEntity
  8
0
100
AcDbLine
 10
7979.712542551644
 20
4540.766022752558
 30
0.0
 11
7404.843804555357
 21
4540.766022752533
 31
0.0
  0
LINE
  5
180B
330
1F
100
AcDbEntity
  8
0
100
AcDbLine
 10
6669.786691537947
 20
5275.766022752533
 30
0.0
 11
6669.786691537947
 21
4700.766022752567
 31
0.0
  0
LINE
  5
180C
330
1F
100
AcDbEntity
  8
0
100
AcDbLine
 10
7069.786691537925
 20
4540.766022752566
 30
0.0
 11
6829.786691537946
 21
4540.766022752567
 31
0.0
  0
ARC
  5
180D
330
1F
100
AcDbEntity
  8
0
100
AcDbCircle
 10
6829.786691537946
 20
4700.766022752567
 30
0.0
 40
160.0
100
AcDbArc
 50
180.0
 51
270.0
  0
LINE
  5
180E
330
1F
100
AcDbEntity
  8
0
100
AcDbLine
 10
8139.446148523116
 20
5275.766022752533
 30
0.0
 11
8139.71252537812
 21
4700.840154557343
 31
0.0
  0
ARC
  5
180F
330
1F
100
AcDbEntity
  8
0
100
AcDbCircle
 10
7979.712542551635
 20
4700.766022752558
 30
0.0
 40
160.0
100
AcDbArc
 50
270.0
 51
0.026546498063947
  0
LINE
  5
1810
330
1F
100
AcDbEntity
  8
0
100
AcDbLine
 10
8379.786691537928
 20
4140.766022752535
 30
0.0
 11
7404.980193850753
 21
4140.766022752533
 31
0.0
  0
LINE
  5
1811
330
1F
100
AcDbEntity
  8
0
100
AcDbLine
 10
6269.78669153791
 20
4300.766022752532
 30
0.0
 11
6269.78669153791
 21
5275.766022752533
 31
0.0
  0
ARC
  5
1812
330
1F
100
AcDbEntity
  8
0
100
AcDbCircle
 10
6429.78669153791
 20
4300.766022752532
 30
0.0
 40
160.0
100
AcDbArc
 50
180.0
 51
270.0
  0
LINE
  5
1813
330
1F
100
AcDbEntity
  8
0
100
AcDbLine
 10
8539.786691537919
 20
5275.766022752533
 30
0.0
 11
8539.786691537926
 21
4300.766022752535
 31
0.0
  0
ARC
  5
1814
330
1F
100
AcDbEntity
  8
0
100
AcDbCircle
 10
8379.786691537928
 20
4300.766022752535
 30
0.0
 40
160.0
100
AcDbArc
 50
270.0
 51
0.0
  0
LINE
  5
1815
330
1F
100
AcDbEntity
  8
0
100
AcDbLine
 10
6429.78669153791
 20
4140.766022752533
 30
0.0
 11
7404.980193850753
 21
4140.766022752533
 31
0.0
  0
LINE
  5
1816
330
1F
100
AcDbEntity
  8
0
100
AcDbLine
 10
8779.786691537923
 20
3740.766022752533
 30
0.0
 11
6029.786691537914
 21
3740.766022752533
 31
0.0
  0
ARC
  5
1817
330
1F
100
AcDbEntity
  8
0
100
AcDbCircle
 10
8779.786691537923
 20
3900.766022752533
 30
0.0
 40
160.0
100
AcDbArc
 50
270.0
 51
0.0
  0
LINE
  5
1818
330
1F
100
AcDbEntity
  8
0
100
AcDbLine
 10
5869.786691537914
 20
3900.766022752533
 30
0.0
 11
5869.786691537914
 21
5275.766022752534
 31
0.0
  0
ARC
  5
1819
330
1F
100
AcDbEntity
  8
0
100
AcDbCircle
 10
6029.786691537914
 20
3900.766022752533
 30
0.0
 40
160.0
100
AcDbArc
 50
180.0
 51
270.0
  0
LINE
  5
181A
330
1F
100
AcDbEntity
  8
0
100
AcDbLine
 10
8939.786691537923
 20
5275.766022752534
 30
0.0
 11
8939.786691537923
 21
3900.766022752533
 31
0.0
  0
LINE
  5
181B
330
1F
100
AcDbEntity
  8
0
100
AcDbLine
 10
5404.786720603588
 20
3275.76605181821
 30
0.0
 11
5004.786720603618
 21
2875.766051818238
 31
0.0
  0
LINE
  5
181C
330
1F
100
AcDbEntity
  8
0
100
AcDbLine
 10
5004.786720603618
 20
3035.766051818237
 30
0.0
 11
5004.786720603615
 21
5275.766022752533
 31
0.0
  0
ARC
  5
181D
330
1F
100
AcDbEntity
  8
0
100
AcDbCircle
 10
5164.786720603618
 20
3035.766051818237
 30
0.0
 40
160.0
100
AcDbArc
 50
180.0
 51
270.0
  0
LINE
  5
181E
330
1F
100
AcDbEntity
  8
0
100
AcDbLine
 10
9404.786662472238
 20
3275.766051818222
 30
0.0
 11
9832.702670974956
 21
2847.850043315505
 31
0.0
  0
LINE
  5
181F
330
1F
100
AcDbEntity
  8
0
100
AcDbLine
 10
5164.786720603618
 20
2875.766051818238
 30
0.0
 11
9644.78666247222
 21
2875.766051818235
 31
0.0
  0
ARC
  5
1820
330
1F
100
AcDbEntity
  8
0
100
AcDbCircle
 10
9644.78666247222
 20
3035.766051818236
 30
0.0
 40
160.0
100
AcDbArc
 50
270.0
 51
0.0
  0
LINE
  5
1821
330
1F
100
AcDbEntity
  8
0
100
AcDbLine
 10
9804.786662472219
 20
5275.766022752531
 30
0.0
 11
9804.786662472219
 21
3035.766051818236
 31
0.0
  0
LINE
  5
1822
330
1F
100
AcDbEntity
  8
0
100
AcDbLine
 10
5004.786720603618
 20
2875.766051818238
 30
0.0
 11
4605.402259615686
 21
2476.3815908303
 31
0.0
  0
LINE
  5
1823
330
1F
100
AcDbEntity
  8
0
100
AcDbLine
 10
10204.17112346016
 20
2476.381590830301
 30
0.0
 11
9804.786662472224
 21
2875.766051818238
 31
0.0
  0
LINE
  5
1824
330
1F
100
AcDbEntity
  8
0
100
AcDbLine
 10
7461.355234032833
 20
5219.197480257612
 30
0.0
 11
8539.786691537925
 21
4464.093354708616
 31
0.0
  0
LINE
  5
1825
330
1F
100
AcDbEntity
  8
0
100
AcDbLine
 10
7324.786691537903
 20
5275.766022752522
 30
0.0
 11
6028.281247213524
 21
5047.139073783415
 31
0.0
  0
LINE
  5
1826
330
1F
100
AcDbEntity
  8
0
100
AcDbLine
 10
7348.218149042984
 20
5219.197480257603
 30
0.0
 11
6593.114023493986
 21
4140.766022752511
 31
0.0
  0
LINE
  5
1827
330
1F
100
AcDbEntity
  8
0
100
AcDbLine
 10
7404.786691537913
 20
5195.766022752529
 30
0.0
 11
7633.413640507021
 21
3899.260578428155
 31
0.0
  0
LINE
  5
1828
330
1F
100
AcDbEntity
  8
0
100
AcDbLine
 10
6028.281247213524
 20
5047.139073783415
 30
0.0
 11
5869.78669153791
 21
5019.189999715921
 31
0.0
  0
LINE
  5
1829
330
1F
100
AcDbEntity
  8
0
100
AcDbLine
 10
6593.114023493986
 20
4140.766022752511
 30
0.0
 11
6313.039060808508
 21
3740.766022752533
 31
0.0
  0
LINE
  5
182A
330
1F
100
AcDbEntity
  8
0
100
AcDbLine
 10
7633.413640507021
 20
3899.260578428155
 30
0.0
 11
7661.362714574517
 21
3740.766022752533
 31
0.0
  0
LINE
  5
182B
330
1F
100
AcDbEntity
  8
0
100
AcDbLine
 10
8539.786691537925
 20
4464.093354708616
 30
0.0
 11
8939.786691537923
 21
4184.018392023125
 31
0.0
  0
LINE
  5
182C
330
1F
100
AcDbEntity
  8
Widoczne (ISO)
100
AcDbLine
 10
6307.223706191785
 20
3753.492975012304
 30
0.0
 11
6307.257241691511
 21
3772.913607454538
 31
0.0
  0
LINE
  5
182D
330
1F
100
AcDbEntity
  8
Widoczne (ISO)
100
AcDbLine
 10
6339.223658482621
 20
3753.437717574401
 30
0.0
 11
6339.257193982344
 21
3772.858350016631
 31
0.0
  0
LINE
  5
182E
330
1F
100
AcDbEntity
  8
Widoczne (ISO)
100
AcDbLine
 10
6351.177547202945
 20
3726.72400597652
 30
0.0
 11
6295.177630693984
 21
3726.82070649285
 31
0.0
  0
LINE
  5
182F
330
1F
100
AcDbEntity
  8
Widoczne (ISO)
100
AcDbLine
 10
6295.16846664482
 20
3721.513744260686
 30
0.0
 11
6351.168383153779
 21
3721.417043744353
 31
0.0
  0
ELLIPSE
  5
1830
330
1F
100
AcDbEntity
  8
Widoczne (ISO)
100
AcDbEllipse
 10
6295.181092819571
 20
3728.825646601587
 30
0.0
 11
-2.999995527265615
 21
0.0051803848035238
 31
0.0
210
0.0
220
0.0
230
1.0
 40
0.6683143659758094
 41
0.0
 42
1.570796326794899
  0
LINE
  5
1831
330
1F
100
AcDbEntity
  8
Widoczne (ISO)
100
AcDbLine
 10
6292.173651502359
 20
3724.518920172755
 30
0.0
 11
6292.181097292303
 21
3728.830826986388
 31
0.0
  0
ARC
  5
1832
330
1F
100
AcDbEntity
  8
Widoczne (ISO)
100
AcDbCircle
 10
6295.173647029624
 20
3724.513739787951
 30
0.0
 40
3.000000000000079
100
AcDbArc
 50
179.9010618889611
 51
269.9010618890653
  0
ARC
  5
1833
330
1F
100
AcDbEntity
  8
Widoczne (ISO)
100
AcDbCircle
 10
6351.173563538586
 20
3724.417039271618
 30
0.0
 40
3.000000000000078
100
AcDbArc
 50
269.9010618890653
 51
359.9010618889611
  0
ELLIPSE
  5
1834
330
1F
100
AcDbEntity
  8
Widoczne (ISO)
100
AcDbEllipse
 10
6295.181092819571
 20
3728.825646601587
 30
0.0
 11
-2.999995527265617
 21
0.0051803848035245
 31
0.0
210
0.0
220
0.0
230
1.0
 40
0.6683143659758172
 41
0.0000000000000067
 42
1.570796326794899
  0
LINE
  5
1835
330
1F
100
AcDbEntity
  8
Widoczne (ISO)
100
AcDbLine
 10
6354.218455734147
 20
3750.411820123121
 30
0.0
 11
6354.181004855793
 21
3728.723765700451
 31
0.0
  0
LINE
  5
1836
330
1F
100
AcDbEntity
  8
Widoczne (ISO)
100
AcDbLine
 10
6292.181097292306
 20
3728.830826986391
 30
0.0
 11
6292.218548170655
 21
3750.518881409057
 31
0.0
  0
SPLINE
  5
1837
330
1F
100
AcDbEntity
  8
Widoczne (ISO)
100
AcDbSpline
210
0.0
220
0.0
230
1.0
 70
     8
 71
     3
 72
    26
 73
    22
 74
     0
 42
0.0000000001
 43
0.0000000001
 40
3.141592653589794
 40
3.141592653589794
 40
3.141592653589794
 40
3.141592653589794
 40
3.423445136380704
 40
3.423445136380704
 40
3.716624680336462
 40
3.716624680336462
 40
4.033735774154033
 40
4.033735774154033
 40
4.368502129829808
 40
4.368502129829808
 40
4.709082690707942
 40
4.709082690707942
 40
5.050454257127871
 40
5.050454257127871
 40
5.391071219074971
 40
5.391071219074971
 40
5.725836605839336
 40
5.725836605839336
 40
6.041567312063408
 40
6.041567312063408
 40
6.283185307179585
 40
6.283185307179585
 40
6.283185307179585
 40
6.283185307179585
 10
6339.257193982348
 20
3772.858350016635
 30
0.0
 10
6339.259417127557
 20
3774.145788292796
 30
0.0
 10
6339.013414929414
 20
3775.431667594944
 30
0.0
 10
6338.060673342415
 20
3777.891808240084
 30
0.0
 10
6337.339065922654
 20
3779.058769957311
 30
0.0
 10
6335.469430422549
 20
3781.21223468496
 30
0.0
 10
6334.292406092345
 20
3782.178231167275
 30
0.0
 10
6331.591674852309
 20
3783.80472398714
 30
0.0
 10
6330.051602712909
 20
3784.446046795029
 30
0.0
 10
6326.786539201414
 20
3785.321884571581
 30
0.0
 10
6325.058639306103
 20
3785.548998561246
 30
0.0
 10
6321.596258657986
 20
3785.563493137745
 30
0.0
 10
6319.862009556455
 20
3785.349844218766
 30
0.0
 10
6316.556342836303
 20
3784.491444632963
 30
0.0
 10
6314.984420173548
 20
3783.847774746078
 30
0.0
 10
6312.180558345325
 20
3782.172240836735
 30
0.0
 10
6310.942414286806
 20
3781.146195014247
 30
0.0
 10
6308.989275174257
 20
3778.823235155188
 30
0.0
 10
6308.250005148992
 20
3777.542495510595
 30
0.0
 10
6307.442720564156
 20
3775.119654262685
 30
0.0
 10
6307.259147482383
 20
3774.017263707774
 30
0.0
 10
6307.257241691514
 20
3772.913607454538
 30
0.0
  0
ARC
  5
1838
330
1F
100
AcDbEntity
  8
Widoczne (ISO)
100
AcDbCircle
 10
6351.218460206882
 20
3750.41700050792
 30
0.0
 40
3.000000000000082
100
AcDbArc
 50
359.9010618889611
 51
89.9010618890653
  0
LINE
  5
1839
330
1F
100
AcDbEntity
  8
Widoczne (ISO)
100
AcDbLine
 10
6295.177630693988
 20
3726.820706492854
 30
0.0
 11
6351.177547202945
 21
3726.72400597652
 31
0.0
  0
ELLIPSE
  5
183A
330
1F
100
AcDbEntity
  8
Widoczne (ISO)
100
AcDbEllipse
 10
6323.196053618254
 20
3737.46537014794
 30
0.0
 11
14.58789723450887
 21
-14.63836507145654
 31
0.0
210
0.0
220
0.0
230
1.0
 40
0.4458865642531584
 41
1.990224255978878
 42
2.722164724406109
  0
ELLIPSE
  5
183B
330
1F
100
AcDbEntity
  8
Widoczne (ISO)
100
AcDbEllipse
 10
6323.196053618254
 20
3737.46537014794
 30
0.0
 11
14.63836507145713
 21
14.58789723450827
 31
0.0
210
0.0
220
0.0
230
1.0
 40
0.4458865642531572
 41
0.4194279291845593
 42
1.151368397611416
  0
LINE
  5
183C
330
1F
100
AcDbEntity
  8
Widoczne (ISO)
100
AcDbLine
 10
6351.223640591686
 20
3753.41699603519
 30
0.0
 11
6333.916696250458
 21
3753.446881623567
 31
0.0
  0
LINE
  5
183D
330
1F
100
AcDbEntity
  8
Widoczne (ISO)
100
AcDbLine
 10
6312.530668423953
 20
3753.483810963145
 30
0.0
 11
6295.223724082728
 21
3753.513696551519
 31
0.0
  0
LINE
  5
183E
330
1F
100
AcDbEntity
  8
Widoczne (ISO)
100
AcDbLine
 10
6339.223658482621
 20
3753.437717574401
 30
0.0
 11
6339.257193982348
 21
3772.858350016635
 31
0.0
  0
LINE
  5
183F
330
1F
100
AcDbEntity
  8
Widoczne (ISO)
100
AcDbLine
 10
6307.223706191789
 20
3753.492975012308
 30
0.0
 11
6307.257241691514
 21
3772.913607454538
 31
0.0
  0
LINE
  5
1840
330
1F
100
AcDbEntity
  8
Widoczne (ISO)
100
AcDbLine
 10
7640.742187388446
 20
3760.473807452136
 30
0.0
 11
7640.775722888172
 21
3779.89443989437
 31
0.0
  0
LINE
  5
1841
330
1F
100
AcDbEntity
  8
Widoczne (ISO)
100
AcDbLine
 10
7672.742139679282
 20
3760.418550014233
 30
0.0
 11
7672.775675179005
 21
3779.839182456463
 31
0.0
  0
LINE
  5
1842
330
1F
100
AcDbEntity
  8
Widoczne (ISO)
100
AcDbLine
 10
7684.696028399605
 20
3733.704838416353
 30
0.0
 11
7628.696111890644
 21
3733.801538932682
 31
0.0
  0
LINE
  5
1843
330
1F
100
AcDbEntity
  8
Widoczne (ISO)
100
AcDbLine
 10
7628.686947841481
 20
3728.494576700518
 30
0.0
 11
7684.686864350439
 21
3728.397876184186
 31
0.0
  0
ELLIPSE
  5
1844
330
1F
100
AcDbEntity
  8
Widoczne (ISO)
100
AcDbEllipse
 10
7628.699574016232
 20
3735.80647904142
 30
0.0
 11
-2.999995527265615
 21
0.0051803848035238
 31
0.0
210
0.0
220
0.0
230
1.0
 40
0.6683143659758094
 41
0.0
 42
1.570796326794899
  0
LINE
  5
1845
330
1F
100
AcDbEntity
  8
Widoczne (ISO)
100
AcDbLine
 10
7625.692132699021
 20
3731.499752612587
 30
0.0
 11
7625.699578488964
 21
3735.81165942622
 31
0.0
  0
ARC
  5
1846
330
1F
100
AcDbEntity
  8
Widoczne (ISO)
100
AcDbCircle
 10
7628.692128226285
 20
3731.494572227783
 30
0.0
 40
3.000000000000079
100
AcDbArc
 50
179.9010618889611
 51
269.9010618890653
  0
ARC
  5
1847
330
1F
100
AcDbEntity
  8
Widoczne (ISO)
100
AcDbCircle
 10
7684.692044735247
 20
3731.397871711451
 30
0.0
 40
3.000000000000078
100
AcDbArc
 50
269.9010618890653
 51
359.9010618889611
  0
ELLIPSE
  5
1848
330
1F
100
AcDbEntity
  8
Widoczne (ISO)
100
AcDbEllipse
 10
7628.699574016232
 20
3735.80647904142
 30
0.0
 11
-2.999995527265617
 21
0.0051803848035245
 31
0.0
210
0.0
220
0.0
230
1.0
 40
0.6683143659758172
 41
0.0000000000000067
 42
1.570796326794899
  0
LINE
  5
1849
330
1F
100
AcDbEntity
  8
Widoczne (ISO)
100
AcDbLine
 10
7687.736936930808
 20
3757.392652562953
 30
0.0
 11
7687.699486052455
 21
3735.704598140284
 31
0.0
  0
LINE
  5
184A
330
1F
100
AcDbEntity
  8
Widoczne (ISO)
100
AcDbLine
 10
7625.699578488966
 20
3735.811659426224
 30
0.0
 11
7625.737029367316
 21
3757.49971384889
 31
0.0
  0
SPLINE
  5
184B
330
1F
100
AcDbEntity
  8
Widoczne (ISO)
100
AcDbSpline
210
0.0
220
0.0
230
1.0
 70
     8
 71
     3
 72
    26
 73
    22
 74
     0
 42
0.0000000001
 43
0.0000000001
 40
3.141592653589794
 40
3.141592653589794
 40
3.141592653589794
 40
3.141592653589794
 40
3.423445136380704
 40
3.423445136380704
 40
3.716624680336462
 40
3.716624680336462
 40
4.033735774154033
 40
4.033735774154033
 40
4.368502129829808
 40
4.368502129829808
 40
4.709082690707942
 40
4.709082690707942
 40
5.050454257127871
 40
5.050454257127871
 40
5.391071219074971
 40
5.391071219074971
 40
5.725836605839336
 40
5.725836605839336
 40
6.041567312063408
 40
6.041567312063408
 40
6.283185307179585
 40
6.283185307179585
 40
6.283185307179585
 40
6.283185307179585
 10
7672.775675179008
 20
3779.839182456467
 30
0.0
 10
7672.777898324217
 20
3781.126620732629
 30
0.0
 10
7672.531896126075
 20
3782.412500034777
 30
0.0
 10
7671.579154539076
 20
3784.872640679918
 30
0.0
 10
7670.857547119315
 20
3786.039602397143
 30
0.0
 10
7668.98791161921
 20
3788.193067124793
 30
0.0
 10
7667.810887289005
 20
3789.159063607108
 30
0.0
 10
7665.110156048971
 20
3790.785556426973
 30
0.0
 10
7663.57008390957
 20
3791.426879234862
 30
0.0
 10
7660.305020398076
 20
3792.302717011414
 30
0.0
 10
7658.577120502764
 20
3792.529831001079
 30
0.0
 10
7655.114739854646
 20
3792.544325577579
 30
0.0
 10
7653.380490753116
 20
3792.330676658599
 30
0.0
 10
7650.074824032964
 20
3791.472277072795
 30
0.0
 10
7648.502901370209
 20
3790.82860718591
 30
0.0
 10
7645.699039541987
 20
3789.153073276567
 30
0.0
 10
7644.460895483466
 20
3788.12702745408
 30
0.0
 10
7642.507756370918
 20
3785.804067595021
 30
0.0
 10
7641.768486345653
 20
3784.523327950427
 30
0.0
 10
7640.961201760816
 20
3782.100486702518
 30
0.0
 10
7640.777628679043
 20
3780.998096147606
 30
0.0
 10
7640.775722888176
 20
3779.89443989437
 30
0.0
  0
ARC
  5
184C
330
1F
100
AcDbEntity
  8
Widoczne (ISO)
100
AcDbCircle
 10
7684.736941403542
 20
3757.397832947753
 30
0.0
 40
3.000000000000082
100
AcDbArc
 50
359.9010618889611
 51
89.9010618890653
  0
LINE
  5
184D
330
1F
100
AcDbEntity
  8
Widoczne (ISO)
100
AcDbLine
 10
7628.696111890649
 20
3733.801538932686
 30
0.0
 11
7684.696028399605
 21
3733.704838416353
 31
0.0
  0
ELLIPSE
  5
184E
330
1F
100
AcDbEntity
  8
Widoczne (ISO)
100
AcDbEllipse
 10
7656.714534814914
 20
3744.446202587772
 30
0.0
 11
14.58789723450887
 21
-14.63836507145654
 31
0.0
210
0.0
220
0.0
230
1.0
 40
0.4458865642531584
 41
1.990224255978878
 42
2.722164724406109
  0
ELLIPSE
  5
184F
330
1F
100
AcDbEntity
  8
Widoczne (ISO)
100
AcDbEllipse
 10
7656.714534814914
 20
3744.446202587772
 30
0.0
 11
14.63836507145713
 21
14.58789723450827
 31
0.0
210
0.0
220
0.0
230
1.0
 40
0.4458865642531572
 41
0.4194279291845593
 42
1.151368397611416
  0
LINE
  5
1850
330
1F
100
AcDbEntity
  8
Widoczne (ISO)
100
AcDbLine
 10
7684.742121788346
 20
3760.397828475022
 30
0.0
 11
7667.435177447119
 21
3760.4277140634
 31
0.0
  0
LINE
  5
1851
330
1F
100
AcDbEntity
  8
Widoczne (ISO)
100
AcDbLine
 10
7646.049149620613
 20
3760.464643402978
 30
0.0
 11
7628.742205279388
 21
3760.494528991352
 31
0.0
  0
LINE
  5
1852
330
1F
100
AcDbEntity
  8
Widoczne (ISO)
100
AcDbLine
 10
7672.742139679282
 20
3760.418550014233
 30
0.0
 11
7672.775675179008
 21
3779.839182456467
 31
0.0
  0
LINE
  5
1853
330
1F
100
AcDbEntity
  8
Widoczne (ISO)
100
AcDbLine
 10
7640.74218738845
 20
3760.47380745214
 30
0.0
 11
7640.775722888176
 21
3779.89443989437
 31
0.0
  0
CIRCLE
  5
1854
330
1F
100
AcDbEntity
  8
0
100
AcDbCircle
 10
9357.923747462086
 20
3322.628966828373
 30
0.0
 40
31.86153093464729
  0
CIRCLE
  5
1855
330
1F
100
AcDbEntity
  8
0
100
AcDbCircle
 10
5451.64963561374
 20
3322.628966828363
 30
0.0
 40
31.86153093464729
  0
CIRCLE
  5
1856
330
1F
100
AcDbEntity
  8
0
100
AcDbCircle
 10
5051.649635613769
 20
2922.628966828391
 30
0.0
 40
31.86153093464729
  0
CIRCLE
  5
1857
330
1F
100
AcDbEntity
  8
0
100
AcDbCircle
 10
9757.923747462072
 20
2922.628966828393
 30
0.0
 40
31.86153093464729
  0
CIRCLE
  5
1858
330
1F
100
AcDbEntity
  8
0
100
AcDbCircle
 10
5916.649606548065
 20
3787.628937762689
 30
0.0
 40
31.86153093464729
  0
CIRCLE
  5
1859
330
1F
100
AcDbEntity
  8
0
100
AcDbCircle
 10
6316.649606548061
 20
4187.628937762684
 30
0.0
 40
31.86153093464729
  0
CIRCLE
  5
185A
330
1F
100
AcDbEntity
  8
0
100
AcDbCircle
 10
8892.923776527771
 20
3787.628937762686
 30
0.0
 40
31.86153093464729
  0
CIRCLE
  5
185B
330
1F
100
AcDbEntity
  8
0
100
AcDbCircle
 10
8092.886695960043
 20
4587.666018330409
 30
0.0
 40
31.86153093464729
  0
CIRCLE
  5
185C
330
1F
100
AcDbEntity
  8
0
100
AcDbCircle
 10
8492.923776527772
 20
4187.628937762684
 30
0.0
 40
31.86153093464729
  0
CIRCLE
  5
185D
330
1F
100
AcDbEntity
  8
0
100
AcDbCircle
 10
7692.923776527769
 20
4987.628937762681
 30
0.0
 40
31.86153093464729
  0
CIRCLE
  5
185E
330
1F
100
AcDbEntity
  8
0
100
AcDbCircle
 10
7116.649606548069
 20
4987.628937762695
 30
0.0
 40
31.86153093464729
  0
CIRCLE
  5
185F
330
1F
100
AcDbEntity
  8
0
100
AcDbCircle
 10
6716.649606548099
 20
4587.628937762721
 30
0.0
 40
31.86153093464729
  0
LINE
  5
1860
330
1F
100
AcDbEntity
  8
Widoczne (ISO)
100
AcDbLine
 10
5886.809409043251
 20
5034.982530435763
 30
0.0
 11
5906.230041485485
 21
5034.948994936037
 31
0.0
  0
LINE
  5
1861
330
1F
100
AcDbEntity
  8
Widoczne (ISO)
100
AcDbLine
 10
5886.754151605347
 20
5002.982578144926
 30
0.0
 11
5906.174784047578
 21
5002.949042645204
 31
0.0
  0
LINE
  5
1862
330
1F
100
AcDbEntity
  8
Widoczne (ISO)
100
AcDbLine
 10
5860.040440007466
 20
4991.028689424602
 30
0.0
 11
5860.137140523796
 21
5047.028605933564
 31
0.0
  0
LINE
  5
1863
330
1F
100
AcDbEntity
  8
Widoczne (ISO)
100
AcDbLine
 10
5854.830178291632
 20
5047.037769982726
 30
0.0
 11
5854.733477775299
 21
4991.03785347377
 31
0.0
  0
ELLIPSE
  5
1864
330
1F
100
AcDbEntity
  8
Widoczne (ISO)
100
AcDbEllipse
 10
5862.142080632533
 20
5047.025143807977
 30
0.0
 11
0.0051803848035243
 21
2.999995527265615
 31
0.0
210
0.0
220
0.0
230
1.0
 40
0.6683143659758094
 41
0.0
 42
1.570796326794899
  0
LINE
  5
1865
330
1F
100
AcDbEntity
  8
Widoczne (ISO)
100
AcDbLine
 10
5857.835354203701
 20
5050.032585125189
 30
0.0
 11
5862.147261017334
 21
5050.025139335246
 31
0.0
  0
ARC
  5
1866
330
1F
100
AcDbEntity
  8
Widoczne (ISO)
100
AcDbCircle
 10
5857.830173818897
 20
5047.032589597923
 30
0.0
 40
3.000000000000079
100
AcDbArc
 50
89.9010618890653
 51
179.9010618890653
  0
ARC
  5
1867
330
1F
100
AcDbEntity
  8
Widoczne (ISO)
100
AcDbCircle
 10
5857.733473302564
 20
4991.032673088962
 30
0.0
 40
3.000000000000078
100
AcDbArc
 50
179.9010618890653
 51
269.9010618890653
  0
ELLIPSE
  5
1868
330
1F
100
AcDbEntity
  8
Widoczne (ISO)
100
AcDbEllipse
 10
5862.142080632533
 20
5047.025143807977
 30
0.0
 11
0.005180384803525
 21
2.999995527265617
 31
0.0
210
0.0
220
0.0
230
1.0
 40
0.6683143659758172
 41
0.0000000000000067
 42
1.570796326794899
  0
LINE
  5
1869
330
1F
100
AcDbEntity
  8
Widoczne (ISO)
100
AcDbLine
 10
5883.728254154068
 20
4987.987780893401
 30
0.0
 11
5862.040199731398
 21
4988.025231771754
 31
0.0
  0
LINE
  5
186A
330
1F
100
AcDbEntity
  8
Widoczne (ISO)
100
AcDbLine
 10
5862.147261017337
 20
5050.025139335242
 30
0.0
 11
5883.835315440004
 21
5049.987688456892
 31
0.0
  0
SPLINE
  5
186B
330
1F
100
AcDbEntity
  8
Widoczne (ISO)
100
AcDbSpline
210
0.0
220
0.0
230
1.0
 70
     8
 71
     3
 72
    26
 73
    22
 74
     0
 42
0.0000000001
 43
0.0000000001
 40
3.141592653589794
 40
3.141592653589794
 40
3.141592653589794
 40
3.141592653589794
 40
3.423445136380704
 40
3.423445136380704
 40
3.716624680336462
 40
3.716624680336462
 40
4.033735774154033
 40
4.033735774154033
 40
4.368502129829808
 40
4.368502129829808
 40
4.709082690707942
 40
4.709082690707942
 40
5.050454257127871
 40
5.050454257127871
 40
5.391071219074971
 40
5.391071219074971
 40
5.725836605839336
 40
5.725836605839336
 40
6.041567312063408
 40
6.041567312063408
 40
6.283185307179585
 40
6.283185307179585
 40
6.283185307179585
 40
6.283185307179585
 10
5906.174784047581
 20
5002.949042645201
 30
0.0
 10
5907.462222323744
 20
5002.946819499991
 30
0.0
 10
5908.74810162589
 20
5003.192821698133
 30
0.0
 10
5911.208242271031
 20
5004.145563285133
 30
0.0
 10
5912.375203988258
 20
5004.867170704893
 30
0.0
 10
5914.528668715907
 20
5006.736806204997
 30
0.0
 10
5915.494665198222
 20
5007.913830535204
 30
0.0
 10
5917.121158018087
 20
5010.614561775238
 30
0.0
 10
5917.762480825977
 20
5012.154633914638
 30
0.0
 10
5918.638318602528
 20
5015.419697426133
 30
0.0
 10
5918.865432592194
 20
5017.147597321445
 30
0.0
 10
5918.879927168692
 20
5020.609977969563
 30
0.0
 10
5918.666278249713
 20
5022.344227071092
 30
0.0
 10
5917.80787866391
 20
5025.649893791245
 30
0.0
 10
5917.164208777024
 20
5027.221816454
 30
0.0
 10
5915.488674867681
 20
5030.025678282222
 30
0.0
 10
5914.462629045193
 20
5031.263822340742
 30
0.0
 10
5912.139669186135
 20
5033.216961453291
 30
0.0
 10
5910.858929541541
 20
5033.956231478555
 30
0.0
 10
5908.436088293631
 20
5034.763516063392
 30
0.0
 10
5907.33369773872
 20
5034.947089145164
 30
0.0
 10
5906.230041485485
 20
5034.948994936033
 30
0.0
  0
ARC
  5
186C
330
1F
100
AcDbEntity
  8
Widoczne (ISO)
100
AcDbCircle
 10
5883.733434538868
 20
4990.987776420666
 30
0.0
 40
3.000000000000082
100
AcDbArc
 50
269.9010618890653
 51
359.9010618890653
  0
LINE
  5
186D
330
1F
100
AcDbEntity
  8
Widoczne (ISO)
100
AcDbLine
 10
5860.1371405238
 20
5047.028605933561
 30
0.0
 11
5860.040440007466
 21
4991.028689424602
 31
0.0
  0
ELLIPSE
  5
186E
330
1F
100
AcDbEntity
  8
Widoczne (ISO)
100
AcDbEllipse
 10
5870.781804178886
 20
5019.010183009294
 30
0.0
 11
-14.63836507145655
 21
-14.58789723450886
 31
0.0
210
0.0
220
0.0
230
1.0
 40
0.4458865642531584
 41
1.990224255978878
 42
2.722164724406109
  0
ELLIPSE
  5
186F
330
1F
100
AcDbEntity
  8
Widoczne (ISO)
100
AcDbEllipse
 10
5870.781804178886
 20
5019.010183009294
 30
0.0
 11
14.58789723450827
 21
-14.63836507145714
 31
0.0
210
0.0
220
0.0
230
1.0
 40
0.4458865642531572
 41
0.4194279291845593
 42
1.151368397611416
  0
LINE
  5
1870
330
1F
100
AcDbEntity
  8
Widoczne (ISO)
100
AcDbLine
 10
5886.733430066136
 20
4990.982596035863
 30
0.0
 11
5886.763315654514
 21
5008.28954037709
 31
0.0
  0
LINE
  5
1871
330
1F
100
AcDbEntity
  8
Widoczne (ISO)
100
AcDbLine
 10
5886.800244994091
 20
5029.675568203596
 30
0.0
 11
5886.830130582465
 21
5046.982512544819
 31
0.0
  0
LINE
  5
1872
330
1F
100
AcDbEntity
  8
Widoczne (ISO)
100
AcDbLine
 10
5886.754151605347
 20
5002.982578144926
 30
0.0
 11
5906.174784047581
 21
5002.949042645201
 31
0.0
  0
LINE
  5
1873
330
1F
100
AcDbEntity
  8
Widoczne (ISO)
100
AcDbLine
 10
5886.809409043254
 20
5034.982530435759
 30
0.0
 11
5906.230041485485
 21
5034.948994936033
 31
0.0
  0
LINE
  5
1874
330
1F
100
AcDbEntity
  8
Widoczne (ISO)
100
AcDbLine
 10
8924.816055660507
 20
4171.123232922438
 30
0.0
 11
8905.395423218273
 21
4171.156768422163
 31
0.0
  0
LINE
  5
1875
330
1F
100
AcDbEntity
  8
Widoczne (ISO)
100
AcDbLine
 10
8924.871313098412
 20
4203.123185213274
 30
0.0
 11
8905.45068065618
 21
4203.156720712996
 31
0.0
  0
LINE
  5
1876
330
1F
100
AcDbEntity
  8
Widoczne (ISO)
100
AcDbLine
 10
8951.58502469629
 20
4215.077073933597
 30
0.0
 11
8951.488324179962
 21
4159.077157424636
 31
0.0
  0
LINE
  5
1877
330
1F
100
AcDbEntity
  8
Widoczne (ISO)
100
AcDbLine
 10
8956.795286412125
 20
4159.067993375473
 30
0.0
 11
8956.891986928459
 21
4215.067909884431
 31
0.0
  0
ELLIPSE
  5
1878
330
1F
100
AcDbEntity
  8
Widoczne (ISO)
100
AcDbEllipse
 10
8949.483384071223
 20
4159.080619550223
 30
0.0
 11
-0.0051803848035247
 21
-2.999995527265615
 31
0.0
210
0.0
220
0.0
230
1.0
 40
0.6683143659758094
 41
0.0
 42
1.570796326794899
  0
LINE
  5
1879
330
1F
100
AcDbEntity
  8
Widoczne (ISO)
100
AcDbLine
 10
8953.790110500056
 20
4156.073178233012
 30
0.0
 11
8949.478203686423
 21
4156.080624022955
 31
0.0
  0
ARC
  5
187A
330
1F
100
AcDbEntity
  8
Widoczne (ISO)
100
AcDbCircle
 10
8953.79529088486
 20
4159.073173760277
 30
0.0
 40
3.000000000000079
100
AcDbArc
 50
269.9010618890653
 51
359.9010618890653
  0
ARC
  5
187B
330
1F
100
AcDbEntity
  8
Widoczne (ISO)
100
AcDbCircle
 10
8953.891991401192
 20
4215.073090269238
 30
0.0
 40
3.000000000000078
100
AcDbArc
 50
359.9010618890653
 51
89.9010618890653
  0
ELLIPSE
  5
187C
330
1F
100
AcDbEntity
  8
Widoczne (ISO)
100
AcDbEllipse
 10
8949.483384071223
 20
4159.080619550223
 30
0.0
 11
-0.0051803848035254
 21
-2.999995527265617
 31
0.0
210
0.0
220
0.0
230
1.0
 40
0.6683143659758172
 41
0.0000000000000067
 42
1.570796326794899
  0
LINE
  5
187D
330
1F
100
AcDbEntity
  8
Widoczne (ISO)
100
AcDbLine
 10
8927.897210549691
 20
4218.117982464799
 30
0.0
 11
8949.585264972361
 21
4218.080531586446
 31
0.0
  0
LINE
  5
187E
330
1F
100
AcDbEntity
  8
Widoczne (ISO)
100
AcDbLine
 10
8949.478203686419
 20
4156.080624022958
 30
0.0
 11
8927.790149263755
 21
4156.118074901308
 31
0.0
  0
SPLINE
  5
187F
330
1F
100
AcDbEntity
  8
Widoczne (ISO)
100
AcDbSpline
210
0.0
220
0.0
230
1.0
 70
     8
 71
     3
 72
    26
 73
    22
 74
     0
 42
0.0000000001
 43
0.0000000001
 40
3.141592653589794
 40
3.141592653589794
 40
3.141592653589794
 40
3.141592653589794
 40
3.423445136380704
 40
3.423445136380704
 40
3.716624680336462
 40
3.716624680336462
 40
4.033735774154033
 40
4.033735774154033
 40
4.368502129829808
 40
4.368502129829808
 40
4.709082690707942
 40
4.709082690707942
 40
5.050454257127871
 40
5.050454257127871
 40
5.391071219074971
 40
5.391071219074971
 40
5.725836605839336
 40
5.725836605839336
 40
6.041567312063408
 40
6.041567312063408
 40
6.283185307179585
 40
6.283185307179585
 40
6.283185307179585
 40
6.283185307179585
 10
8905.450680656178
 20
4203.156720713
 30
0.0
 10
8904.163242380015
 20
4203.158943858209
 30
0.0
 10
8902.877363077868
 20
4202.912941660067
 30
0.0
 10
8900.417222432727
 20
4201.960200073068
 30
0.0
 10
8899.250260715501
 20
4201.238592653306
 30
0.0
 10
8897.096795987851
 20
4199.368957153202
 30
0.0
 10
8896.130799505536
 20
4198.191932822997
 30
0.0
 10
8894.504306685671
 20
4195.491201582962
 30
0.0
 10
8893.862983877781
 20
4193.951129443562
 30
0.0
 10
8892.98714610123
 20
4190.686065932067
 30
0.0
 10
8892.760032111565
 20
4188.958166036756
 30
0.0
 10
8892.745537535066
 20
4185.495785388638
 30
0.0
 10
8892.959186454046
 20
4183.761536287108
 30
0.0
 10
8893.817586039848
 20
4180.455869566955
 30
0.0
 10
8894.461255926733
 20
4178.8839469042
 30
0.0
 10
8896.136789836075
 20
4176.080085075978
 30
0.0
 10
8897.162835658564
 20
4174.841941017458
 30
0.0
 10
8899.485795517623
 20
4172.888801904909
 30
0.0
 10
8900.766535162217
 20
4172.149531879645
 30
0.0
 10
8903.189376410125
 20
4171.342247294808
 30
0.0
 10
8904.291766965037
 20
4171.158674213035
 30
0.0
 10
8905.395423218273
 20
4171.156768422167
 30
0.0
  0
ARC
  5
1880
330
1F
100
AcDbEntity
  8
Widoczne (ISO)
100
AcDbCircle
 10
8927.89203016489
 20
4215.117986937534
 30
0.0
 40
3.000000000000082
100
AcDbArc
 50
89.9010618890653
 51
179.9010618890653
  0
LINE
  5
1881
330
1F
100
AcDbEntity
  8
Widoczne (ISO)
100
AcDbLine
 10
8951.488324179958
 20
4159.07715742464
 30
0.0
 11
8951.58502469629
 21
4215.077073933597
 31
0.0
  0
ELLIPSE
  5
1882
330
1F
100
AcDbEntity
  8
Widoczne (ISO)
100
AcDbEllipse
 10
8940.843660524873
 20
4187.095580348906
 30
0.0
 11
14.63836507145655
 21
14.58789723450886
 31
0.0
210
0.0
220
0.0
230
1.0
 40
0.4458865642531584
 41
1.990224255978878
 42
2.722164724406109
  0
ELLIPSE
  5
1883
330
1F
100
AcDbEntity
  8
Widoczne (ISO)
100
AcDbEllipse
 10
8940.843660524873
 20
4187.095580348906
 30
0.0
 11
-14.58789723450827
 21
14.63836507145714
 31
0.0
210
0.0
220
0.0
230
0.9999999999999998
 40
0.4458865642531572
 41
0.4194279291845593
 42
1.151368397611416
  0
LINE
  5
1884
330
1F
100
AcDbEntity
  8
Widoczne (ISO)
100
AcDbLine
 10
8924.892034637622
 20
4215.123167322338
 30
0.0
 11
8924.862149049245
 21
4197.81622298111
 31
0.0
  0
LINE
  5
1885
330
1F
100
AcDbEntity
  8
Widoczne (ISO)
100
AcDbLine
 10
8924.825219709665
 20
4176.430195154605
 30
0.0
 11
8924.795334121292
 21
4159.12325081338
 31
0.0
  0
LINE
  5
1886
330
1F
100
AcDbEntity
  8
Widoczne (ISO)
100
AcDbLine
 10
8924.871313098412
 20
4203.123185213274
 30
0.0
 11
8905.450680656178
 21
4203.156720713
 31
0.0
  0
LINE
  5
1887
330
1F
100
AcDbEntity
  8
Widoczne (ISO)
100
AcDbLine
 10
8924.816055660505
 20
4171.123232922441
 30
0.0
 11
8905.395423218273
 21
4171.156768422167
 31
0.0
  0
ARC
  5
1888
330
1F
100
AcDbEntity
  8
0
100
AcDbCircle
 10
7404.786691537906
 20
5275.766022752533
 30
0.0
 40
80.0
100
AcDbArc
 50
0.0
 51
180.0
  0
LINE
  5
1889
330
1F
100
AcDbEntity
  8
0
100
AcDbLine
 10
7404.800330467246
 20
5355.766021589906
 30
0.0
 11
7405.127664771445
 21
7275.765993686846
 31
0.0
  0
LINE
  5
188A
330
1F
100
AcDbEntity
  8
0
100
AcDbLine
 10
7405.127664771445
 20
7275.765993686846
 30
0.0
 11
7404.80033046725
 21
5355.766021589906
 31
0.0
  0
LINE
  5
188B
330
1F
100
AcDbEntity
  8
0
100
AcDbLine
 10
9404.786662472218
 20
5275.425049518994
 30
0.0
 11
9404.786662472238
 21
7115.765993686846
 31
0.0
  0
LINE
  5
188C
330
1F
100
AcDbEntity
  8
0
100
AcDbLine
 10
9244.786662472238
 20
7275.765993686846
 30
0.0
 11
5564.786720603589
 21
7275.765993686857
 31
0.0
  0
ARC
  5
188D
330
1F
100
AcDbEntity
  8
0
100
AcDbCircle
 10
9244.786662472238
 20
7115.765993686847
 30
0.0
 40
160.0
100
AcDbArc
 50
0.0
 51
90.0
  0
LINE
  5
188E
330
1F
100
AcDbEntity
  8
0
100
AcDbLine
 10
5404.786720603588
 20
7115.765993686856
 30
0.0
 11
5404.7867206036
 21
5275.766022752533
 31
0.0
  0
ARC
  5
188F
330
1F
100
AcDbEntity
  8
0
100
AcDbCircle
 10
5564.786720603589
 20
7115.765993686856
 30
0.0
 40
160.0
100
AcDbArc
 50
90.0
 51
180.0
  0
LINE
  5
1890
330
1F
100
AcDbEntity
  8
0
100
AcDbLine
 10
7348.218149042984
 20
5332.334565247457
 30
0.0
 11
5404.786720603588
 21
7275.765993686857
 31
0.0
  0
LINE
  5
1891
330
1F
100
AcDbEntity
  8
0
100
AcDbLine
 10
9404.786662472238
 20
7275.765993686845
 30
0.0
 11
7461.355234032836
 21
5332.33456524745
 31
0.0
  0
LINE
  5
1892
330
1F
100
AcDbEntity
  8
0
100
AcDbLine
 10
7739.786691537926
 20
5275.766022752533
 30
0.0
 11
7739.786691537926
 21
5450.766022752535
 31
0.0
  0
ARC
  5
1893
330
1F
100
AcDbEntity
  8
0
100
AcDbCircle
 10
7579.786691537925
 20
5450.766022752535
 30
0.0
 40
160.0
100
AcDbArc
 50
0.0
 51
90.0
  0
LINE
  5
1894
330
1F
100
AcDbEntity
  8
0
100
AcDbLine
 10
7579.786691537925
 20
5610.766022752535
 30
0.0
 11
7229.786691537928
 21
5610.766022752533
 31
0.0
  0
ARC
  5
1895
330
1F
100
AcDbEntity
  8
0
100
AcDbCircle
 10
7229.786691537928
 20
5450.766022752532
 30
0.0
 40
160.0
100
AcDbArc
 50
90.0
 51
180.0
  0
LINE
  5
1896
330
1F
100
AcDbEntity
  8
0
100
AcDbLine
 10
7069.786691537927
 20
5450.766022752532
 30
0.0
 11
7069.786691537925
 21
5275.766022752533
 31
0.0
  0
LINE
  5
1897
330
1F
100
AcDbEntity
  8
0
100
AcDbLine
 10
7404.843804555357
 20
5610.766022752533
 30
0.0
 11
7404.843804555357
 21
6010.766022752533
 31
0.0
  0
LINE
  5
1898
330
1F
100
AcDbEntity
  8
0
100
AcDbLine
 10
7404.843804555357
 20
6010.766022752533
 30
0.0
 11
7069.786691537925
 21
6010.7660227525
 31
0.0
  0
LINE
  5
1899
330
1F
100
AcDbEntity
  8
0
100
AcDbLine
 10
7979.712542551644
 20
6010.766022752507
 30
0.0
 11
7404.843804555357
 21
6010.766022752533
 31
0.0
  0
LINE
  5
189A
330
1F
100
AcDbEntity
  8
0
100
AcDbLine
 10
6669.786691537947
 20
5275.766022752533
 30
0.0
 11
6669.786691537947
 21
5850.766022752498
 31
0.0
  0
LINE
  5
189B
330
1F
100
AcDbEntity
  8
0
100
AcDbLine
 10
7069.786691537925
 20
6010.7660227525
 30
0.0
 11
6829.786691537946
 21
6010.766022752498
 31
0.0
  0
ARC
  5
189C
330
1F
100
AcDbEntity
  8
0
100
AcDbCircle
 10
6829.786691537946
 20
5850.766022752498
 30
0.0
 40
160.0
100
AcDbArc
 50
90.0
 51
180.0
  0
LINE
  5
189D
330
1F
100
AcDbEntity
  8
0
100
AcDbLine
 10
8139.446148523116
 20
5275.766022752533
 30
0.0
 11
8139.71252537812
 21
5850.691890947723
 31
0.0
  0
ARC
  5
189E
330
1F
100
AcDbEntity
  8
0
100
AcDbCircle
 10
7979.712542551635
 20
5850.766022752508
 30
0.0
 40
160.0
100
AcDbArc
 50
359.9734535018839
 51
90.0
  0
LINE
  5
189F
330
1F
100
AcDbEntity
  8
0
100
AcDbLine
 10
7404.843804555357
 20
6010.766022752533
 30
0.0
 11
7404.843804555357
 21
6410.766022752532
 31
0.0
  0
LINE
  5
18A0
330
1F
100
AcDbEntity
  8
0
100
AcDbLine
 10
8379.786691537928
 20
6410.766022752532
 30
0.0
 11
7404.980193850753
 21
6410.766022752532
 31
0.0
  0
LINE
  5
18A1
330
1F
100
AcDbEntity
  8
0
100
AcDbLine
 10
6269.78669153791
 20
6250.766022752532
 30
0.0
 11
6269.78669153791
 21
5275.766022752533
 31
0.0
  0
ARC
  5
18A2
330
1F
100
AcDbEntity
  8
0
100
AcDbCircle
 10
6429.78669153791
 20
6250.766022752532
 30
0.0
 40
160.0
100
AcDbArc
 50
90.0
 51
180.0
  0
LINE
  5
18A3
330
1F
100
AcDbEntity
  8
0
100
AcDbLine
 10
8539.786691537919
 20
5275.766022752533
 30
0.0
 11
8539.786691537926
 21
6250.766022752531
 31
0.0
  0
ARC
  5
18A4
330
1F
100
AcDbEntity
  8
0
100
AcDbCircle
 10
8379.786691537928
 20
6250.766022752531
 30
0.0
 40
160.0
100
AcDbArc
 50
0.0
 51
90.0
  0
LINE
  5
18A5
330
1F
100
AcDbEntity
  8
0
100
AcDbLine
 10
6429.78669153791
 20
6410.766022752532
 30
0.0
 11
7404.980193850753
 21
6410.766022752532
 31
0.0
  0
LINE
  5
18A6
330
1F
100
AcDbEntity
  8
0
100
AcDbLine
 10
7404.843804555357
 20
6410.766022752532
 30
0.0
 11
7404.843804555357
 21
6810.766022752533
 31
0.0
  0
LINE
  5
18A7
330
1F
100
AcDbEntity
  8
0
100
AcDbLine
 10
8779.786691537923
 20
6810.766022752533
 30
0.0
 11
6029.786691537914
 21
6810.766022752533
 31
0.0
  0
ARC
  5
18A8
330
1F
100
AcDbEntity
  8
0
100
AcDbCircle
 10
8779.786691537923
 20
6650.766022752534
 30
0.0
 40
160.0
100
AcDbArc
 50
0.0
 51
90.0
  0
LINE
  5
18A9
330
1F
100
AcDbEntity
  8
0
100
AcDbLine
 10
5869.786691537914
 20
6650.766022752534
 30
0.0
 11
5869.786691537914
 21
5275.766022752531
 31
0.0
  0
ARC
  5
18AA
330
1F
100
AcDbEntity
  8
0
100
AcDbCircle
 10
6029.786691537914
 20
6650.766022752534
 30
0.0
 40
160.0
100
AcDbArc
 50
90.0
 51
180.0
  0
LINE
  5
18AB
330
1F
100
AcDbEntity
  8
0
100
AcDbLine
 10
8939.786691537923
 20
5275.766022752531
 30
0.0
 11
8939.786691537923
 21
6650.766022752534
 31
0.0
  0
LINE
  5
18AC
330
1F
100
AcDbEntity
  8
0
100
AcDbLine
 10
5404.786720603588
 20
7275.765993686857
 30
0.0
 11
5004.786720603618
 21
7675.765993686829
 31
0.0
  0
LINE
  5
18AD
330
1F
100
AcDbEntity
  8
0
100
AcDbLine
 10
5004.786720603618
 20
7515.765993686828
 30
0.0
 11
5004.786720603615
 21
5275.766022752533
 31
0.0
  0
ARC
  5
18AE
330
1F
100
AcDbEntity
  8
0
100
AcDbCircle
 10
5164.786720603618
 20
7515.765993686828
 30
0.0
 40
160.0
100
AcDbArc
 50
90.0
 51
180.0
  0
LINE
  5
18AF
330
1F
100
AcDbEntity
  8
0
100
AcDbLine
 10
9404.786662472238
 20
7275.765993686845
 30
0.0
 11
9832.702670974956
 21
7703.682002189561
 31
0.0
  0
LINE
  5
18B0
330
1F
100
AcDbEntity
  8
0
100
AcDbLine
 10
5164.786720603618
 20
7675.765993686829
 30
0.0
 11
9644.78666247222
 21
7675.76599368683
 31
0.0
  0
ARC
  5
18B1
330
1F
100
AcDbEntity
  8
0
100
AcDbCircle
 10
9644.78666247222
 20
7515.76599368683
 30
0.0
 40
160.0
100
AcDbArc
 50
0.0
 51
90.0
  0
LINE
  5
18B2
330
1F
100
AcDbEntity
  8
0
100
AcDbLine
 10
9804.786662472219
 20
5275.766022752534
 30
0.0
 11
9804.786662472219
 21
7515.76599368683
 31
0.0
  0
LINE
  5
18B3
330
1F
100
AcDbEntity
  8
0
100
AcDbLine
 10
5004.786720603618
 20
7675.765993686829
 30
0.0
 11
4605.402259615687
 21
8075.150454674767
 31
0.0
  0
LINE
  5
18B4
330
1F
100
AcDbEntity
  8
0
100
AcDbLine
 10
10204.17112346016
 20
8075.150454674762
 30
0.0
 11
9804.786662472224
 21
7675.765993686829
 31
0.0
  0
CIRCLE
  5
18B5
330
1F
100
AcDbEntity
  8
0
100
AcDbCircle
 10
9357.923747462086
 20
7228.903078676693
 30
0.0
 40
31.86153093464729
  0
CIRCLE
  5
18B6
330
1F
100
AcDbEntity
  8
0
100
AcDbCircle
 10
5451.64963561374
 20
7228.903078676703
 30
0.0
 40
31.86153093464729
  0
CIRCLE
  5
18B7
330
1F
100
AcDbEntity
  8
0
100
AcDbCircle
 10
5051.649635613769
 20
7628.903078676676
 30
0.0
 40
31.86153093464729
  0
CIRCLE
  5
18B8
330
1F
100
AcDbEntity
  8
0
100
AcDbCircle
 10
9757.923747462072
 20
7628.903078676673
 30
0.0
 40
31.86153093464729
  0
CIRCLE
  5
18B9
330
1F
100
AcDbEntity
  8
0
100
AcDbCircle
 10
5916.649606548065
 20
6763.903107742378
 30
0.0
 40
31.86153093464729
  0
CIRCLE
  5
18BA
330
1F
100
AcDbEntity
  8
0
100
AcDbCircle
 10
6316.649606548061
 20
6363.903107742381
 30
0.0
 40
31.86153093464729
  0
CIRCLE
  5
18BB
330
1F
100
AcDbEntity
  8
0
100
AcDbCircle
 10
8892.923776527771
 20
6763.903107742379
 30
0.0
 40
31.86153093464729
  0
CIRCLE
  5
18BC
330
1F
100
AcDbEntity
  8
0
100
AcDbCircle
 10
8092.886695960043
 20
5963.866027174656
 30
0.0
 40
31.86153093464729
  0
CIRCLE
  5
18BD
330
1F
100
AcDbEntity
  8
0
100
AcDbCircle
 10
8492.923776527772
 20
6363.903107742381
 30
0.0
 40
31.86153093464729
  0
CIRCLE
  5
18BE
330
1F
100
AcDbEntity
  8
0
100
AcDbCircle
 10
7692.923776527769
 20
5563.903107742385
 30
0.0
 40
31.86153093464729
  0
CIRCLE
  5
18BF
330
1F
100
AcDbEntity
  8
0
100
AcDbCircle
 10
7116.649606548069
 20
5563.903107742371
 30
0.0
 40
31.86153093464729
  0
CIRCLE
  5
18C0
330
1F
100
AcDbEntity
  8
0
100
AcDbCircle
 10
6716.649606548099
 20
5963.903107742345
 30
0.0
 40
31.86153093464729
  0
LINE
  5
18C1
330
1F
100
AcDbEntity
  8
0
100
AcDbLine
 10
5404.7867206036
 20
5275.766022752533
 30
0.0
 11
5004.786720603615
 21
5275.766022752533
 31
0.0
  0
LINE
  5
18C2
330
1F
100
AcDbEntity
  8
0
100
AcDbLine
 10
9404.786662472218
 20
5275.425049518994
 30
0.0
 11
9804.786662472219
 21
5275.766022752534
 31
0.0
  0
LINE
  5
18C3
330
1F
100
AcDbEntity
  8
0
100
AcDbLine
 10
7405.127664771445
 20
7675.765993686829
 30
0.0
 11
7405.127664771445
 21
7275.76599368685
 31
0.0
  0
LINE
  5
18C4
330
1F
100
AcDbEntity
  8
0
100
AcDbLine
 10
7405.127664771445
 20
2875.766051818238
 30
0.0
 11
7405.127664771445
 21
3275.766051818216
 31
0.0
  0
LINE
  5
18C5
330
1F
100
AcDbEntity
  8
Widoczne (ISO)
100
AcDbLine
 10
7386.120134102341
 20
7663.410377027037
 30
0.0
 11
7386.153669602068
 21
7643.989744584803
 31
0.0
  0
LINE
  5
18C6
330
1F
100
AcDbEntity
  8
Widoczne (ISO)
100
AcDbLine
 10
7418.120086393177
 20
7663.46563446494
 30
0.0
 11
7418.153621892901
 21
7644.045002022711
 31
0.0
  0
LINE
  5
18C7
330
1F
100
AcDbEntity
  8
Widoczne (ISO)
100
AcDbLine
 10
7430.073975113501
 20
7690.179346062821
 30
0.0
 11
7374.074058604541
 21
7690.082645546491
 31
0.0
  0
LINE
  5
18C8
330
1F
100
AcDbEntity
  8
Widoczne (ISO)
100
AcDbLine
 10
7374.064894555377
 20
7695.389607778655
 30
0.0
 11
7430.064811064335
 21
7695.486308294988
 31
0.0
  0
ELLIPSE
  5
18C9
330
1F
100
AcDbEntity
  8
Widoczne (ISO)
100
AcDbEllipse
 10
7374.077520730129
 20
7688.077705437753
 30
0.0
 11
-2.999995527265615
 21
-0.0051803848035238
 31
0.0
210
0.0
220
0.0
230
-1.0
 40
0.6683143659758094
 41
0.0
 42
1.570796326794899
  0
LINE
  5
18CA
330
1F
100
AcDbEntity
  8
Widoczne (ISO)
100
AcDbLine
 10
7371.070079412916
 20
7692.384431866585
 30
0.0
 11
7371.07752520286
 21
7688.072525052954
 31
0.0
  0
ARC
  5
18CB
330
1F
100
AcDbEntity
  8
Widoczne (ISO)
100
AcDbCircle
 10
7374.070074940181
 20
7692.389612251389
 30
0.0
 40
3.000000000000079
100
AcDbArc
 50
90.09893811093469
 51
180.0989381109347
  0
ARC
  5
18CC
330
1F
100
AcDbEntity
  8
Widoczne (ISO)
100
AcDbCircle
 10
7430.069991449143
 20
7692.486312767723
 30
0.0
 40
3.000000000000078
100
AcDbArc
 50
0.0989381109346984
 51
90.09893811093469
  0
ELLIPSE
  5
18CD
330
1F
100
AcDbEntity
  8
Widoczne (ISO)
100
AcDbEllipse
 10
7374.077520730129
 20
7688.077705437753
 30
0.0
 11
-2.999995527265617
 21
-0.0051803848035245
 31
0.0
210
0.0
220
0.0
230
-1.0
 40
0.6683143659758172
 41
0.0000000000000067
 42
1.570796326794899
  0
LINE
  5
18CE
330
1F
100
AcDbEntity
  8
Widoczne (ISO)
100
AcDbLine
 10
7433.114883644704
 20
7666.491531916221
 30
0.0
 11
7433.07743276635
 21
7688.17958633889
 31
0.0
  0
LINE
  5
18CF
330
1F
100
AcDbEntity
  8
Widoczne (ISO)
100
AcDbLine
 10
7371.077525202863
 20
7688.072525052949
 30
0.0
 11
7371.114976081212
 21
7666.384470630283
 31
0.0
  0
SPLINE
  5
18D0
330
1F
100
AcDbEntity
  8
Widoczne (ISO)
100
AcDbSpline
210
0.0
220
0.0
230
1.0
 70
     8
 71
     3
 72
    26
 73
    22
 74
     0
 42
0.0000000001
 43
0.0000000001
 40
3.141592653589794
 40
3.141592653589794
 40
3.141592653589794
 40
3.141592653589794
 40
3.423445136380704
 40
3.423445136380704
 40
3.716624680336462
 40
3.716624680336462
 40
4.033735774154033
 40
4.033735774154033
 40
4.368502129829808
 40
4.368502129829808
 40
4.709082690707942
 40
4.709082690707942
 40
5.050454257127871
 40
5.050454257127871
 40
5.391071219074971
 40
5.391071219074971
 40
5.725836605839336
 40
5.725836605839336
 40
6.041567312063408
 40
6.041567312063408
 40
6.283185307179585
 40
6.283185307179585
 40
6.283185307179585
 40
6.283185307179585
 10
7418.153621892904
 20
7644.045002022706
 30
0.0
 10
7418.155845038113
 20
7642.757563746544
 30
0.0
 10
7417.909842839971
 20
7641.471684444397
 30
0.0
 10
7416.957101252972
 20
7639.011543799256
 30
0.0
 10
7416.235493833212
 20
7637.84458208203
 30
0.0
 10
7414.365858333106
 20
7635.69111735438
 30
0.0
 10
7413.188834002901
 20
7634.725120872065
 30
0.0
 10
7410.488102762866
 20
7633.098628052199
 30
0.0
 10
7408.948030623466
 20
7632.457305244312
 30
0.0
 10
7405.682967111971
 20
7631.58146746776
 30
0.0
 10
7403.95506721666
 20
7631.354353478093
 30
0.0
 10
7400.492686568542
 20
7631.339858901594
 30
0.0
 10
7398.758437467012
 20
7631.553507820576
 30
0.0
 10
7395.45277074686
 20
7632.411907406377
 30
0.0
 10
7393.880848084105
 20
7633.055577293262
 30
0.0
 10
7391.076986255882
 20
7634.731111202606
 30
0.0
 10
7389.838842197362
 20
7635.757157025094
 30
0.0
 10
7387.885703084814
 20
7638.080116884153
 30
0.0
 10
7387.146433059548
 20
7639.360856528746
 30
0.0
 10
7386.339148474712
 20
7641.783697776656
 30
0.0
 10
7386.155575392939
 20
7642.886088331568
 30
0.0
 10
7386.15366960207
 20
7643.989744584803
 30
0.0
  0
ARC
  5
18D1
330
1F
100
AcDbEntity
  8
Widoczne (ISO)
100
AcDbCircle
 10
7430.114888117438
 20
7666.486351531419
 30
0.0
 40
3.000000000000082
100
AcDbArc
 50
270.0989381109347
 51
0.0989381109346984
  0
LINE
  5
18D2
330
1F
100
AcDbEntity
  8
Widoczne (ISO)
100
AcDbLine
 10
7374.074058604545
 20
7690.082645546488
 30
0.0
 11
7430.073975113501
 21
7690.179346062821
 31
0.0
  0
ELLIPSE
  5
18D3
330
1F
100
AcDbEntity
  8
Widoczne (ISO)
100
AcDbEllipse
 10
7402.09248152881
 20
7679.437981891401
 30
0.0
 11
14.58789723450887
 21
14.63836507145654
 31
0.0
210
0.0
220
0.0
230
-1.0
 40
0.4458865642531584
 41
1.990224255978878
 42
2.722164724406109
  0
ELLIPSE
  5
18D4
330
1F
100
AcDbEntity
  8
Widoczne (ISO)
100
AcDbEllipse
 10
7402.09248152881
 20
7679.437981891401
 30
0.0
 11
14.63836507145713
 21
-14.58789723450827
 31
0.0
210
0.0
220
0.0
230
-1.0
 40
0.4458865642531572
 41
0.4194279291845593
 42
1.151368397611416
  0
LINE
  5
18D5
330
1F
100
AcDbEntity
  8
Widoczne (ISO)
100
AcDbLine
 10
7430.120068502242
 20
7663.486356004151
 30
0.0
 11
7412.813124161015
 21
7663.456470415773
 31
0.0
  0
LINE
  5
18D6
330
1F
100
AcDbEntity
  8
Widoczne (ISO)
100
AcDbLine
 10
7391.427096334509
 20
7663.419541076196
 30
0.0
 11
7374.120151993285
 21
7663.389655487822
 31
0.0
  0
LINE
  5
18D7
330
1F
100
AcDbEntity
  8
Widoczne (ISO)
100
AcDbLine
 10
7418.120086393177
 20
7663.46563446494
 30
0.0
 11
7418.153621892904
 21
7644.045002022706
 31
0.0
  0
LINE
  5
18D8
330
1F
100
AcDbEntity
  8
Widoczne (ISO)
100
AcDbLine
 10
7386.120134102346
 20
7663.410377027033
 30
0.0
 11
7386.15366960207
 21
7643.989744584803
 31
0.0
  0
LINE
  5
18D9
330
1F
100
AcDbEntity
  8
Widoczne (ISO)
100
AcDbLine
 10
5021.436483972598
 20
5257.933424745299
 30
0.0
 11
5040.857116414832
 21
5257.966960245026
 31
0.0
  0
LINE
  5
18DA
330
1F
100
AcDbEntity
  8
Widoczne (ISO)
100
AcDbLine
 10
5021.381226534694
 20
5289.933377036136
 30
0.0
 11
5040.801858976925
 21
5289.966912535859
 31
0.0
  0
LINE
  5
18DB
330
1F
100
AcDbEntity
  8
Widoczne (ISO)
100
AcDbLine
 10
4994.667514936814
 20
5301.88726575646
 30
0.0
 11
4994.764215453143
 21
5245.887349247499
 31
0.0
  0
LINE
  5
18DC
330
1F
100
AcDbEntity
  8
Widoczne (ISO)
100
AcDbLine
 10
4989.457253220979
 20
5245.878185198336
 30
0.0
 11
4989.360552704646
 21
5301.878101707293
 31
0.0
  0
ELLIPSE
  5
18DD
330
1F
100
AcDbEntity
  8
Widoczne (ISO)
100
AcDbEllipse
 10
4996.769155561882
 20
5245.890811373086
 30
0.0
 11
0.0051803848035236
 21
-2.999995527265615
 31
0.0
210
0.0
220
0.0
230
-1.0
 40
0.6683143659758094
 41
0.0
 42
1.570796326794899
  0
LINE
  5
18DE
330
1F
100
AcDbEntity
  8
Widoczne (ISO)
100
AcDbLine
 10
4992.462429133048
 20
5242.883370055874
 30
0.0
 11
4996.774335946682
 21
5242.890815845817
 31
0.0
  0
ARC
  5
18DF
330
1F
100
AcDbEntity
  8
Widoczne (ISO)
100
AcDbCircle
 10
4992.457248748245
 20
5245.883365583139
 30
0.0
 40
3.000000000000079
100
AcDbArc
 50
180.0989381109347
 51
270.0989381109347
  0
ARC
  5
18E0
330
1F
100
AcDbEntity
  8
Widoczne (ISO)
100
AcDbCircle
 10
4992.360548231911
 20
5301.8832820921
 30
0.0
 40
3.000000000000078
100
AcDbArc
 50
90.09893811093469
 51
180.0989381109347
  0
ELLIPSE
  5
18E1
330
1F
100
AcDbEntity
  8
Widoczne (ISO)
100
AcDbEllipse
 10
4996.769155561882
 20
5245.890811373086
 30
0.0
 11
0.0051803848035243
 21
-2.999995527265617
 31
0.0
210
0.0
220
0.0
230
-1.0
 40
0.6683143659758172
 41
0.0000000000000067
 42
1.570796326794899
  0
LINE
  5
18E2
330
1F
100
AcDbEntity
  8
Widoczne (ISO)
100
AcDbLine
 10
5018.355329083414
 20
5304.928174287662
 30
0.0
 11
4996.667274660745
 21
5304.890723409308
 31
0.0
  0
LINE
  5
18E3
330
1F
100
AcDbEntity
  8
Widoczne (ISO)
100
AcDbLine
 10
4996.774335946685
 20
5242.890815845821
 30
0.0
 11
5018.462390369351
 21
5242.92826672417
 31
0.0
  0
SPLINE
  5
18E4
330
1F
100
AcDbEntity
  8
Widoczne (ISO)
100
AcDbSpline
210
0.0
220
0.0
230
1.0
 70
     8
 71
     3
 72
    26
 73
    22
 74
     0
 42
0.0000000001
 43
0.0000000001
 40
3.141592653589794
 40
3.141592653589794
 40
3.141592653589794
 40
3.141592653589794
 40
3.423445136380704
 40
3.423445136380704
 40
3.716624680336462
 40
3.716624680336462
 40
4.033735774154033
 40
4.033735774154033
 40
4.368502129829808
 40
4.368502129829808
 40
4.709082690707942
 40
4.709082690707942
 40
5.050454257127871
 40
5.050454257127871
 40
5.391071219074971
 40
5.391071219074971
 40
5.725836605839336
 40
5.725836605839336
 40
6.041567312063408
 40
6.041567312063408
 40
6.283185307179585
 40
6.283185307179585
 40
6.283185307179585
 40
6.283185307179585
 10
5040.801858976928
 20
5289.966912535863
 30
0.0
 10
5042.08929725309
 20
5289.969135681072
 30
0.0
 10
5043.375176555238
 20
5289.723133482929
 30
0.0
 10
5045.835317200378
 20
5288.77039189593
 30
0.0
 10
5047.002278917605
 20
5288.04878447617
 30
0.0
 10
5049.155743645254
 20
5286.179148976065
 30
0.0
 10
5050.121740127568
 20
5285.00212464586
 30
0.0
 10
5051.748232947434
 20
5282.301393405824
 30
0.0
 10
5052.389555755323
 20
5280.761321266425
 30
0.0
 10
5053.265393531875
 20
5277.496257754929
 30
0.0
 10
5053.49250752154
 20
5275.768357859618
 30
0.0
 10
5053.507002098039
 20
5272.3059772115
 30
0.0
 10
5053.29335317906
 20
5270.57172810997
 30
0.0
 10
5052.434953593257
 20
5267.266061389818
 30
0.0
 10
5051.791283706371
 20
5265.694138727063
 30
0.0
 10
5050.115749797028
 20
5262.89027689884
 30
0.0
 10
5049.089703974541
 20
5261.652132840321
 30
0.0
 10
5046.766744115481
 20
5259.698993727771
 30
0.0
 10
5045.486004470888
 20
5258.959723702507
 30
0.0
 10
5043.063163222979
 20
5258.152439117671
 30
0.0
 10
5041.960772668067
 20
5257.968866035898
 30
0.0
 10
5040.857116414832
 20
5257.966960245029
 30
0.0
  0
ARC
  5
18E5
330
1F
100
AcDbEntity
  8
Widoczne (ISO)
100
AcDbCircle
 10
5018.360509468214
 20
5301.928178760397
 30
0.0
 40
3.000000000000082
100
AcDbArc
 50
0.0989381109346984
 51
90.09893811093469
  0
LINE
  5
18E6
330
1F
100
AcDbEntity
  8
Widoczne (ISO)
100
AcDbLine
 10
4994.764215453147
 20
5245.887349247502
 30
0.0
 11
4994.667514936814
 21
5301.88726575646
 31
0.0
  0
ELLIPSE
  5
18E7
330
1F
100
AcDbEntity
  8
Widoczne (ISO)
100
AcDbEllipse
 10
5005.408879108234
 20
5273.905772171769
 30
0.0
 11
-14.63836507145654
 21
14.58789723450887
 31
0.0
210
0.0
220
0.0
230
-1.0
 40
0.4458865642531584
 41
1.990224255978878
 42
2.722164724406109
  0
ELLIPSE
  5
18E8
330
1F
100
AcDbEntity
  8
Widoczne (ISO)
100
AcDbEllipse
 10
5005.408879108234
 20
5273.905772171769
 30
0.0
 11
14.58789723450827
 21
14.63836507145713
 31
0.0
210
0.0
220
0.0
230
-1.0
 40
0.4458865642531572
 41
0.4194279291845593
 42
1.151368397611416
  0
LINE
  5
18E9
330
1F
100
AcDbEntity
  8
Widoczne (ISO)
100
AcDbLine
 10
5021.360504995483
 20
5301.9333591452
 30
0.0
 11
5021.39039058386
 21
5284.626414803973
 31
0.0
  0
LINE
  5
18EA
330
1F
100
AcDbEntity
  8
Widoczne (ISO)
100
AcDbLine
 10
5021.427319923438
 20
5263.240386977467
 30
0.0
 11
5021.457205511812
 21
5245.933442636243
 31
0.0
  0
LINE
  5
18EB
330
1F
100
AcDbEntity
  8
Widoczne (ISO)
100
AcDbLine
 10
5021.381226534694
 20
5289.933377036136
 30
0.0
 11
5040.801858976928
 21
5289.966912535863
 31
0.0
  0
LINE
  5
18EC
330
1F
100
AcDbEntity
  8
Widoczne (ISO)
100
AcDbLine
 10
5021.436483972602
 20
5257.933424745303
 30
0.0
 11
5040.857116414832
 21
5257.966960245029
 31
0.0
  0
LINE
  5
18ED
330
1F
100
AcDbEntity
  8
Widoczne (ISO)
100
AcDbLine
 10
7423.177618816183
 20
2885.255521262762
 30
0.0
 11
7423.144083316457
 21
2904.676153704996
 31
0.0
  0
LINE
  5
18EE
330
1F
100
AcDbEntity
  8
Widoczne (ISO)
100
AcDbLine
 10
7391.177666525347
 20
2885.200263824859
 30
0.0
 11
7391.144131025623
 21
2904.620896267089
 31
0.0
  0
LINE
  5
18EF
330
1F
100
AcDbEntity
  8
Widoczne (ISO)
100
AcDbLine
 10
7379.223777805023
 20
2858.486552226978
 30
0.0
 11
7435.223694313984
 21
2858.583252743308
 31
0.0
  0
LINE
  5
18F0
330
1F
100
AcDbEntity
  8
Widoczne (ISO)
100
AcDbLine
 10
7435.232858363147
 20
2853.276290511144
 30
0.0
 11
7379.23294185419
 21
2853.179589994811
 31
0.0
  0
ELLIPSE
  5
18F1
330
1F
100
AcDbEntity
  8
Widoczne (ISO)
100
AcDbEllipse
 10
7435.220232188396
 20
2860.588192852046
 30
0.0
 11
2.999995527265615
 21
0.0051803848035234
 31
0.0
210
0.0
220
0.0
230
-1.0
 40
0.6683143659758094
 41
0.0
 42
1.570796326794899
  0
LINE
  5
18F2
330
1F
100
AcDbEntity
  8
Widoczne (ISO)
100
AcDbLine
 10
7438.227673505608
 20
2856.281466423213
 30
0.0
 11
7438.220227715667
 21
2860.593373236846
 31
0.0
  0
ARC
  5
18F3
330
1F
100
AcDbEntity
  8
Widoczne (ISO)
100
AcDbCircle
 10
7435.227677978343
 20
2856.276286038409
 30
0.0
 40
3.000000000000079
100
AcDbArc
 50
270.0989381109347
 51
0.0989381109346984
  0
ARC
  5
18F4
330
1F
100
AcDbEntity
  8
Widoczne (ISO)
100
AcDbCircle
 10
7379.227761469381
 20
2856.179585522076
 30
0.0
 40
3.000000000000078
100
AcDbArc
 50
180.0989381109347
 51
270.0989381109347
  0
ELLIPSE
  5
18F5
330
1F
100
AcDbEntity
  8
Widoczne (ISO)
100
AcDbEllipse
 10
7435.220232188396
 20
2860.588192852046
 30
0.0
 11
2.999995527265617
 21
0.0051803848035241
 31
0.0
210
0.0
220
0.0
230
-1.0
 40
0.6683143659758172
 41
0.0000000000000067
 42
1.570796326794899
  0
LINE
  5
18F6
330
1F
100
AcDbEntity
  8
Widoczne (ISO)
100
AcDbLine
 10
7376.18286927382
 20
2882.174366373579
 30
0.0
 11
7376.220320152174
 21
2860.486311950909
 31
0.0
  0
LINE
  5
18F7
330
1F
100
AcDbEntity
  8
Widoczne (ISO)
100
AcDbLine
 10
7438.220227715662
 20
2860.59337323685
 30
0.0
 11
7438.182776837312
 21
2882.281427659516
 31
0.0
  0
SPLINE
  5
18F8
330
1F
100
AcDbEntity
  8
Widoczne (ISO)
100
AcDbSpline
210
0.0
220
0.0
230
1.0
 70
     8
 71
     3
 72
    26
 73
    22
 74
     0
 42
0.0000000001
 43
0.0000000001
 40
3.141592653589794
 40
3.141592653589794
 40
3.141592653589794
 40
3.141592653589794
 40
3.423445136380704
 40
3.423445136380704
 40
3.716624680336462
 40
3.716624680336462
 40
4.033735774154033
 40
4.033735774154033
 40
4.368502129829808
 40
4.368502129829808
 40
4.709082690707942
 40
4.709082690707942
 40
5.050454257127871
 40
5.050454257127871
 40
5.391071219074971
 40
5.391071219074971
 40
5.725836605839336
 40
5.725836605839336
 40
6.041567312063408
 40
6.041567312063408
 40
6.283185307179585
 40
6.283185307179585
 40
6.283185307179585
 40
6.283185307179585
 10
7391.144131025621
 20
2904.620896267093
 30
0.0
 10
7391.141907880411
 20
2905.908334543255
 30
0.0
 10
7391.387910078553
 20
2907.194213845402
 30
0.0
 10
7392.340651665553
 20
2909.654354490543
 30
0.0
 10
7393.062259085313
 20
2910.821316207769
 30
0.0
 10
7394.931894585418
 20
2912.974780935419
 30
0.0
 10
7396.108918915624
 20
2913.940777417734
 30
0.0
 10
7398.809650155659
 20
2915.567270237599
 30
0.0
 10
7400.349722295058
 20
2916.208593045488
 30
0.0
 10
7403.614785806553
 20
2917.08443082204
 30
0.0
 10
7405.342685701865
 20
2917.311544811705
 30
0.0
 10
7408.805066349983
 20
2917.326039388204
 30
0.0
 10
7410.539315451512
 20
2917.112390469224
 30
0.0
 10
7413.844982171664
 20
2916.253990883422
 30
0.0
 10
7415.41690483442
 20
2915.610320996536
 30
0.0
 10
7418.220766662642
 20
2913.934787087193
 30
0.0
 10
7419.458910721163
 20
2912.908741264705
 30
0.0
 10
7421.412049833712
 20
2910.585781405647
 30
0.0
 10
7422.151319858976
 20
2909.305041761053
 30
0.0
 10
7422.958604443812
 20
2906.882200513143
 30
0.0
 10
7423.142177525585
 20
2905.779809958231
 30
0.0
 10
7423.144083316454
 20
2904.676153704996
 30
0.0
  0
ARC
  5
18F9
330
1F
100
AcDbEntity
  8
Widoczne (ISO)
100
AcDbCircle
 10
7379.182864801086
 20
2882.179546758379
 30
0.0
 40
3.000000000000082
100
AcDbArc
 50
90.09893811093469
 51
180.0989381109347
  0
LINE
  5
18FA
330
1F
100
AcDbEntity
  8
Widoczne (ISO)
100
AcDbLine
 10
7435.22369431398
 20
2858.583252743311
 30
0.0
 11
7379.223777805023
 21
2858.486552226978
 31
0.0
  0
ELLIPSE
  5
18FB
330
1F
100
AcDbEntity
  8
Widoczne (ISO)
100
AcDbEllipse
 10
7407.205271389715
 20
2869.227916398397
 30
0.0
 11
-14.58789723450887
 21
-14.63836507145654
 31
0.0
210
0.0
220
0.0
230
-1.0
 40
0.4458865642531584
 41
1.990224255978878
 42
2.722164724406109
  0
ELLIPSE
  5
18FC
330
1F
100
AcDbEntity
  8
Widoczne (ISO)
100
AcDbEllipse
 10
7407.205271389715
 20
2869.227916398397
 30
0.0
 11
-14.63836507145713
 21
14.58789723450827
 31
0.0
210
0.0
220
0.0
230
-1.0
 40
0.4458865642531572
 41
0.4194279291845593
 42
1.151368397611416
  0
LINE
  5
18FD
330
1F
100
AcDbEntity
  8
Widoczne (ISO)
100
AcDbLine
 10
7379.177684416283
 20
2885.179542285648
 30
0.0
 11
7396.48462875751
 21
2885.209427874026
 31
0.0
  0
LINE
  5
18FE
330
1F
100
AcDbEntity
  8
Widoczne (ISO)
100
AcDbLine
 10
7417.870656584016
 20
2885.246357213603
 30
0.0
 11
7435.17760092524
 21
2885.276242801977
 31
0.0
  0
LINE
  5
18FF
330
1F
100
AcDbEntity
  8
Widoczne (ISO)
100
AcDbLine
 10
7391.177666525347
 20
2885.200263824859
 30
0.0
 11
7391.144131025621
 21
2904.620896267093
 31
0.0
  0
LINE
  5
1900
330
1F
100
AcDbEntity
  8
Widoczne (ISO)
100
AcDbLine
 10
7423.177618816179
 20
2885.255521262766
 30
0.0
 11
7423.144083316454
 21
2904.676153704996
 31
0.0
  0
LINE
  5
1901
330
1F
100
AcDbEntity
  8
Widoczne (ISO)
100
AcDbLine
 10
9788.995935537265
 20
5289.820600633836
 30
0.0
 11
9769.575303095031
 21
5289.78706513411
 31
0.0
  0
LINE
  5
1902
330
1F
100
AcDbEntity
  8
Widoczne (ISO)
100
AcDbLine
 10
9789.051192975167
 20
5257.820648342999
 30
0.0
 11
9769.63056053294
 21
5257.787112843278
 31
0.0
  0
LINE
  5
1903
330
1F
100
AcDbEntity
  8
Widoczne (ISO)
100
AcDbLine
 10
9815.76490457305
 20
5245.866759622676
 30
0.0
 11
9815.668204056718
 21
5301.866676131638
 31
0.0
  0
LINE
  5
1904
330
1F
100
AcDbEntity
  8
Widoczne (ISO)
100
AcDbLine
 10
9820.975166288882
 20
5301.8758401808
 30
0.0
 11
9821.071866805214
 21
5245.875923671842
 31
0.0
  0
ELLIPSE
  5
1905
330
1F
100
AcDbEntity
  8
Widoczne (ISO)
100
AcDbEllipse
 10
9813.663263947979
 20
5301.863214006051
 30
0.0
 11
-0.0051803848035232
 21
2.999995527265615
 31
0.0
210
0.0
220
0.0
230
-1.0
 40
0.6683143659758094
 41
0.0
 42
1.570796326794899
  0
LINE
  5
1906
330
1F
100
AcDbEntity
  8
Widoczne (ISO)
100
AcDbLine
 10
9817.969990376813
 20
5304.870655323261
 30
0.0
 11
9813.658083563183
 21
5304.863209533319
 31
0.0
  0
ARC
  5
1907
330
1F
100
AcDbEntity
  8
Widoczne (ISO)
100
AcDbCircle
 10
9817.975170761616
 20
5301.870659795996
 30
0.0
 40
3.000000000000079
100
AcDbArc
 50
0.0989381109346984
 51
90.09893811114315
  0
ARC
  5
1908
330
1F
100
AcDbEntity
  8
Widoczne (ISO)
100
AcDbCircle
 10
9818.07187127795
 20
5245.870743287035
 30
0.0
 40
3.000000000000078
100
AcDbArc
 50
270.0989381111431
 51
0.0989381109346984
  0
ELLIPSE
  5
1909
330
1F
100
AcDbEntity
  8
Widoczne (ISO)
100
AcDbEllipse
 10
9813.663263947979
 20
5301.863214006051
 30
0.0
 11
-0.0051803848035239
 21
2.999995527265617
 31
0.0
210
0.0
220
0.0
230
-1.0
 40
0.6683143659758172
 41
0.0000000000000067
 42
1.570796326794899
  0
LINE
  5
190A
330
1F
100
AcDbEntity
  8
Widoczne (ISO)
100
AcDbLine
 10
9792.077090426451
 20
5242.825851091474
 30
0.0
 11
9813.765144849117
 21
5242.863301969827
 31
0.0
  0
LINE
  5
190B
330
1F
100
AcDbEntity
  8
Widoczne (ISO)
100
AcDbLine
 10
9813.658083563176
 20
5304.863209533316
 30
0.0
 11
9791.970029140509
 21
5304.825758654965
 31
0.0
  0
SPLINE
  5
190C
330
1F
100
AcDbEntity
  8
Widoczne (ISO)
100
AcDbSpline
210
0.0
220
0.0
230
1.0
 70
     8
 71
     3
 72
    26
 73
    22
 74
     0
 42
0.0000000001
 43
0.0000000001
 40
3.141592653589794
 40
3.141592653589794
 40
3.141592653589794
 40
3.141592653589794
 40
3.423445136380704
 40
3.423445136380704
 40
3.716624680336462
 40
3.716624680336462
 40
4.033735774154033
 40
4.033735774154033
 40
4.368502129829808
 40
4.368502129829808
 40
4.709082690707942
 40
4.709082690707942
 40
5.050454257127871
 40
5.050454257127871
 40
5.391071219074971
 40
5.391071219074971
 40
5.725836605839336
 40
5.725836605839336
 40
6.041567312063408
 40
6.041567312063408
 40
6.283185307179585
 40
6.283185307179585
 40
6.283185307179585
 40
6.283185307179585
 10
9769.630560532933
 20
5257.787112843273
 30
0.0
 10
9768.343122256775
 20
5257.784889698064
 30
0.0
 10
9767.057242954622
 20
5258.030891896207
 30
0.0
 10
9764.597102309483
 20
5258.983633483206
 30
0.0
 10
9763.43014059226
 20
5259.705240902967
 30
0.0
 10
9761.276675864611
 20
5261.574876403071
 30
0.0
 10
9760.310679382296
 20
5262.751900733277
 30
0.0
 10
9758.684186562431
 20
5265.452631973311
 30
0.0
 10
9758.042863754541
 20
5266.992704112711
 30
0.0
 10
9757.167025977986
 20
5270.257767624206
 30
0.0
 10
9756.939911988325
 20
5271.985667519518
 30
0.0
 10
9756.925417411826
 20
5275.448048167636
 30
0.0
 10
9757.139066330806
 20
5277.182297269165
 30
0.0
 10
9757.997465916604
 20
5280.487963989318
 30
0.0
 10
9758.64113580349
 20
5282.059886652073
 30
0.0
 10
9760.316669712834
 20
5284.863748480296
 30
0.0
 10
9761.34271553532
 20
5286.101892538815
 30
0.0
 10
9763.665675394383
 20
5288.055031651365
 30
0.0
 10
9764.946415038977
 20
5288.794301676628
 30
0.0
 10
9767.369256286883
 20
5289.601586261465
 30
0.0
 10
9768.471646841797
 20
5289.785159343238
 30
0.0
 10
9769.575303095031
 20
5289.787065134106
 30
0.0
  0
ARC
  5
190D
330
1F
100
AcDbEntity
  8
Widoczne (ISO)
100
AcDbCircle
 10
9792.071910041647
 20
5245.825846618739
 30
0.0
 40
3.000000000000082
100
AcDbArc
 50
180.0989381109347
 51
270.0989381111431
  0
LINE
  5
190E
330
1F
100
AcDbEntity
  8
Widoczne (ISO)
100
AcDbLine
 10
9815.668204056718
 20
5301.866676131634
 30
0.0
 11
9815.76490457305
 21
5245.866759622676
 31
0.0
  0
ELLIPSE
  5
190F
330
1F
100
AcDbEntity
  8
Widoczne (ISO)
100
AcDbEllipse
 10
9805.023540401627
 20
5273.848253207368
 30
0.0
 11
14.63836507145654
 21
-14.58789723450887
 31
0.0
210
0.0
220
0.0
230
-1.0
 40
0.4458865642531584
 41
1.990224255978878
 42
2.722164724406109
  0
ELLIPSE
  5
1910
330
1F
100
AcDbEntity
  8
Widoczne (ISO)
100
AcDbEllipse
 10
9805.023540401627
 20
5273.848253207368
 30
0.0
 11
-14.58789723450827
 21
-14.63836507145713
 31
0.0
210
0.0
220
0.0
230
-1.0
 40
0.4458865642531572
 41
0.4194279291845593
 42
1.151368397611416
  0
LINE
  5
1911
330
1F
100
AcDbEntity
  8
Widoczne (ISO)
100
AcDbLine
 10
9789.071914514382
 20
5245.820666233935
 30
0.0
 11
9789.042028926001
 21
5263.127610575163
 31
0.0
  0
LINE
  5
1912
330
1F
100
AcDbEntity
  8
Widoczne (ISO)
100
AcDbLine
 10
9789.005099586423
 20
5284.513638401669
 30
0.0
 11
9788.97521399805
 21
5301.820582742893
 31
0.0
  0
LINE
  5
1913
330
1F
100
AcDbEntity
  8
Widoczne (ISO)
100
AcDbLine
 10
9789.051192975167
 20
5257.820648342999
 30
0.0
 11
9769.630560532933
 21
5257.787112843273
 31
0.0
  0
LINE
  5
1914
330
1F
100
AcDbEntity
  8
Widoczne (ISO)
100
AcDbLine
 10
9788.995935537265
 20
5289.820600633833
 30
0.0
 11
9769.575303095031
 21
5289.787065134106
 31
0.0
  0
CIRCLE
  5
1915
330
1F
100
AcDbEntity
  8
0
100
AcDbCircle
 10
9405.044426307373
 20
5274.877152434906
 30
0.0
 40
31.86153093464729
  0
CIRCLE
  5
1916
330
1F
100
AcDbEntity
  8
0
100
AcDbCircle
 10
8937.120890939972
 20
5278.432189985119
 30
0.0
 40
31.86153093464729
  0
CIRCLE
  5
1917
330
1F
100
AcDbEntity
  8
0
100
AcDbCircle
 10
8543.922859888306
 20
5276.654671210017
 30
0.0
 40
31.86153093464729
  0
CIRCLE
  5
1918
330
1F
100
AcDbEntity
  8
0
100
AcDbCircle
 10
8140.04970118872
 20
5276.654671210017
 30
0.0
 40
31.86153093464729
  0
CIRCLE
  5
1919
330
1F
100
AcDbEntity
  8
0
100
AcDbCircle
 10
5404.278726256425
 20
5275.527203601821
 30
0.0
 40
31.86153093464729
  0
CIRCLE
  5
191A
330
1F
100
AcDbEntity
  8
0
100
AcDbCircle
 10
5868.546554877904
 20
5275.527203601821
 30
0.0
 40
31.86153093464729
  0
CIRCLE
  5
191B
330
1F
100
AcDbEntity
  8
0
100
AcDbCircle
 10
6270.504675000427
 20
5279.189078985428
 30
0.0
 40
31.86153093464729
  0
CIRCLE
  5
191C
330
1F
100
AcDbEntity
  8
0
100
AcDbCircle
 10
6668.913111812727
 20
5278.467733445554
 30
0.0
 40
31.86153093464729
  0
CIRCLE
  5
191D
330
1F
100
AcDbEntity
  8
0
100
AcDbCircle
 10
7067.98742562144
 20
5276.005622728276
 30
0.0
 40
31.86153093464729
  0
CIRCLE
  5
191E
330
1F
100
AcDbEntity
  8
0
100
AcDbCircle
 10
7741.723311880997
 20
5276.753072657869
 30
0.0
 40
31.86153093464729
  0
CIRCLE
  5
191F
330
1F
100
AcDbEntity
  8
0
100
AcDbCircle
 10
7404.752420150821
 20
5612.228986684923
 30
0.0
 40
31.86153093464729
  0
CIRCLE
  5
1920
330
1F
100
AcDbEntity
  8
0
100
AcDbCircle
 10
7403.875663941988
 20
4937.673404411579
 30
0.0
 40
31.86153093464729
  0
CIRCLE
  5
1921
330
1F
100
AcDbEntity
  8
0
100
AcDbCircle
 10
7406.106203976438
 20
4539.572852008116
 30
0.0
 40
31.86153093464729
  0
CIRCLE
  5
1922
330
1F
100
AcDbEntity
  8
0
100
AcDbCircle
 10
7404.178788214138
 20
4139.034979413764
 30
0.0
 40
31.86153093464729
  0
CIRCLE
  5
1923
330
1F
100
AcDbEntity
  8
0
100
AcDbCircle
 10
7403.306391265506
 20
3739.862867744049
 30
0.0
 40
31.86153093464729
  0
CIRCLE
  5
1924
330
1F
100
AcDbEntity
  8
0
100
AcDbCircle
 10
7405.97223456904
 20
3274.499670282005
 30
0.0
 40
31.86153093464729
  0
CIRCLE
  5
1925
330
1F
100
AcDbEntity
  8
0
100
AcDbCircle
 10
7406.701009462691
 20
6008.986390443052
 30
0.0
 40
31.86153093464729
  0
CIRCLE
  5
1926
330
1F
100
AcDbEntity
  8
0
100
AcDbCircle
 10
7404.353236466284
 20
6410.089570019953
 30
0.0
 40
31.86153093464729
  0
CIRCLE
  5
1927
330
1F
100
AcDbEntity
  8
0
100
AcDbCircle
 10
7405.974258511284
 20
6810.196599170295
 30
0.0
 40
31.86153093464729
  0
CIRCLE
  5
1928
330
1F
100
AcDbEntity
  8
0
100
AcDbCircle
 10
7404.04053739048
 20
7279.256593120073
 30
0.0
 40
31.86153093464729
  0
LINE
  5
1929
330
1F
100
AcDbEntity
  8
0
100
AcDbLine
 10
7332.281155166883
 20
5309.573524812728
 30
0.0
 11
5869.786691537914
 21
6333.593730634277
 31
0.0
  0
LINE
  5
192A
330
1F
100
AcDbEntity
  8
0
100
AcDbLine
 10
7404.800343666344
 20
5195.688603800318
 30
0.0
 11
7404.786691537913
 21
5195.766022752533
 31
0.0
  0
LINE
  5
192B
330
1F
100
AcDbEntity
  8
0
100
AcDbLine
 10
7377.42304905813
 20
5350.940693155794
 30
0.0
 11
7190.532486734152
 21
6410.766022752532
 31
0.0
  0
LINE
  5
192C
330
1F
100
AcDbEntity
  8
0
100
AcDbLine
 10
7438.594193598099
 20
5348.271559123558
 30
0.0
 11
8182.539436734165
 21
6410.766022752532
 31
0.0
  0
LINE
  5
192D
330
1F
100
AcDbEntity
  8
0
100
AcDbLine
 10
7484.786690594233
 20
5275.753735048372
 30
0.0
 11
8939.786691537923
 21
5275.766022752531
 31
0.0
  0
LINE
  5
192E
330
1F
100
AcDbEntity
  8
0
100
AcDbLine
 10
7324.709272585723
 20
5275.752370624098
 30
0.0
 11
7324.786691537906
 21
5275.766022752524
 31
0.0
  0
LINE
  5
192F
330
1F
100
AcDbEntity
  8
0
100
AcDbLine
 10
7479.96136194117
 20
5303.129665232306
 30
0.0
 11
8939.786691537923
 21
5560.556591277688
 31
0.0
  0
LINE
  5
1930
330
1F
100
AcDbEntity
  8
0
100
AcDbLine
 10
7190.532486734152
 20
6410.766022752532
 30
0.0
 11
7119.99612301275
 21
6810.766022752533
 31
0.0
  0
LINE
  5
1931
330
1F
100
AcDbEntity
  8
0
100
AcDbLine
 10
8182.539436734165
 20
6410.766022752532
 30
0.0
 11
8462.614399419656
 21
6810.766022752533
 31
0.0
  0
LINE
  5
1932
330
1F
100
AcDbEntity
  8
Widoczne (ISO)
100
AcDbLine
 10
8926.865890109445
 20
5572.536789270044
 30
0.0
 11
8907.445257667211
 21
5572.503253770318
 31
0.0
  0
LINE
  5
1933
330
1F
100
AcDbEntity
  8
Widoczne (ISO)
100
AcDbLine
 10
8926.92114754735
 20
5540.536836979208
 30
0.0
 11
8907.500515105123
 21
5540.503301479485
 31
0.0
  0
LINE
  5
1934
330
1F
100
AcDbEntity
  8
Widoczne (ISO)
100
AcDbLine
 10
8953.634859145234
 20
5528.582948258884
 30
0.0
 11
8953.5381586289
 21
5584.582864767845
 31
0.0
  0
LINE
  5
1935
330
1F
100
AcDbEntity
  8
Widoczne (ISO)
100
AcDbLine
 10
8958.845120861063
 20
5584.592028817009
 30
0.0
 11
8958.941821377397
 21
5528.59211230805
 31
0.0
  0
ELLIPSE
  5
1936
330
1F
100
AcDbEntity
  8
Widoczne (ISO)
100
AcDbEllipse
 10
8951.533218520163
 20
5584.579402642258
 30
0.0
 11
-0.0051803848035232
 21
2.999995527265615
 31
0.0
210
0.0
220
0.0
230
-1.0
 40
0.6683143659758094
 41
0.0
 42
1.570796326794899
  0
LINE
  5
1937
330
1F
100
AcDbEntity
  8
Widoczne (ISO)
100
AcDbLine
 10
8955.839944948996
 20
5587.58684395947
 30
0.0
 11
8951.528038135366
 21
5587.579398169527
 31
0.0
  0
ARC
  5
1938
330
1F
100
AcDbEntity
  8
Widoczne (ISO)
100
AcDbCircle
 10
8955.8451253338
 20
5584.586848432205
 30
0.0
 40
3.000000000000079
100
AcDbArc
 50
0.0989381109346984
 51
90.09893811114315
  0
ARC
  5
1939
330
1F
100
AcDbEntity
  8
Widoczne (ISO)
100
AcDbCircle
 10
8955.941825850132
 20
5528.586931923243
 30
0.0
 40
3.000000000000078
100
AcDbArc
 50
270.0989381111431
 51
0.0989381109346984
  0
ELLIPSE
  5
193A
330
1F
100
AcDbEntity
  8
Widoczne (ISO)
100
AcDbEllipse
 10
8951.533218520163
 20
5584.579402642258
 30
0.0
 11
-0.0051803848035239
 21
2.999995527265617
 31
0.0
210
0.0
220
0.0
230
-1.0
 40
0.6683143659758172
 41
0.0000000000000067
 42
1.570796326794899
  0
LINE
  5
193B
330
1F
100
AcDbEntity
  8
Widoczne (ISO)
100
AcDbLine
 10
8929.947044998632
 20
5525.542039727682
 30
0.0
 11
8951.635099421299
 21
5525.579490606036
 31
0.0
  0
LINE
  5
193C
330
1F
100
AcDbEntity
  8
Widoczne (ISO)
100
AcDbLine
 10
8951.528038135359
 20
5587.579398169523
 30
0.0
 11
8929.839983712692
 21
5587.541947291174
 31
0.0
  0
SPLINE
  5
193D
330
1F
100
AcDbEntity
  8
Widoczne (ISO)
100
AcDbSpline
210
0.0
220
0.0
230
1.0
 70
     8
 71
     3
 72
    26
 73
    22
 74
     0
 42
0.0000000001
 43
0.0000000001
 40
3.141592653589794
 40
3.141592653589794
 40
3.141592653589794
 40
3.141592653589794
 40
3.423445136380704
 40
3.423445136380704
 40
3.716624680336462
 40
3.716624680336462
 40
4.033735774154033
 40
4.033735774154033
 40
4.368502129829808
 40
4.368502129829808
 40
4.709082690707942
 40
4.709082690707942
 40
5.050454257127871
 40
5.050454257127871
 40
5.391071219074971
 40
5.391071219074971
 40
5.725836605839336
 40
5.725836605839336
 40
6.041567312063408
 40
6.041567312063408
 40
6.283185307179585
 40
6.283185307179585
 40
6.283185307179585
 40
6.283185307179585
 10
8907.500515105116
 20
5540.503301479482
 30
0.0
 10
8906.213076828958
 20
5540.501078334273
 30
0.0
 10
8904.927197526806
 20
5540.747080532415
 30
0.0
 10
8902.467056881667
 20
5541.699822119415
 30
0.0
 10
8901.300095164442
 20
5542.421429539174
 30
0.0
 10
8899.146630436794
 20
5544.29106503928
 30
0.0
 10
8898.18063395448
 20
5545.468089369485
 30
0.0
 10
8896.554141134613
 20
5548.16882060952
 30
0.0
 10
8895.912818326724
 20
5549.708892748919
 30
0.0
 10
8895.03698055017
 20
5552.973956260415
 30
0.0
 10
8894.809866560507
 20
5554.701856155726
 30
0.0
 10
8894.795371984008
 20
5558.164236803843
 30
0.0
 10
8895.009020902987
 20
5559.898485905374
 30
0.0
 10
8895.867420488787
 20
5563.204152625527
 30
0.0
 10
8896.511090375673
 20
5564.776075288282
 30
0.0
 10
8898.186624285015
 20
5567.579937116504
 30
0.0
 10
8899.212670107504
 20
5568.818081175024
 30
0.0
 10
8901.535629966565
 20
5570.771220287572
 30
0.0
 10
8902.816369611159
 20
5571.510490312837
 30
0.0
 10
8905.239210859065
 20
5572.317774897673
 30
0.0
 10
8906.341601413981
 20
5572.501347979446
 30
0.0
 10
8907.445257667211
 20
5572.503253770315
 30
0.0
  0
ARC
  5
193E
330
1F
100
AcDbEntity
  8
Widoczne (ISO)
100
AcDbCircle
 10
8929.941864613828
 20
5528.542035254947
 30
0.0
 40
3.000000000000082
100
AcDbArc
 50
180.0989381109347
 51
270.0989381111431
  0
LINE
  5
193F
330
1F
100
AcDbEntity
  8
Widoczne (ISO)
100
AcDbLine
 10
8953.5381586289
 20
5584.582864767842
 30
0.0
 11
8953.634859145234
 21
5528.582948258884
 31
0.0
  0
ELLIPSE
  5
1940
330
1F
100
AcDbEntity
  8
Widoczne (ISO)
100
AcDbEllipse
 10
8942.893494973811
 20
5556.564441843576
 30
0.0
 11
14.63836507145654
 21
-14.58789723450887
 31
0.0
210
0.0
220
0.0
230
-1.0
 40
0.4458865642531584
 41
1.990224255978878
 42
2.722164724406109
  0
ELLIPSE
  5
1941
330
1F
100
AcDbEntity
  8
Widoczne (ISO)
100
AcDbEllipse
 10
8942.893494973811
 20
5556.564441843576
 30
0.0
 11
-14.58789723450827
 21
-14.63836507145713
 31
0.0
210
0.0
220
0.0
230
-1.0
 40
0.4458865642531572
 41
0.4194279291845593
 42
1.151368397611416
  0
LINE
  5
1942
330
1F
100
AcDbEntity
  8
Widoczne (ISO)
100
AcDbLine
 10
8926.941869086565
 20
5528.536854870143
 30
0.0
 11
8926.911983498184
 21
5545.843799211372
 31
0.0
  0
LINE
  5
1943
330
1F
100
AcDbEntity
  8
Widoczne (ISO)
100
AcDbLine
 10
8926.875054158605
 20
5567.229827037877
 30
0.0
 11
8926.845168570231
 21
5584.536771379101
 31
0.0
  0
LINE
  5
1944
330
1F
100
AcDbEntity
  8
Widoczne (ISO)
100
AcDbLine
 10
8926.92114754735
 20
5540.536836979208
 30
0.0
 11
8907.500515105116
 21
5540.503301479482
 31
0.0
  0
LINE
  5
1945
330
1F
100
AcDbEntity
  8
Widoczne (ISO)
100
AcDbLine
 10
8926.865890109445
 20
5572.53678927004
 30
0.0
 11
8907.445257667211
 21
5572.503253770315
 31
0.0
  0
LINE
  5
1946
330
1F
100
AcDbEntity
  8
Widoczne (ISO)
100
AcDbLine
 10
7105.003038045572
 20
6793.624261726515
 30
0.0
 11
7105.036573545302
 21
6774.203629284281
 31
0.0
  0
LINE
  5
1947
330
1F
100
AcDbEntity
  8
Widoczne (ISO)
100
AcDbLine
 10
7137.002990336412
 20
6793.679519164419
 30
0.0
 11
7137.036525836136
 21
6774.258886722193
 31
0.0
  0
LINE
  5
1948
330
1F
100
AcDbEntity
  8
Widoczne (ISO)
100
AcDbLine
 10
7148.956879056736
 20
6820.393230762303
 30
0.0
 11
7092.956962547775
 21
6820.29653024597
 31
0.0
  0
LINE
  5
1949
330
1F
100
AcDbEntity
  8
Widoczne (ISO)
100
AcDbLine
 10
7092.94779849861
 20
6825.603492478133
 30
0.0
 11
7148.94771500757
 21
6825.700192994466
 31
0.0
  0
ELLIPSE
  5
194A
330
1F
100
AcDbEntity
  8
Widoczne (ISO)
100
AcDbEllipse
 10
7092.960424673359
 20
6818.291590137231
 30
0.0
 11
-2.999995527265615
 21
-0.0051803848035231
 31
0.0
210
0.0
220
0.0
230
-1.0
 40
0.6683143659758094
 41
0.0
 42
1.570796326794899
  0
LINE
  5
194B
330
1F
100
AcDbEntity
  8
Widoczne (ISO)
100
AcDbLine
 10
7089.952983356147
 20
6822.598316566065
 30
0.0
 11
7089.960429146093
 21
6818.286409752436
 31
0.0
  0
ARC
  5
194C
330
1F
100
AcDbEntity
  8
Widoczne (ISO)
100
AcDbCircle
 10
7092.952978883413
 20
6822.603496950868
 30
0.0
 40
3.000000000000079
100
AcDbArc
 50
90.09893811093469
 51
180.0989381111431
  0
ARC
  5
194D
330
1F
100
AcDbEntity
  8
Widoczne (ISO)
100
AcDbCircle
 10
7148.952895392373
 20
6822.700197467201
 30
0.0
 40
3.000000000000078
100
AcDbArc
 50
0.0989381111431389
 51
90.09893811093469
  0
ELLIPSE
  5
194E
330
1F
100
AcDbEntity
  8
Widoczne (ISO)
100
AcDbEllipse
 10
7092.960424673359
 20
6818.291590137231
 30
0.0
 11
-2.999995527265617
 21
-0.0051803848035237
 31
0.0
210
0.0
220
0.0
230
-1.0
 40
0.6683143659758172
 41
0.0000000000000067
 42
1.570796326794899
  0
LINE
  5
194F
330
1F
100
AcDbEntity
  8
Widoczne (ISO)
100
AcDbLine
 10
7151.997787587935
 20
6796.705416615703
 30
0.0
 11
7151.960336709585
 21
6818.393471038368
 31
0.0
  0
LINE
  5
1950
330
1F
100
AcDbEntity
  8
Widoczne (ISO)
100
AcDbLine
 10
7089.960429146093
 20
6818.286409752428
 30
0.0
 11
7089.997880024444
 21
6796.598355329762
 31
0.0
  0
SPLINE
  5
1951
330
1F
100
AcDbEntity
  8
Widoczne (ISO)
100
AcDbSpline
210
0.0
220
0.0
230
1.0
 70
     8
 71
     3
 72
    26
 73
    22
 74
     0
 42
0.0000000001
 43
0.0000000001
 40
3.141592653589794
 40
3.141592653589794
 40
3.141592653589794
 40
3.141592653589794
 40
3.423445136380704
 40
3.423445136380704
 40
3.716624680336462
 40
3.716624680336462
 40
4.033735774154033
 40
4.033735774154033
 40
4.368502129829808
 40
4.368502129829808
 40
4.709082690707942
 40
4.709082690707942
 40
5.050454257127871
 40
5.050454257127871
 40
5.391071219074971
 40
5.391071219074971
 40
5.725836605839336
 40
5.725836605839336
 40
6.041567312063408
 40
6.041567312063408
 40
6.283185307179585
 40
6.283185307179585
 40
6.283185307179585
 40
6.283185307179585
 10
7137.036525836136
 20
6774.258886722186
 30
0.0
 10
7137.038748981345
 20
6772.971448446026
 30
0.0
 10
7136.792746783206
 20
6771.685569143875
 30
0.0
 10
7135.840005196202
 20
6769.225428498734
 30
0.0
 10
7135.118397776446
 20
6768.058466781512
 30
0.0
 10
7133.248762276338
 20
6765.905002053862
 30
0.0
 10
7132.071737946136
 20
6764.939005571547
 30
0.0
 10
7129.371006706097
 20
6763.312512751681
 30
0.0
 10
7127.830934566701
 20
6762.671189943794
 30
0.0
 10
7124.565871055202
 20
6761.795352167237
 30
0.0
 10
7122.83797115989
 20
6761.568238177575
 30
0.0
 10
7119.375590511774
 20
6761.553743601076
 30
0.0
 10
7117.641341410244
 20
6761.767392520058
 30
0.0
 10
7114.33567469009
 20
6762.625792105857
 30
0.0
 10
7112.763752027335
 20
6763.269461992742
 30
0.0
 10
7109.959890199113
 20
6764.944995902085
 30
0.0
 10
7108.721746140597
 20
6765.971041724572
 30
0.0
 10
7106.768607028048
 20
6768.294001583635
 30
0.0
 10
7106.02933700278
 20
6769.574741228229
 30
0.0
 10
7105.222052417945
 20
6771.997582476135
 30
0.0
 10
7105.038479336174
 20
6773.09997303105
 30
0.0
 10
7105.036573545302
 20
6774.203629284281
 30
0.0
  0
ARC
  5
1952
330
1F
100
AcDbEntity
  8
Widoczne (ISO)
100
AcDbCircle
 10
7148.99779206067
 20
6796.700236230899
 30
0.0
 40
3.000000000000082
100
AcDbArc
 50
270.0989381109347
 51
0.0989381111431389
  0
LINE
  5
1953
330
1F
100
AcDbEntity
  8
Widoczne (ISO)
100
AcDbLine
 10
7092.956962547775
 20
6820.29653024597
 30
0.0
 11
7148.956879056736
 21
6820.393230762303
 31
0.0
  0
ELLIPSE
  5
1954
330
1F
100
AcDbEntity
  8
Widoczne (ISO)
100
AcDbEllipse
 10
7120.975385472042
 20
6809.65186659088
 30
0.0
 11
14.58789723450887
 21
14.63836507145654
 31
0.0
210
0.0
220
0.0
230
-1.0
 40
0.4458865642531584
 41
1.990224255978878
 42
2.722164724406109
  0
ELLIPSE
  5
1955
330
1F
100
AcDbEntity
  8
Widoczne (ISO)
100
AcDbEllipse
 10
7120.975385472042
 20
6809.65186659088
 30
0.0
 11
14.63836507145713
 21
-14.58789723450827
 31
0.0
210
0.0
220
0.0
230
-1.0
 40
0.4458865642531572
 41
0.4194279291845593
 42
1.151368397611416
  0
LINE
  5
1956
330
1F
100
AcDbEntity
  8
Widoczne (ISO)
100
AcDbLine
 10
7149.002972445474
 20
6793.700240703633
 30
0.0
 11
7131.69602810425
 21
6793.670355115252
 31
0.0
  0
LINE
  5
1957
330
1F
100
AcDbEntity
  8
Widoczne (ISO)
100
AcDbLine
 10
7110.310000277744
 20
6793.633425775674
 30
0.0
 11
7093.003055936519
 21
6793.6035401873
 31
0.0
  0
LINE
  5
1958
330
1F
100
AcDbEntity
  8
Widoczne (ISO)
100
AcDbLine
 10
7137.002990336412
 20
6793.679519164419
 30
0.0
 11
7137.036525836136
 21
6774.258886722186
 31
0.0
  0
LINE
  5
1959
330
1F
100
AcDbEntity
  8
Widoczne (ISO)
100
AcDbLine
 10
7105.00303804558
 20
6793.624261726515
 30
0.0
 11
7105.036573545302
 21
6774.203629284281
 31
0.0
  0
LINE
  5
195A
330
1F
100
AcDbEntity
  8
Widoczne (ISO)
100
AcDbLine
 10
8444.797997654925
 20
6791.73202193807
 30
0.0
 11
8444.831533154655
 21
6772.311389495836
 31
0.0
  0
LINE
  5
195B
330
1F
100
AcDbEntity
  8
Widoczne (ISO)
100
AcDbLine
 10
8476.797949945765
 20
6791.787279375974
 30
0.0
 11
8476.831485445487
 21
6772.366646933747
 31
0.0
  0
LINE
  5
195C
330
1F
100
AcDbEntity
  8
Widoczne (ISO)
100
AcDbLine
 10
8488.751838666088
 20
6818.500990973856
 30
0.0
 11
8432.751922157128
 21
6818.404290457525
 31
0.0
  0
LINE
  5
195D
330
1F
100
AcDbEntity
  8
Widoczne (ISO)
100
AcDbLine
 10
8432.742758107961
 20
6823.711252689688
 30
0.0
 11
8488.742674616922
 21
6823.807953206021
 31
0.0
  0
ELLIPSE
  5
195E
330
1F
100
AcDbEntity
  8
Widoczne (ISO)
100
AcDbEllipse
 10
8432.755384282712
 20
6816.399350348786
 30
0.0
 11
-2.999995527265615
 21
-0.0051803848035231
 31
0.0
210
0.0
220
0.0
230
-1.0
 40
0.6683143659758094
 41
0.0
 42
1.570796326794899
  0
LINE
  5
195F
330
1F
100
AcDbEntity
  8
Widoczne (ISO)
100
AcDbLine
 10
8429.7479429655
 20
6820.70607677762
 30
0.0
 11
8429.755388755445
 21
6816.394169963991
 31
0.0
  0
ARC
  5
1960
330
1F
100
AcDbEntity
  8
Widoczne (ISO)
100
AcDbCircle
 10
8432.747938492765
 20
6820.711257162423
 30
0.0
 40
3.000000000000079
100
AcDbArc
 50
90.09893811093469
 51
180.0989381111431
  0
ARC
  5
1961
330
1F
100
AcDbEntity
  8
Widoczne (ISO)
100
AcDbCircle
 10
8488.747855001726
 20
6820.807957678756
 30
0.0
 40
3.000000000000078
100
AcDbArc
 50
0.0989381111431389
 51
90.09893811093469
  0
ELLIPSE
  5
1962
330
1F
100
AcDbEntity
  8
Widoczne (ISO)
100
AcDbEllipse
 10
8432.755384282712
 20
6816.399350348786
 30
0.0
 11
-2.999995527265617
 21
-0.0051803848035237
 31
0.0
210
0.0
220
0.0
230
-1.0
 40
0.6683143659758172
 41
0.0000000000000067
 42
1.570796326794899
  0
LINE
  5
1963
330
1F
100
AcDbEntity
  8
Widoczne (ISO)
100
AcDbLine
 10
8491.792747197287
 20
6794.813176827258
 30
0.0
 11
8491.755296318938
 21
6816.501231249922
 31
0.0
  0
LINE
  5
1964
330
1F
100
AcDbEntity
  8
Widoczne (ISO)
100
AcDbLine
 10
8429.755388755445
 20
6816.394169963982
 30
0.0
 11
8429.792839633796
 21
6794.706115541316
 31
0.0
  0
SPLINE
  5
1965
330
1F
100
AcDbEntity
  8
Widoczne (ISO)
100
AcDbSpline
210
0.0
220
0.0
230
1.0
 70
     8
 71
     3
 72
    26
 73
    22
 74
     0
 42
0.0000000001
 43
0.0000000001
 40
3.141592653589794
 40
3.141592653589794
 40
3.141592653589794
 40
3.141592653589794
 40
3.423445136380704
 40
3.423445136380704
 40
3.716624680336462
 40
3.716624680336462
 40
4.033735774154033
 40
4.033735774154033
 40
4.368502129829808
 40
4.368502129829808
 40
4.709082690707942
 40
4.709082690707942
 40
5.050454257127871
 40
5.050454257127871
 40
5.391071219074971
 40
5.391071219074971
 40
5.725836605839336
 40
5.725836605839336
 40
6.041567312063408
 40
6.041567312063408
 40
6.283185307179585
 40
6.283185307179585
 40
6.283185307179585
 40
6.283185307179585
 10
8476.831485445487
 20
6772.36664693374
 30
0.0
 10
8476.833708590696
 20
6771.079208657581
 30
0.0
 10
8476.587706392558
 20
6769.793329355429
 30
0.0
 10
8475.634964805555
 20
6767.333188710288
 30
0.0
 10
8474.913357385798
 20
6766.166226993068
 30
0.0
 10
8473.043721885689
 20
6764.012762265418
 30
0.0
 10
8471.866697555489
 20
6763.046765783101
 30
0.0
 10
8469.165966315449
 20
6761.420272963237
 30
0.0
 10
8467.625894176054
 20
6760.778950155348
 30
0.0
 10
8464.360830664555
 20
6759.903112378792
 30
0.0
 10
8462.632930769244
 20
6759.675998389131
 30
0.0
 10
8459.170550121125
 20
6759.661503812631
 30
0.0
 10
8457.436301019596
 20
6759.875152731613
 30
0.0
 10
8454.130634299444
 20
6760.73355231741
 30
0.0
 10
8452.558711636688
 20
6761.377222204297
 30
0.0
 10
8449.754849808465
 20
6763.052756113641
 30
0.0
 10
8448.51670574995
 20
6764.078801936126
 30
0.0
 10
8446.563566637399
 20
6766.40176179519
 30
0.0
 10
8445.824296612133
 20
6767.682501439783
 30
0.0
 10
8445.017012027296
 20
6770.105342687688
 30
0.0
 10
8444.833438945527
 20
6771.207733242604
 30
0.0
 10
8444.831533154655
 20
6772.311389495836
 30
0.0
  0
ARC
  5
1966
330
1F
100
AcDbEntity
  8
Widoczne (ISO)
100
AcDbCircle
 10
8488.792751670022
 20
6794.807996442454
 30
0.0
 40
3.000000000000082
100
AcDbArc
 50
270.0989381109347
 51
0.0989381111431389
  0
LINE
  5
1967
330
1F
100
AcDbEntity
  8
Widoczne (ISO)
100
AcDbLine
 10
8432.751922157128
 20
6818.404290457525
 30
0.0
 11
8488.751838666088
 21
6818.500990973856
 31
0.0
  0
ELLIPSE
  5
1968
330
1F
100
AcDbEntity
  8
Widoczne (ISO)
100
AcDbEllipse
 10
8460.770345081392
 20
6807.759626802435
 30
0.0
 11
14.58789723450887
 21
14.63836507145654
 31
0.0
210
0.0
220
0.0
230
-1.0
 40
0.4458865642531584
 41
1.990224255978878
 42
2.722164724406109
  0
ELLIPSE
  5
1969
330
1F
100
AcDbEntity
  8
Widoczne (ISO)
100
AcDbEllipse
 10
8460.770345081392
 20
6807.759626802435
 30
0.0
 11
14.63836507145713
 21
-14.58789723450827
 31
0.0
210
0.0
220
0.0
230
-1.0
 40
0.4458865642531572
 41
0.4194279291845593
 42
1.151368397611416
  0
LINE
  5
196A
330
1F
100
AcDbEntity
  8
Widoczne (ISO)
100
AcDbLine
 10
8488.797932054826
 20
6791.808000915188
 30
0.0
 11
8471.490987713602
 21
6791.778115326806
 31
0.0
  0
LINE
  5
196B
330
1F
100
AcDbEntity
  8
Widoczne (ISO)
100
AcDbLine
 10
8450.104959887097
 20
6791.741185987229
 30
0.0
 11
8432.798015545872
 21
6791.711300398855
 31
0.0
  0
LINE
  5
196C
330
1F
100
AcDbEntity
  8
Widoczne (ISO)
100
AcDbLine
 10
8476.797949945765
 20
6791.787279375974
 30
0.0
 11
8476.831485445487
 21
6772.36664693374
 31
0.0
  0
LINE
  5
196D
330
1F
100
AcDbEntity
  8
Widoczne (ISO)
100
AcDbLine
 10
8444.797997654932
 20
6791.73202193807
 30
0.0
 11
8444.831533154655
 21
6772.311389495836
 31
0.0
  0
LINE
  5
196E
330
1F
100
AcDbEntity
  8
Widoczne (ISO)
100
AcDbLine
 10
5882.689081684571
 20
6311.864214758873
 30
0.0
 11
5902.109714126805
 21
6311.8977502586
 31
0.0
  0
LINE
  5
196F
330
1F
100
AcDbEntity
  8
Widoczne (ISO)
100
AcDbLine
 10
5882.633824246667
 20
6343.86416704971
 30
0.0
 11
5902.054456688894
 21
6343.897702549432
 31
0.0
  0
LINE
  5
1970
330
1F
100
AcDbEntity
  8
Widoczne (ISO)
100
AcDbLine
 10
5855.920112648783
 20
6355.818055770033
 30
0.0
 11
5856.016813165116
 21
6299.818139261073
 31
0.0
  0
LINE
  5
1971
330
1F
100
AcDbEntity
  8
Widoczne (ISO)
100
AcDbLine
 10
5850.709850932952
 20
6299.808975211909
 30
0.0
 11
5850.61315041662
 21
6355.808891720867
 31
0.0
  0
ELLIPSE
  5
1972
330
1F
100
AcDbEntity
  8
Widoczne (ISO)
100
AcDbEllipse
 10
5858.021753273854
 20
6299.82160138666
 30
0.0
 11
0.0051803848035229
 21
-2.999995527265615
 31
0.0
210
0.0
220
0.0
230
-1.0
 40
0.6683143659758094
 41
0.0
 42
1.570796326794899
  0
LINE
  5
1973
330
1F
100
AcDbEntity
  8
Widoczne (ISO)
100
AcDbLine
 10
5853.715026845021
 20
6296.814160069448
 30
0.0
 11
5858.026933658651
 21
6296.821605859391
 31
0.0
  0
ARC
  5
1974
330
1F
100
AcDbEntity
  8
Widoczne (ISO)
100
AcDbCircle
 10
5853.709846460218
 20
6299.814155596713
 30
0.0
 40
3.000000000000079
100
AcDbArc
 50
180.0989381109347
 51
270.0989381111431
  0
ARC
  5
1975
330
1F
100
AcDbEntity
  8
Widoczne (ISO)
100
AcDbCircle
 10
5853.613145943885
 20
6355.814072105674
 30
0.0
 40
3.000000000000078
100
AcDbArc
 50
90.09893811114315
 51
180.0989381109347
  0
ELLIPSE
  5
1976
330
1F
100
AcDbEntity
  8
Widoczne (ISO)
100
AcDbEllipse
 10
5858.021753273854
 20
6299.82160138666
 30
0.0
 11
0.0051803848035235
 21
-2.999995527265617
 31
0.0
210
0.0
220
0.0
230
-1.0
 40
0.6683143659758172
 41
0.0000000000000067
 42
1.570796326794899
  0
LINE
  5
1977
330
1F
100
AcDbEntity
  8
Widoczne (ISO)
100
AcDbLine
 10
5879.607926795383
 20
6358.858964301235
 30
0.0
 11
5857.919872372718
 21
6358.821513422882
 31
0.0
  0
LINE
  5
1978
330
1F
100
AcDbEntity
  8
Widoczne (ISO)
100
AcDbLine
 10
5858.026933658658
 20
6296.821605859395
 30
0.0
 11
5879.714988081325
 21
6296.859056737744
 31
0.0
  0
SPLINE
  5
1979
330
1F
100
AcDbEntity
  8
Widoczne (ISO)
100
AcDbSpline
210
0.0
220
0.0
230
1.0
 70
     8
 71
     3
 72
    26
 73
    22
 74
     0
 42
0.0000000001
 43
0.0000000001
 40
3.141592653589794
 40
3.141592653589794
 40
3.141592653589794
 40
3.141592653589794
 40
3.423445136380704
 40
3.423445136380704
 40
3.716624680336462
 40
3.716624680336462
 40
4.033735774154033
 40
4.033735774154033
 40
4.368502129829808
 40
4.368502129829808
 40
4.709082690707942
 40
4.709082690707942
 40
5.050454257127871
 40
5.050454257127871
 40
5.391071219074971
 40
5.391071219074971
 40
5.725836605839336
 40
5.725836605839336
 40
6.041567312063408
 40
6.041567312063408
 40
6.283185307179585
 40
6.283185307179585
 40
6.283185307179585
 40
6.283185307179585
 10
5902.054456688901
 20
6343.897702549436
 30
0.0
 10
5903.341894965059
 20
6343.899925694645
 30
0.0
 10
5904.627774267211
 20
6343.653923496503
 30
0.0
 10
5907.087914912351
 20
6342.701181909504
 30
0.0
 10
5908.254876629574
 20
6341.979574489743
 30
0.0
 10
5910.408341357223
 20
6340.109938989638
 30
0.0
 10
5911.374337839538
 20
6338.932914659433
 30
0.0
 10
5913.000830659403
 20
6336.232183419398
 30
0.0
 10
5913.642153467293
 20
6334.692111279998
 30
0.0
 10
5914.517991243847
 20
6331.427047768503
 30
0.0
 10
5914.74510523351
 20
6329.699147873192
 30
0.0
 10
5914.759599810008
 20
6326.236767225074
 30
0.0
 10
5914.545950891029
 20
6324.502518123544
 30
0.0
 10
5913.68755130523
 20
6321.196851403392
 30
0.0
 10
5913.043881418344
 20
6319.624928740637
 30
0.0
 10
5911.368347509001
 20
6316.821066912414
 30
0.0
 10
5910.342301686513
 20
6315.582922853894
 30
0.0
 10
5908.019341827451
 20
6313.629783741345
 30
0.0
 10
5906.738602182858
 20
6312.890513716081
 30
0.0
 10
5904.315760934952
 20
6312.083229131244
 30
0.0
 10
5903.213370380036
 20
6311.899656049472
 30
0.0
 10
5902.109714126805
 20
6311.897750258603
 30
0.0
  0
ARC
  5
197A
330
1F
100
AcDbEntity
  8
Widoczne (ISO)
100
AcDbCircle
 10
5879.613107180187
 20
6355.85896877397
 30
0.0
 40
3.000000000000082
100
AcDbArc
 50
0.0989381109346984
 51
90.09893811114315
  0
LINE
  5
197B
330
1F
100
AcDbEntity
  8
Widoczne (ISO)
100
AcDbLine
 10
5856.016813165116
 20
6299.818139261076
 30
0.0
 11
5855.920112648783
 21
6355.818055770033
 31
0.0
  0
ELLIPSE
  5
197C
330
1F
100
AcDbEntity
  8
Widoczne (ISO)
100
AcDbEllipse
 10
5866.661476820206
 20
6327.836562185342
 30
0.0
 11
-14.63836507145654
 21
14.58789723450887
 31
0.0
210
0.0
220
0.0
230
-1.0
 40
0.4458865642531584
 41
1.990224255978878
 42
2.722164724406109
  0
ELLIPSE
  5
197D
330
1F
100
AcDbEntity
  8
Widoczne (ISO)
100
AcDbEllipse
 10
5866.661476820206
 20
6327.836562185342
 30
0.0
 11
14.58789723450827
 21
14.63836507145713
 31
0.0
210
0.0
220
0.0
230
-0.9999999999999998
 40
0.4458865642531572
 41
0.4194279291845593
 42
1.151368397611416
  0
LINE
  5
197E
330
1F
100
AcDbEntity
  8
Widoczne (ISO)
100
AcDbLine
 10
5882.613102707452
 20
6355.864149158774
 30
0.0
 11
5882.642988295834
 21
6338.557204817546
 31
0.0
  0
LINE
  5
197F
330
1F
100
AcDbEntity
  8
Widoczne (ISO)
100
AcDbLine
 10
5882.679917635411
 20
6317.171176991041
 30
0.0
 11
5882.709803223786
 21
6299.864232649817
 31
0.0
  0
LINE
  5
1980
330
1F
100
AcDbEntity
  8
Widoczne (ISO)
100
AcDbLine
 10
5882.633824246667
 20
6343.86416704971
 30
0.0
 11
5902.054456688901
 21
6343.897702549436
 31
0.0
  0
LINE
  5
1981
330
1F
100
AcDbEntity
  8
Widoczne (ISO)
100
AcDbLine
 10
5882.689081684571
 20
6311.864214758877
 30
0.0
 11
5902.109714126805
 21
6311.897750258603
 31
0.0
  0
LINE
  5
1982
330
1F
100
AcDbEntity
  8
0
100
AcDbLine
 10
4555.402259615684
 20
9625.150454674765
 30
0.0
 11
10254.17112346016
 21
9625.150454674756
 31
0.0
  0
LINE
  5
1983
330
1F
100
AcDbEntity
  8
0
100
AcDbLine
 10
10254.17112346016
 20
9625.150454674756
 30
0.0
 11
11754.17112346016
 21
9625.150454674756
 31
0.0
  0
LINE
  5
1984
330
1F
100
AcDbEntity
  8
0
100
AcDbLine
 10
11754.17112346016
 20
9625.150454674756
 30
0.0
 11
11754.17112346016
 21
2426.381590830301
 31
0.0
  0
LINE
  5
1985
330
1F
100
AcDbEntity
  8
0
100
AcDbLine
 10
11754.17112346016
 20
2426.381590830301
 30
0.0
 11
11754.17112346016
 21
926.3815908303001
 31
0.0
  0
LINE
  5
1986
330
1F
100
AcDbEntity
  8
0
100
AcDbLine
 10
11754.17112346016
 20
926.3815908303001
 30
0.0
 11
4555.402259615685
 21
926.3815908302966
 31
0.0
  0
LINE
  5
1987
330
1F
100
AcDbEntity
  8
0
100
AcDbLine
 10
4555.402259615685
 20
926.3815908302966
 30
0.0
 11
3055.402259615686
 21
926.3815908302966
 31
0.0
  0
LINE
  5
1988
330
1F
100
AcDbEntity
  8
0
100
AcDbLine
 10
3055.402259615686
 20
926.3815908302966
 30
0.0
 11
3055.402259615686
 21
9625.150454674766
 31
0.0
  0
LINE
  5
1989
330
1F
100
AcDbEntity
  8
0
100
AcDbLine
 10
3055.402259615686
 20
9625.150454674766
 30
0.0
 11
4555.402259615684
 21
9625.150454674765
 31
0.0
  0
LINE
  5
198A
330
1F
100
AcDbEntity
  8
0
100
AcDbLine
 10
3055.402259615686
 20
9625.212954674765
 30
0.0
 11
3055.402259615686
 21
10225.09930036522
 31
0.0
  0
LINE
  5
198B
330
1F
100
AcDbEntity
  8
0
100
AcDbLine
 10
11754.17112346016
 20
9625.212954674756
 30
0.0
 11
11754.17112346016
 21
10225.09930036522
 31
0.0
  0
LINE
  5
198C
330
1F
100
AcDbEntity
  8
0
100
AcDbLine
 10
3057.202259615685
 20
10224.91930036522
 30
0.0
 11
7403.907151578221
 21
10224.91930036522
 31
0.0
  0
LINE
  5
198D
330
1F
100
AcDbEntity
  8
0
100
AcDbLine
 10
11752.37112346016
 20
10224.91930036522
 30
0.0
 11
7405.666231497628
 21
10224.91930036522
 31
0.0
  0
SOLID
  5
198E
330
1F
100
AcDbEntity
  8
0
100
AcDbTrace
 10
3327.202259615673
 20
10269.91930036522
 30
0.0
 11
3327.202259615673
 21
10179.91930036569
 31
0.0
 12
3057.202259615672
 22
10224.91930036522
 32
0.0
 13
3057.202259615672
 23
10224.91930036522
 33
0.0
  0
SOLID
  5
198F
330
1F
100
AcDbEntity
  8
0
100
AcDbTrace
 10
11484.17112346036
 20
10269.919300365
 30
0.0
 11
11484.17112346036
 21
10179.91930036547
 31
0.0
 12
11754.17112346035
 22
10224.919300365
 32
0.0
 13
11754.17112346035
 23
10224.919300365
 33
0.0
  0
MTEXT
  5
1990
330
1F
100
AcDbEntity
  8
0
100
AcDbMText
 10
7404.786691537925
 20
10479.53906278739
 30
0.0
 40
200.0
 41
0.0
 71
     5
 72
     1
  1
\A1;7000
 73
     1
 44
1.0
  0
LINE
  5
1991
330
1F
100
AcDbEntity
  8
0
100
AcDbLine
 10
3055.339759615686
 20
9625.150454674766
 30
0.0
 11
2295.302508249191
 21
9625.150454674766
 31
0.0
  0
LINE
  5
1992
330
1F
100
AcDbEntity
  8
0
100
AcDbLine
 10
3055.339759615686
 20
926.3815908302966
 30
0.0
 11
2295.302508249189
 21
926.3815908302975
 31
0.0
  0
LINE
  5
1993
330
1F
100
AcDbEntity
  8
0
100
AcDbLine
 10
2295.482508249191
 20
9623.350454674767
 30
0.0
 11
2295.482508249189
 21
5275.986731281747
 31
0.0
  0
LINE
  5
1994
330
1F
100
AcDbEntity
  8
0
100
AcDbLine
 10
2295.482508249189
 20
928.1815908302975
 30
0.0
 11
2295.482508249189
 21
5275.545314223319
 31
0.0
  0
SOLID
  5
1995
330
1F
100
AcDbEntity
  8
0
100
AcDbTrace
 10
2250.482508249072
 20
9355.150454674591
 30
0.0
 11
2340.482508249072
 21
9355.150454674591
 31
0.0
 12
2295.482508249072
 22
9625.15045467459
 32
0.0
 13
2295.482508249072
 23
9625.15045467459
 33
0.0
  0
SOLID
  5
1996
330
1F
100
AcDbEntity
  8
0
100
AcDbTrace
 10
2250.482508249538
 20
1196.381590830255
 30
0.0
 11
2340.482508249072
 21
1196.381590830255
 31
0.0
 12
2295.482508249538
 22
926.3815908302555
 32
0.0
 13
2295.482508249538
 23
926.3815908302555
 33
0.0
  0
MTEXT
  5
1997
330
1F
100
AcDbEntity
  8
0
100
AcDbMText
 10
2053.456829036671
 20
5387.42521205865
 30
0.0
 40
200.0
 41
0.0
 71
     5
 72
     1
  1
\A1;7000
 11
0.0000000000000001
 21
1.0
 31
0.0
 73
     1
 44
1.0
  0
LINE
  5
1998
330
1F
100
AcDbEntity
  8
0
100
AcDbLine
 10
10254.17112346016
 20
2426.381590830301
 30
0.0
 11
10154.17112346016
 21
2426.381590830301
 31
0.0
  0
LINE
  5
1999
330
1F
100
AcDbEntity
  8
0
100
AcDbLine
 10
10154.17112346016
 20
2426.381590830301
 30
0.0
 11
10254.17112346016
 21
2426.381590830301
 31
0.0
  0
LINE
  5
199A
330
1F
100
AcDbEntity
  8
0
100
AcDbLine
 10
10254.17112346016
 20
2426.381590830301
 30
0.0
 11
10254.17112346016
 21
2526.381590830301
 31
0.0
  0
LINE
  5
199B
330
1F
100
AcDbEntity
  8
0
100
AcDbLine
 10
10254.17112346016
 20
2526.381590830301
 30
0.0
 11
10154.17112346016
 21
2426.381590830301
 31
0.0
  0
LINE
  5
199C
330
1F
100
AcDbEntity
  8
0
100
AcDbLine
 10
10254.17112346016
 20
8125.150454674765
 30
0.0
 11
10254.17112346016
 21
8025.150454674765
 31
0.0
  0
LINE
  5
199D
330
1F
100
AcDbEntity
  8
0
100
AcDbLine
 10
10254.17112346016
 20
8025.150454674765
 30
0.0
 11
10254.17112346016
 21
8125.150454674765
 31
0.0
  0
LINE
  5
199E
330
1F
100
AcDbEntity
  8
0
100
AcDbLine
 10
10254.17112346016
 20
8125.150454674765
 30
0.0
 11
10154.17112346016
 21
8125.150454674765
 31
0.0
  0
LINE
  5
199F
330
1F
100
AcDbEntity
  8
0
100
AcDbLine
 10
10154.17112346016
 20
8125.150454674765
 30
0.0
 11
10254.17112346016
 21
8025.150454674765
 31
0.0
  0
LINE
  5
19A0
330
1F
100
AcDbEntity
  8
0
100
AcDbLine
 10
4555.402259615684
 20
8125.150454674765
 30
0.0
 11
4655.402259615684
 21
8125.150454674765
 31
0.0
  0
LINE
  5
19A1
330
1F
100
AcDbEntity
  8
0
100
AcDbLine
 10
4655.402259615684
 20
8125.150454674765
 30
0.0
 11
4555.402259615684
 21
8125.150454674765
 31
0.0
  0
LINE
  5
19A2
330
1F
100
AcDbEntity
  8
0
100
AcDbLine
 10
4555.402259615684
 20
8125.150454674765
 30
0.0
 11
4555.402259615684
 21
8025.150454674765
 31
0.0
  0
LINE
  5
19A3
330
1F
100
AcDbEntity
  8
0
100
AcDbLine
 10
4555.402259615684
 20
8025.150454674765
 30
0.0
 11
4655.402259615684
 21
8125.150454674765
 31
0.0
  0
LINE
  5
19A4
330
1F
100
AcDbEntity
  8
0
100
AcDbLine
 10
4555.402259615684
 20
2426.381590830301
 30
0.0
 11
4655.402259615684
 21
2426.381590830301
 31
0.0
  0
LINE
  5
19A5
330
1F
100
AcDbEntity
  8
0
100
AcDbLine
 10
4655.402259615684
 20
2426.381590830301
 30
0.0
 11
4555.402259615684
 21
2426.381590830301
 31
0.0
  0
LINE
  5
19A6
330
1F
100
AcDbEntity
  8
0
100
AcDbLine
 10
4555.402259615684
 20
2426.381590830301
 30
0.0
 11
4555.402259615684
 21
2526.381590830301
 31
0.0
  0
LINE
  5
19A7
330
1F
100
AcDbEntity
  8
0
100
AcDbLine
 10
4555.402259615684
 20
2526.381590830301
 30
0.0
 11
4655.402259615684
 21
2426.381590830301
 31
0.0
  0
LINE
  5
23DC
330
1F
100
AcDbEntity
  8
0
100
AcDbLine
 10
1891.381112793515
 20
930.446617021513
 30
0.0
 11
1892.079380888246
 21
928.7550728548183
 31
0.0
  0
LINE
  5
23DD
330
1F
100
AcDbEntity
  8
0
100
AcDbLine
 10
1891.473384341183
 20
930.6686214392415
 30
0.0
 11
1893.164928507879
 21
931.3668895339727
 31
0.0
  0
LINE
  5
23DE
330
1F
100
AcDbEntity
  8
0
100
AcDbLine
 10
1891.251379923455
 20
930.76089298691
 30
0.0
 11
1890.553111828724
 21
932.4524371536055
 31
0.0
  0
LINE
  5
23DF
330
1F
100
AcDbEntity
  8
0
100
AcDbLine
 10
1891.381492195552
 20
930.7607358334406
 30
0.0
 11
1892.083844441629
 21
932.4505882892584
 31
0.0
  0
LINE
  5
23E0
330
1F
100
AcDbEntity
  8
0
100
AcDbLine
 10
1891.159265529256
 20
930.669000841279
 30
0.0
 11
1889.469413073439
 21
931.3713530873551
 31
0.0
  0
LINE
  5
23E1
330
1F
100
AcDbEntity
  8
0
100
AcDbLine
 10
1889.469413073439
 20
931.3713530873551
 30
0.0
 11
1891.159265529256
 21
930.669000841279
 31
0.0
  0
LINE
  5
23E2
330
1F
100
AcDbEntity
  8
0
100
AcDbLine
 10
1891.473227187714
 20
930.5385091671448
 30
0.0
 11
1893.163079643531
 21
929.8361569210687
 31
0.0
  0
CIRCLE
  5
23E3
330
1F
100
AcDbEntity
  8
0
100
AcDbCircle
 10
1891.316246358485
 20
930.6037550042114
 30
0.0
 40
0.17
  0
LINE
  5
23E4
330
1F
100
AcDbEntity
  8
0
100
AcDbLine
 10
1891.214325122992
 20
930.4676959664536
 30
0.0
 11
1890.297652573531
 21
929.2439903822787
 31
0.0
  0
LINE
  5
23E5
330
1F
100
AcDbEntity
  8
0
100
AcDbLine
 10
1891.180661065991
 20
930.5012043900775
 30
0.0
 11
1889.962563325036
 21
929.5798900711556
 31
0.0
  0
LINE
  5
23E6
330
1F
100
AcDbEntity
  8
0
100
AcDbLine
 10
1890.548648275342
 20
928.7569217191656
 30
0.0
 11
1890.617732102825
 21
928.9231367148197
 31
0.0
  0
LINE
  5
23E7
330
1F
100
AcDbEntity
  8
0
100
AcDbLine
 10
1890.617732102825
 20
928.9231367148197
 30
0.0
 11
1890.686815930308
 21
929.0893517104739
 31
0.0
  0
LINE
  5
23E8
330
1F
100
AcDbEntity
  8
0
100
AcDbLine
 10
1890.686815930308
 20
929.0893517104739
 30
0.0
 11
1890.755899757791
 21
929.255566706128
 31
0.0
  0
LINE
  5
23E9
330
1F
100
AcDbEntity
  8
0
100
AcDbLine
 10
1890.755899757791
 20
929.255566706128
 30
0.0
 11
1890.824983585273
 21
929.4217817017822
 31
0.0
  0
LINE
  5
23EA
330
1F
100
AcDbEntity
  8
0
100
AcDbLine
 10
1890.824983585273
 20
929.4217817017822
 30
0.0
 11
1890.894067412757
 21
929.5879966974364
 31
0.0
  0
LINE
  5
23EB
330
1F
100
AcDbEntity
  8
0
100
AcDbLine
 10
1890.894067412757
 20
929.5879966974364
 30
0.0
 11
1890.963151240239
 21
929.7542116930905
 31
0.0
  0
LINE
  5
23EC
330
1F
100
AcDbEntity
  8
0
100
AcDbLine
 10
1890.963151240239
 20
929.7542116930905
 30
0.0
 11
1891.032235067722
 21
929.9204266887448
 31
0.0
  0
LINE
  5
23ED
330
1F
100
AcDbEntity
  8
0
100
AcDbLine
 10
1891.032235067722
 20
929.9204266887448
 30
0.0
 11
1891.101318895205
 21
930.0866416843989
 31
0.0
  0
LINE
  5
23EE
330
1F
100
AcDbEntity
  8
0
100
AcDbLine
 10
1891.101318895205
 20
930.0866416843989
 30
0.0
 11
1891.170402722688
 21
930.252856680053
 31
0.0
  0
LINE
  5
23EF
330
1F
100
AcDbEntity
  8
0
100
AcDbLine
 10
1889.467564209091
 20
929.8406204744511
 30
0.0
 11
1889.633945602536
 21
929.9093025821294
 31
0.0
  0
LINE
  5
23F0
330
1F
100
AcDbEntity
  8
0
100
AcDbLine
 10
1889.633945602536
 20
929.9093025821294
 30
0.0
 11
1889.800326995982
 21
929.9779846898079
 31
0.0
  0
LINE
  5
23F1
330
1F
100
AcDbEntity
  8
0
100
AcDbLine
 10
1889.800326995982
 20
929.9779846898079
 30
0.0
 11
1889.966708389427
 21
930.0466667974864
 31
0.0
  0
LINE
  5
23F2
330
1F
100
AcDbEntity
  8
0
100
AcDbLine
 10
1889.966708389427
 20
930.0466667974864
 30
0.0
 11
1890.133089782873
 21
930.1153489051648
 31
0.0
  0
LINE
  5
23F3
330
1F
100
AcDbEntity
  8
0
100
AcDbLine
 10
1890.133089782873
 20
930.1153489051648
 30
0.0
 11
1890.299471176318
 21
930.1840310128433
 31
0.0
  0
LINE
  5
23F4
330
1F
100
AcDbEntity
  8
0
100
AcDbLine
 10
1890.299471176318
 20
930.1840310128433
 30
0.0
 11
1890.465852569763
 21
930.2527131205218
 31
0.0
  0
LINE
  5
23F5
330
1F
100
AcDbEntity
  8
0
100
AcDbLine
 10
1890.465852569763
 20
930.2527131205218
 30
0.0
 11
1890.632233963209
 21
930.3213952282002
 31
0.0
  0
LINE
  5
23F6
330
1F
100
AcDbEntity
  8
0
100
AcDbLine
 10
1890.632233963209
 20
930.3213952282002
 30
0.0
 11
1890.798615356654
 21
930.3900773358785
 31
0.0
  0
LINE
  5
23F7
330
1F
100
AcDbEntity
  8
0
100
AcDbLine
 10
1890.617732102825
 20
928.9231367148197
 30
0.0
 11
1889.633945602536
 21
929.9093025821294
 31
0.0
  0
LINE
  5
23F8
330
1F
100
AcDbEntity
  8
0
100
AcDbLine
 10
1889.800326995982
 20
929.9779846898079
 30
0.0
 11
1890.686815930308
 21
929.0893517104739
 31
0.0
  0
LINE
  5
23F9
330
1F
100
AcDbEntity
  8
0
100
AcDbLine
 10
1889.966708389427
 20
930.0466667974864
 30
0.0
 11
1890.755899757791
 21
929.255566706128
 31
0.0
  0
LINE
  5
23FA
330
1F
100
AcDbEntity
  8
0
100
AcDbLine
 10
1890.133089782873
 20
930.1153489051648
 30
0.0
 11
1890.824983585273
 21
929.4217817017822
 31
0.0
  0
LINE
  5
23FB
330
1F
100
AcDbEntity
  8
0
100
AcDbLine
 10
1890.299471176318
 20
930.1840310128433
 30
0.0
 11
1890.894067412757
 21
929.5879966974364
 31
0.0
  0
LINE
  5
23FC
330
1F
100
AcDbEntity
  8
0
100
AcDbLine
 10
1890.465852569763
 20
930.2527131205218
 30
0.0
 11
1890.963151240239
 21
929.7542116930905
 31
0.0
  0
LINE
  5
23FD
330
1F
100
AcDbEntity
  8
0
100
AcDbLine
 10
1890.632233963209
 20
930.3213952282002
 30
0.0
 11
1891.032235067722
 21
929.9204266887448
 31
0.0
  0
LINE
  5
23FE
330
1F
100
AcDbEntity
  8
0
100
AcDbLine
 10
1890.798615356654
 20
930.3900773358785
 30
0.0
 11
1891.101318895205
 21
930.0866416843989
 31
0.0
  0
LINE
  5
23FF
330
1F
100
AcDbEntity
  8
0
100
AcDbLine
 10
1890.798615356654
 20
930.3900773358785
 30
0.0
 11
1890.964996750099
 21
930.4587594435568
 31
0.0
  0
LINE
  5
2400
330
1F
100
AcDbEntity
  8
0
100
AcDbLine
 10
1890.964996750099
 20
930.4587594435568
 30
0.0
 11
1891.170402722688
 21
930.252856680053
 31
0.0
  0
LINE
  5
2401
330
1F
100
AcDbEntity
  8
0
100
AcDbLine
 10
1891.170402722688
 20
930.252856680053
 30
0.0
 11
1891.251000521418
 21
930.4467741749826
 31
0.0
  0
LINE
  5
2402
330
1F
100
AcDbEntity
  8
0
100
AcDbLine
 10
1891.159108375786
 20
930.5388885691819
 30
0.0
 11
1890.964996750099
 21
930.4587594435568
 31
0.0
  0
LINE
  5
2403
330
1F
100
AcDbEntity
  8
0
100
AcDbLine
 10
1891.340385429961
 20
930.4354775392068
 30
0.0
 11
1891.557490570856
 21
928.9220016466096
 31
0.0
  0
LINE
  5
2404
330
1F
100
AcDbEntity
  8
0
100
AcDbLine
 10
1891.292887313402
 20
930.4353674897905
 30
0.0
 11
1891.08302974314
 21
928.9225747144994
 31
0.0
  0
LINE
  5
2405
330
1F
100
AcDbEntity
  8
0
100
AcDbLine
 10
1892.010698780567
 20
928.9214542482632
 30
0.0
 11
1890.617732102824
 21
928.923136714819
 31
0.0
  0
LINE
  5
2406
330
1F
100
AcDbEntity
  8
0
100
AcDbLine
 10
1890.686815930307
 20
929.0893517104731
 30
0.0
 11
1891.942016672889
 21
929.0878356417088
 31
0.0
  0
LINE
  5
2407
330
1F
100
AcDbEntity
  8
0
100
AcDbLine
 10
1890.75589975779
 20
929.2555667061273
 30
0.0
 11
1891.87333456521
 21
929.2542170351541
 31
0.0
  0
LINE
  5
2408
330
1F
100
AcDbEntity
  8
0
100
AcDbLine
 10
1890.824983585273
 20
929.4217817017813
 30
0.0
 11
1891.804652457532
 21
929.4205984285998
 31
0.0
  0
LINE
  5
2409
330
1F
100
AcDbEntity
  8
0
100
AcDbLine
 10
1890.894067412755
 20
929.5879966974355
 30
0.0
 11
1891.735970349853
 21
929.5869798220451
 31
0.0
  0
LINE
  5
240A
330
1F
100
AcDbEntity
  8
0
100
AcDbLine
 10
1890.963151240238
 20
929.7542116930896
 30
0.0
 11
1891.667288242175
 21
929.7533612154907
 31
0.0
  0
LINE
  5
240B
330
1F
100
AcDbEntity
  8
0
100
AcDbLine
 10
1891.032235067721
 20
929.9204266887434
 30
0.0
 11
1891.598606134497
 21
929.919742608936
 31
0.0
  0
LINE
  5
240C
330
1F
100
AcDbEntity
  8
0
100
AcDbLine
 10
1891.101318895204
 20
930.0866416843975
 30
0.0
 11
1891.529924026818
 21
930.0861240023815
 31
0.0
  0
LINE
  5
240D
330
1F
100
AcDbEntity
  8
0
100
AcDbLine
 10
1891.170402722687
 20
930.2528566800518
 30
0.0
 11
1891.461241919139
 21
930.252505395827
 31
0.0
  0
LINE
  5
240E
330
1F
100
AcDbEntity
  8
0
100
AcDbLine
 10
1891.452305396243
 20
930.501833768718
 30
0.0
 11
1892.676010980418
 21
929.5851612192567
 31
0.0
  0
LINE
  5
240F
330
1F
100
AcDbEntity
  8
0
100
AcDbLine
 10
1891.418796972619
 20
930.4681697117166
 30
0.0
 11
1892.340111291541
 21
929.2500719707621
 31
0.0
  0
LINE
  5
2410
330
1F
100
AcDbEntity
  8
0
100
AcDbLine
 10
1892.996864647877
 20
929.9052407485506
 30
0.0
 11
1892.010698780567
 21
928.9214542482623
 31
0.0
  0
LINE
  5
2411
330
1F
100
AcDbEntity
  8
0
100
AcDbLine
 10
1891.942016672889
 20
929.0878356417076
 30
0.0
 11
1892.830649652223
 21
929.9743245760335
 31
0.0
  0
LINE
  5
2412
330
1F
100
AcDbEntity
  8
0
100
AcDbLine
 10
1891.873334565211
 20
929.2542170351531
 30
0.0
 11
1892.664434656569
 21
930.0434084035163
 31
0.0
  0
LINE
  5
2413
330
1F
100
AcDbEntity
  8
0
100
AcDbLine
 10
1891.804652457532
 20
929.4205984285984
 30
0.0
 11
1892.498219660915
 21
930.1124922309993
 31
0.0
  0
LINE
  5
2414
330
1F
100
AcDbEntity
  8
0
100
AcDbLine
 10
1891.735970349854
 20
929.5869798220437
 30
0.0
 11
1892.33200466526
 21
930.1815760584823
 31
0.0
  0
LINE
  5
2415
330
1F
100
AcDbEntity
  8
0
100
AcDbLine
 10
1891.667288242175
 20
929.7533612154891
 30
0.0
 11
1892.165789669606
 21
930.2506598859652
 31
0.0
  0
LINE
  5
2416
330
1F
100
AcDbEntity
  8
0
100
AcDbLine
 10
1891.598606134497
 20
929.9197426089344
 30
0.0
 11
1891.999574673952
 21
930.3197437134482
 31
0.0
  0
LINE
  5
2417
330
1F
100
AcDbEntity
  8
0
100
AcDbLine
 10
1891.529924026819
 20
930.0861240023799
 30
0.0
 11
1891.833359678298
 21
930.388827540931
 31
0.0
  0
LINE
  5
2418
330
1F
100
AcDbEntity
  8
0
100
AcDbLine
 10
1891.46124191914
 20
930.2525053958252
 30
0.0
 11
1891.667144682644
 21
930.4579113684139
 31
0.0
  0
LINE
  5
2419
330
1F
100
AcDbEntity
  8
0
100
AcDbLine
 10
1891.48452382349
 20
930.6278940756872
 30
0.0
 11
1892.997999716087
 21
930.8449992165819
 31
0.0
  0
LINE
  5
241A
330
1F
100
AcDbEntity
  8
0
100
AcDbLine
 10
1891.484633872907
 20
930.580395959128
 30
0.0
 11
1892.997426648197
 21
930.3705383888647
 31
0.0
  0
LINE
  5
241B
330
1F
100
AcDbEntity
  8
0
100
AcDbLine
 10
1892.998547114434
 20
931.2982074262931
 30
0.0
 11
1892.996864647878
 21
929.90524074855
 31
0.0
  0
LINE
  5
241C
330
1F
100
AcDbEntity
  8
0
100
AcDbLine
 10
1892.830649652223
 20
929.9743245760328
 30
0.0
 11
1892.832165720988
 21
931.2295253186146
 31
0.0
  0
LINE
  5
241D
330
1F
100
AcDbEntity
  8
0
100
AcDbLine
 10
1892.664434656569
 20
930.0434084035158
 30
0.0
 11
1892.665784327543
 21
931.1608432109363
 31
0.0
  0
LINE
  5
241E
330
1F
100
AcDbEntity
  8
0
100
AcDbLine
 10
1892.498219660916
 20
930.1124922309988
 30
0.0
 11
1892.499402934097
 21
931.0921611032577
 31
0.0
  0
LINE
  5
241F
330
1F
100
AcDbEntity
  8
0
100
AcDbLine
 10
1892.332004665261
 20
930.1815760584815
 30
0.0
 11
1892.333021540652
 21
931.0234789955794
 31
0.0
  0
LINE
  5
2420
330
1F
100
AcDbEntity
  8
0
100
AcDbLine
 10
1892.165789669607
 20
930.2506598859643
 30
0.0
 11
1892.166640147206
 21
930.9547968879007
 31
0.0
  0
LINE
  5
2421
330
1F
100
AcDbEntity
  8
0
100
AcDbLine
 10
1891.999574673953
 20
930.3197437134471
 30
0.0
 11
1892.000258753761
 21
930.8861147802224
 31
0.0
  0
LINE
  5
2422
330
1F
100
AcDbEntity
  8
0
100
AcDbLine
 10
1891.833359678299
 20
930.3888275409301
 30
0.0
 11
1891.833877360315
 21
930.8174326725438
 31
0.0
  0
LINE
  5
2423
330
1F
100
AcDbEntity
  8
0
100
AcDbLine
 10
1891.667144682645
 20
930.4579113684132
 30
0.0
 11
1891.66749596687
 21
930.7487505648655
 31
0.0
  0
LINE
  5
2424
330
1F
100
AcDbEntity
  8
0
100
AcDbLine
 10
1891.418167593979
 20
930.7398140419691
 30
0.0
 11
1892.33484014344
 21
931.963519626144
 31
0.0
  0
LINE
  5
2425
330
1F
100
AcDbEntity
  8
0
100
AcDbLine
 10
1891.45183165098
 20
930.7063056183451
 30
0.0
 11
1892.669929391935
 21
931.6276199372675
 31
0.0
  0
LINE
  5
2426
330
1F
100
AcDbEntity
  8
0
100
AcDbLine
 10
1892.014760614146
 20
932.2843732936028
 30
0.0
 11
1892.998547114434
 21
931.2982074262931
 31
0.0
  0
LINE
  5
2427
330
1F
100
AcDbEntity
  8
0
100
AcDbLine
 10
1892.832165720989
 20
931.2295253186148
 30
0.0
 11
1891.945676786663
 21
932.1181582979487
 31
0.0
  0
LINE
  5
2428
330
1F
100
AcDbEntity
  8
0
100
AcDbLine
 10
1892.665784327544
 20
931.1608432109363
 30
0.0
 11
1891.876592959181
 21
931.9519433022945
 31
0.0
  0
LINE
  5
2429
330
1F
100
AcDbEntity
  8
0
100
AcDbLine
 10
1892.499402934098
 20
931.0921611032577
 30
0.0
 11
1891.807509131697
 21
931.7857283066404
 31
0.0
  0
LINE
  5
242A
330
1F
100
AcDbEntity
  8
0
100
AcDbLine
 10
1892.333021540653
 20
931.0234789955794
 30
0.0
 11
1891.738425304215
 21
931.6195133109863
 31
0.0
  0
LINE
  5
242B
330
1F
100
AcDbEntity
  8
0
100
AcDbLine
 10
1892.166640147207
 20
930.9547968879009
 30
0.0
 11
1891.669341476731
 21
931.453298315332
 31
0.0
  0
LINE
  5
242C
330
1F
100
AcDbEntity
  8
0
100
AcDbLine
 10
1892.000258753762
 20
930.8861147802225
 30
0.0
 11
1891.600257649249
 21
931.2870833196779
 31
0.0
  0
LINE
  5
242D
330
1F
100
AcDbEntity
  8
0
100
AcDbLine
 10
1891.833877360317
 20
930.8174326725442
 30
0.0
 11
1891.531173821766
 21
931.1208683240236
 31
0.0
  0
LINE
  5
242E
330
1F
100
AcDbEntity
  8
0
100
AcDbLine
 10
1891.667495966872
 20
930.7487505648659
 30
0.0
 11
1891.462089994283
 21
930.9546533283695
 31
0.0
  0
LINE
  5
242F
330
1F
100
AcDbEntity
  8
0
100
AcDbLine
 10
1891.292107287009
 20
930.7720324692157
 30
0.0
 11
1891.075002146115
 21
932.2855083618131
 31
0.0
  0
LINE
  5
2430
330
1F
100
AcDbEntity
  8
0
100
AcDbLine
 10
1891.339605403569
 20
930.7721425186324
 30
0.0
 11
1891.549462973831
 21
932.2849352939233
 31
0.0
  0
LINE
  5
2431
330
1F
100
AcDbEntity
  8
0
100
AcDbLine
 10
1890.621793936404
 20
932.2860557601593
 30
0.0
 11
1892.014760614146
 21
932.2843732936034
 31
0.0
  0
LINE
  5
2432
330
1F
100
AcDbEntity
  8
0
100
AcDbLine
 10
1891.945676786663
 20
932.1181582979493
 30
0.0
 11
1890.690476044082
 21
932.1196743667137
 31
0.0
  0
LINE
  5
2433
330
1F
100
AcDbEntity
  8
0
100
AcDbLine
 10
1891.876592959181
 20
931.9519433022952
 30
0.0
 11
1890.75915815176
 21
931.9532929732686
 31
0.0
  0
LINE
  5
2434
330
1F
100
AcDbEntity
  8
0
100
AcDbLine
 10
1891.807509131698
 20
931.7857283066413
 30
0.0
 11
1890.827840259439
 21
931.7869115798229
 31
0.0
  0
LINE
  5
2435
330
1F
100
AcDbEntity
  8
0
100
AcDbLine
 10
1891.738425304215
 20
931.6195133109872
 30
0.0
 11
1890.896522367117
 21
931.6205301863774
 31
0.0
  0
LINE
  5
2436
330
1F
100
AcDbEntity
  8
0
100
AcDbLine
 10
1891.669341476732
 20
931.4532983153331
 30
0.0
 11
1890.965204474795
 21
931.4541487929318
 31
0.0
  0
LINE
  5
2437
330
1F
100
AcDbEntity
  8
0
100
AcDbLine
 10
1891.600257649249
 20
931.2870833196789
 30
0.0
 11
1891.033886582474
 21
931.2877673994867
 31
0.0
  0
LINE
  5
2438
330
1F
100
AcDbEntity
  8
0
100
AcDbLine
 10
1891.531173821766
 20
931.120868324025
 30
0.0
 11
1891.102568690152
 21
931.121386006041
 31
0.0
  0
LINE
  5
2439
330
1F
100
AcDbEntity
  8
0
100
AcDbLine
 10
1891.462089994283
 20
930.9546533283709
 30
0.0
 11
1891.171250797831
 21
930.9550046125957
 31
0.0
  0
LINE
  5
243A
330
1F
100
AcDbEntity
  8
0
100
AcDbLine
 10
1891.180187320728
 20
930.7056762397046
 30
0.0
 11
1889.956481736553
 21
931.6223487891656
 31
0.0
  0
LINE
  5
243B
330
1F
100
AcDbEntity
  8
0
100
AcDbLine
 10
1891.213695744352
 20
930.7393402967059
 30
0.0
 11
1890.29238142543
 21
931.9574380376604
 31
0.0
  0
LINE
  5
243C
330
1F
100
AcDbEntity
  8
0
100
AcDbLine
 10
1889.635628069094
 20
931.3022692598719
 30
0.0
 11
1890.621793936404
 21
932.2860557601602
 31
0.0
  0
LINE
  5
243D
330
1F
100
AcDbEntity
  8
0
100
AcDbLine
 10
1890.690476044082
 20
932.1196743667149
 30
0.0
 11
1889.801843064748
 21
931.233185432389
 31
0.0
  0
LINE
  5
243E
330
1F
100
AcDbEntity
  8
0
100
AcDbLine
 10
1890.759158151761
 20
931.9532929732694
 30
0.0
 11
1889.968058060402
 21
931.1641016049062
 31
0.0
  0
LINE
  5
243F
330
1F
100
AcDbEntity
  8
0
100
AcDbLine
 10
1890.827840259439
 20
931.7869115798242
 30
0.0
 11
1890.134273056057
 21
931.0950177774232
 31
0.0
  0
LINE
  5
2440
330
1F
100
AcDbEntity
  8
0
100
AcDbLine
 10
1890.896522367117
 20
931.6205301863787
 30
0.0
 11
1890.300488051711
 21
931.0259339499403
 31
0.0
  0
LINE
  5
2441
330
1F
100
AcDbEntity
  8
0
100
AcDbLine
 10
1890.965204474796
 20
931.4541487929334
 30
0.0
 11
1890.466703047365
 21
930.9568501224573
 31
0.0
  0
LINE
  5
2442
330
1F
100
AcDbEntity
  8
0
100
AcDbLine
 10
1891.033886582474
 20
931.2877673994881
 30
0.0
 11
1890.632918043019
 21
930.8877662949743
 31
0.0
  0
LINE
  5
2443
330
1F
100
AcDbEntity
  8
0
100
AcDbLine
 10
1891.102568690152
 20
931.1213860060426
 30
0.0
 11
1890.799133038673
 21
930.8186824674915
 31
0.0
  0
LINE
  5
2444
330
1F
100
AcDbEntity
  8
0
100
AcDbLine
 10
1891.171250797831
 20
930.9550046125973
 30
0.0
 11
1890.965348034328
 21
930.7495986400086
 31
0.0
  0
LINE
  5
2445
330
1F
100
AcDbEntity
  8
0
100
AcDbLine
 10
1891.147968893481
 20
930.5796159327352
 30
0.0
 11
1889.634493000883
 21
930.3625107918412
 31
0.0
  0
LINE
  5
2446
330
1F
100
AcDbEntity
  8
0
100
AcDbLine
 10
1891.147858844065
 20
930.6271140492945
 30
0.0
 11
1889.635066068774
 21
930.8369716195574
 31
0.0
  0
LINE
  5
2447
330
1F
100
AcDbEntity
  8
0
100
AcDbLine
 10
1889.633945602538
 20
929.9093025821294
 30
0.0
 11
1889.635628069093
 21
931.3022692598725
 31
0.0
  0
LINE
  5
2448
330
1F
100
AcDbEntity
  8
0
100
AcDbLine
 10
1889.801843064747
 20
931.2331854323897
 30
0.0
 11
1889.800326995983
 21
929.9779846898079
 31
0.0
  0
LINE
  5
2449
330
1F
100
AcDbEntity
  8
0
100
AcDbLine
 10
1889.968058060402
 20
931.1641016049067
 30
0.0
 11
1889.966708389428
 21
930.0466667974863
 31
0.0
  0
LINE
  5
244A
330
1F
100
AcDbEntity
  8
0
100
AcDbLine
 10
1890.134273056055
 20
931.0950177774239
 30
0.0
 11
1890.133089782874
 21
930.1153489051648
 31
0.0
  0
LINE
  5
244B
330
1F
100
AcDbEntity
  8
0
100
AcDbLine
 10
1890.30048805171
 20
931.0259339499411
 30
0.0
 11
1890.299471176319
 21
930.1840310128435
 31
0.0
  0
LINE
  5
244C
330
1F
100
AcDbEntity
  8
0
100
AcDbLine
 10
1890.466703047364
 20
930.9568501224582
 30
0.0
 11
1890.465852569765
 21
930.2527131205216
 31
0.0
  0
LINE
  5
244D
330
1F
100
AcDbEntity
  8
0
100
AcDbLine
 10
1890.632918043018
 20
930.8877662949752
 30
0.0
 11
1890.63223396321
 21
930.3213952282002
 31
0.0
  0
LINE
  5
244E
330
1F
100
AcDbEntity
  8
0
100
AcDbLine
 10
1890.799133038672
 20
930.8186824674923
 30
0.0
 11
1890.798615356656
 21
930.3900773358785
 31
0.0
  0
LINE
  5
244F
330
1F
100
AcDbEntity
  8
0
100
AcDbLine
 10
1890.965348034326
 20
930.7495986400093
 30
0.0
 11
1890.964996750101
 21
930.4587594435572
 31
0.0
  0
LINE
  5
2459
330
1F
100
AcDbEntity
  8
STREFA BEZPIECZEŃSTWA
100
AcDbLine
 10
1894.623789900268
 20
926.9524371536055
 30
0.0
 11
1887.623789900266
 21
926.9524371536046
 31
0.0
  0
LINE
  5
245A
102
{ACAD_REACTORS
330
249C
102
}
330
1F
100
AcDbEntity
  8
STREFA BEZPIECZEŃSTWA
100
AcDbLine
 10
1887.623789900266
 20
926.9524371536046
 30
0.0
 11
1887.623789900268
 21
933.9524371536056
 31
0.0
  0
LINE
  5
245B
102
{ACAD_REACTORS
330
2488
330
249C
102
}
330
1F
100
AcDbEntity
  8
STREFA BEZPIECZEŃSTWA
100
AcDbLine
 10
1887.623789900268
 20
933.9524371536056
 30
0.0
 11
1894.623789900268
 21
933.9524371536056
 31
0.0
  0
LINE
  5
245C
102
{ACAD_REACTORS
330
2488
102
}
330
1F
100
AcDbEntity
  8
STREFA BEZPIECZEŃSTWA
100
AcDbLine
 10
1894.623789900268
 20
933.9524371536056
 30
0.0
 11
1894.623789900268
 21
926.9524371536055
 31
0.0
  0
DIMENSION
  5
2475
102
{ACAD_XDICTIONARY
360
2480
102
}
102
{ACAD_REACTORS
330
2488
102
}
330
1F
100
AcDbEntity
  8
WYMIAR
100
AcDbDimension
  2
*D5
 10
1894.623789900268
 20
934.5122049705851
 30
0.0
 11
1891.123789900268
 21
934.7222049705852
 31
0.0
 70
    32
 71
     5
 42
7.0
  3
AR SKALA 1-50
100
AcDbAlignedDimension
 13
1887.623789900268
 23
933.9524371536056
 33
0.0
 14
1894.623789900268
 24
933.9524371536056
 34
0.0
100
AcDbRotatedDimension
  0
DIMENSION
  5
2489
102
{ACAD_XDICTIONARY
360
2494
102
}
102
{ACAD_REACTORS
330
249C
102
}
330
1F
100
AcDbEntity
  8
WYMIAR
100
AcDbDimension
  2
*D6
 10
1886.931592158489
 20
926.9524371536046
 30
0.0
 11
1886.721592158489
 21
930.4524371536055
 31
0.0
 70
    32
 71
     5
 42
7.000000000000909
  3
AR SKALA 1-50
100
AcDbAlignedDimension
 13
1887.623789900268
 23
933.9524371536056
 33
0.0
 14
1887.623789900266
 24
926.9524371536046
 34
0.0
 50
90.0
100
AcDbRotatedDimension
  0
VIEWPORT
  5
269
102
{ACAD_XDICTIONARY
360
26A
102
}
330
D2
100
AcDbEntity
 67
     1
  8
0
100
AcDbViewport
 10
111.8066444487175
 20
106.5553068748724
 30
0.0
 40
703.3290804654265
 41
331.8360255263911
 68
     2
 69
     1
 12
111.8066444487175
 22
106.5553068748724
 13
0.0
 23
0.0
 14
10.0
 24
10.0
 15
10.0
 25
10.0
 16
0.0
 26
0.0
 36
1.0
 17
0.0
 27
0.0
 37
0.0
 42
50.0
 43
0.0
 44
0.0
 45
331.8360255263911
 50
0.0
 51
0.0
 72
  1000
 90
   819232
  1

281
     0
 71
     1
 74
     0
110
0.0
120
0.0
130
0.0
111
1.0
121
0.0
131
0.0
112
0.0
122
1.0
132
0.0
 79
     0
146
0.0
170
     0
  0
VIEWPORT
  5
26D
102
{ACAD_XDICTIONARY
360
26E
102
}
330
D2
100
AcDbEntity
 67
     1
  8
0
100
AcDbViewport
 10
128.5
 20
97.5
 30
0.0
 40
205.6
 41
156.0
 68
     1
 69
     2
 12
1890.246651777344
 22
927.1838237273078
 13
0.0
 23
0.0
 14
10.0
 24
10.0
 15
10.0
 25
10.0
 16
0.0
 26
0.0
 36
1.0
 17
0.0
 27
0.0
 37
0.0
 42
50.0
 43
0.0
 44
0.0
 45
8.795683760524289
 50
0.0
 51
0.0
 72
  1000
 90
   557152
  1

281
     0
 71
     1
 74
     0
110
0.0
120
0.0
130
0.0
111
1.0
121
0.0
131
0.0
112
0.0
122
1.0
132
0.0
 79
     0
146
0.0
170
     0
  0
ENDSEC
  0
SECTION
  2
OBJECTS
  0
DICTIONARY
  5
C
330
0
100
AcDbDictionary
281
     1
  3
ACAD_COLOR
350
6B
  3
ACAD_GROUP
350
D
  3
ACAD_LAYOUT
350
1A
  3
ACAD_MATERIAL
350
6A
  3
ACAD_MLEADERSTYLE
350
12D
  3
ACAD_MLINESTYLE
350
17
  3
ACAD_PLOTSETTINGS
350
19
  3
ACAD_PLOTSTYLENAME
350
E
  3
ACAD_SCALELIST
350
10C
  3
ACAD_TABLESTYLE
350
7E
  3
ACAD_VISUALSTYLE
350
EF
  3
ACDB_RECOMPOSE_DATA
350
15D
  3
AcDbVariableDictionary
350
5E
  0
DICTIONARY
  5
1BE
330
2
100
AcDbDictionary
280
     1
281
     1
  3
ACAD_LAYERFILTERS
360
12AC
  3
ACAD_LAYERSTATES
360
1BF
  3
ACLYDICTIONARY
360
12AB
  0
DICTIONARY
  5
13C
330
10
100
AcDbDictionary
280
     1
281
     1
  3
ADSK_XREC_LAYER_RECONCILED
360
25F
  0
DICTIONARY
  5
1BA
330
1B9
100
AcDbDictionary
280
     1
281
     1
  3
ADSK_XREC_LAYER_RECONCILED
360
260
  0
DICTIONARY
  5
29A
330
299
100
AcDbDictionary
280
     1
281
     1
  0
DICTIONARY
  5
499
330
1F
100
AcDbDictionary
280
     1
281
     1
  3
ACAD_SORTENTS
360
49A
  0
DICTIONARY
  5
1B5C
330
19A8
100
AcDbDictionary
280
     1
281
     1
  3
ACAD_SORTENTS
360
1B5D
  0
DICTIONARY
  5
2480
330
2475
100
AcDbDictionary
280
     1
281
     1
  3
ACAD_DIMASSOC
360
2488
  0
DICTIONARY
  5
2494
330
2489
100
AcDbDictionary
280
     1
281
     1
  3
ACAD_DIMASSOC
360
249C
  0
DICTIONARY
  5
26A
330
269
100
AcDbDictionary
280
     1
281
     1
  3
ASDK_XREC_ANNOTATION_SCALE_INFO
360
26B
  0
DICTIONARY
  5
26E
330
26D
100
AcDbDictionary
280
     1
281
     1
  3
ASDK_XREC_ANNOTATION_SCALE_INFO
360
26F
  0
DICTIONARY
  5
6B
102
{ACAD_REACTORS
330
C
102
}
330
C
100
AcDbDictionary
281
     1
  0
DICTIONARY
  5
D
102
{ACAD_REACTORS
330
C
102
}
330
C
100
AcDbDictionary
281
     1
  0
DICTIONARY
  5
1A
102
{ACAD_REACTORS
330
C
102
}
330
C
100
AcDbDictionary
281
     1
  3
Arkusz1
350
D3
  3
Model
350
22
  0
DICTIONARY
  5
6A
102
{ACAD_REACTORS
330
C
102
}
330
C
100
AcDbDictionary
281
     1
  3
ByBlock
350
ED
  3
ByLayer
350
EC
  3
Global
350
EE
  0
DICTIONARY
  5
12D
102
{ACAD_REACTORS
330
C
102
}
330
C
100
AcDbDictionary
281
     1
  3
Opisowy
350
13B
  3
Standard
350
12E
  0
DICTIONARY
  5
17
102
{ACAD_REACTORS
330
C
102
}
330
C
100
AcDbDictionary
281
     1
  3
Standard
350
18
  0
DICTIONARY
  5
19
102
{ACAD_REACTORS
330
C
102
}
330
C
100
AcDbDictionary
281
     1
  0
ACDBDICTIONARYWDFLT
  5
E
102
{ACAD_REACTORS
330
C
102
}
330
C
100
AcDbDictionary
281
     1
  3
Normal
350
F
100
AcDbDictionaryWithDefault
340
F
  0
DICTIONARY
  5
10C
102
{ACAD_REACTORS
330
C
102
}
330
C
100
AcDbDictionary
281
     1
  3
A0
350
10D
  3
A1
350
188
  3
A2
350
189
  3
A3
350
18A
  3
A4
350
18B
  3
A5
350
18C
  3
A6
350
18D
  3
A7
350
18E
  3
A8
350
18F
  3
A9
350
190
  3
B0
350
191
  3
B1
350
192
  3
B2
350
193
  3
B3
350
194
  3
B4
350
195
  3
B5
350
196
  3
B6
350
197
  3
B7
350
198
  3
B8
350
199
  3
B9
350
19A
  3
C0
350
19B
  3
C1
350
19C
  3
C2
350
19D
  3
C3
350
19E
  3
C4
350
19F
  3
C5
350
1A0
  3
C6
350
1A1
  3
C7
350
1A2
  3
C8
350
1A3
  3
C9
350
1A4
  3
D0
350
1A5
  3
D1
350
1A6
  3
D2
350
1A7
  0
DICTIONARY
  5
7E
102
{ACAD_REACTORS
330
C
102
}
330
C
100
AcDbDictionary
281
     1
  3
Standard
350
7F
  0
DICTIONARY
  5
EF
102
{ACAD_REACTORS
330
C
102
}
330
C
100
AcDbDictionary
281
     1
  3
2dWireframe
350
F5
  3
3D Hidden
350
F7
  3
3dWireframe
350
F6
  3
Basic
350
F4
  3
Brighten
350
FB
  3
ColorChange
350
FF
  3
Conceptual
350
F8
  3
Dim
350
FA
  3
Facepattern
350
FE
  3
Flat
350
F0
  3
FlatWithEdges
350
F1
  3
Gouraud
350
F2
  3
GouraudWithEdges
350
F3
  3
Linepattern
350
FD
  3
Realistic
350
F9
  3
Thicken
350
FC
  0
XRECORD
  5
15D
102
{ACAD_REACTORS
330
C
102
}
330
C
100
AcDbXrecord
280
     1
 90
        1
330
7F
  0
DICTIONARY
  5
5E
102
{ACAD_REACTORS
330
C
102
}
330
C
100
AcDbDictionary
281
     1
  3
CANNOSCALE
350
146
  3
CMLEADERSTYLE
350
145
  3
CTABLESTYLE
350
84
  3
DIMASSOC
350
5F
  3
HIDETEXT
350
63
  3
LIGHTINGUNITS
350
24AA
  3
MSLTSCALE
350
24A9
  3
PSOLHEIGHT
350
24AC
  3
PSOLWIDTH
350
24AB
  0
DICTIONARY
  5
12AC
102
{ACAD_REACTORS
330
1BE
102
}
330
1BE
100
AcDbDictionary
281
     1
  0
DICTIONARY
  5
1BF
102
{ACAD_REACTORS
330
1BE
102
}
330
1BE
100
AcDbDictionary
281
     1
  0
DICTIONARY
  5
12AB
102
{ACAD_REACTORS
330
1BE
102
}
330
1BE
100
AcDbDictionary
281
     1
1001
ACAD
1000
<All
  0
XRECORD
  5
25F
102
{ACAD_REACTORS
330
13C
102
}
330
13C
100
AcDbXrecord
280
     1
290
     1
  0
XRECORD
  5
260
102
{ACAD_REACTORS
330
1BA
102
}
330
1BA
100
AcDbXrecord
280
     1
290
     1
  0
SORTENTSTABLE
  5
49A
102
{ACAD_REACTORS
330
499
102
}
330
499
100
AcDbSortentsTable
330
1F
331
18F7
  5
18F7
331
1842
  5
1842
331
1881
  5
1881
331
180B
  5
180B
331
18B8
  5
18B8
331
18C0
  5
18C0
331
184A
  5
184A
331
18FF
  5
18FF
331
1920
  5
1920
331
199E
  5
199E
331
1928
  5
1928
331
1967
  5
1967
331
196F
  5
196F
331
19A6
  5
19A6
331
1930
  5
1930
331
1938
  5
1938
331
1977
  5
1977
331
1889
  5
1889
331
18C8
  5
18C8
331
1813
  5
1813
331
1852
  5
1852
331
1891
  5
1891
331
18D0
  5
18D0
331
181B
  5
181B
331
185A
  5
185A
331
1862
  5
1862
331
1899
  5
1899
331
1823
  5
1823
331
18D8
  5
18D8
331
18E0
  5
18E0
331
182B
  5
182B
331
186A
  5
186A
331
18A1
  5
18A1
331
1940
  5
1940
331
1901
  5
1901
331
1909
  5
1909
331
1948
  5
1948
331
197F
  5
197F
331
1987
  5
1987
331
1911
  5
1911
331
1950
  5
1950
331
198F
  5
198F
331
1919
  5
1919
331
1958
  5
1958
331
1997
  5
1997
331
18A9
  5
18A9
331
18E8
  5
18E8
331
1833
  5
1833
331
1872
  5
1872
331
17FC
  5
17FC
331
18B1
  5
18B1
331
18F0
  5
18F0
331
1804
  5
1804
331
183B
  5
183B
331
187A
  5
187A
331
1882
  5
1882
331
18B9
  5
18B9
331
180C
  5
180C
331
1843
  5
1843
331
18F8
  5
18F8
331
184B
  5
184B
331
18C1
  5
18C1
331
1960
  5
1960
331
1921
  5
1921
331
1929
  5
1929
331
1968
  5
1968
331
199F
  5
199F
331
19A7
  5
19A7
331
1931
  5
1931
331
1970
  5
1970
331
1939
  5
1939
331
1853
  5
1853
331
188A
  5
188A
331
1814
  5
1814
331
18C9
  5
18C9
331
18D1
  5
18D1
331
181C
  5
181C
331
185B
  5
185B
331
1892
  5
1892
331
189A
  5
189A
331
18D9
  5
18D9
331
1824
  5
1824
331
1863
  5
1863
331
18A2
  5
18A2
331
18E1
  5
18E1
331
17F5
  5
17F5
331
182C
  5
182C
331
186B
  5
186B
331
1978
  5
1978
331
1902
  5
1902
331
1941
  5
1941
331
1949
  5
1949
331
1980
  5
1980
331
190A
  5
190A
331
1951
  5
1951
331
1988
  5
1988
331
1912
  5
1912
331
191A
  5
191A
331
1959
  5
1959
331
1990
  5
1990
331
1873
  5
1873
331
18AA
  5
18AA
331
17FD
  5
17FD
331
1834
  5
1834
331
18E9
  5
18E9
331
18F1
  5
18F1
331
183C
  5
183C
331
187B
  5
187B
331
1805
  5
1805
331
18B2
  5
18B2
331
18BA
  5
18BA
331
18F9
  5
18F9
331
1844
  5
1844
331
1883
  5
1883
331
180D
  5
180D
331
18C2
  5
18C2
331
184C
  5
184C
331
1998
  5
1998
331
1922
  5
1922
331
1961
  5
1961
331
19A0
  5
19A0
331
192A
  5
192A
331
1969
  5
1969
331
1971
  5
1971
331
1932
  5
1932
331
193A
  5
193A
331
188B
  5
188B
331
18CA
  5
18CA
331
1815
  5
1815
331
1854
  5
1854
331
185C
  5
185C
331
1893
  5
1893
331
181D
  5
181D
331
18D2
  5
18D2
331
1864
  5
1864
331
189B
  5
189B
331
1825
  5
1825
331
18DA
  5
18DA
331
18E2
  5
18E2
331
182D
  5
182D
331
186C
  5
186C
331
17F6
  5
17F6
331
18A3
  5
18A3
331
1942
  5
1942
331
1979
  5
1979
331
1903
  5
1903
331
190B
  5
190B
331
194A
  5
194A
331
1981
  5
1981
331
1989
  5
1989
331
1913
  5
1913
331
1952
  5
1952
331
195A
  5
195A
331
1991
  5
1991
331
191B
  5
191B
331
18AB
  5
18AB
331
18EA
  5
18EA
331
17FE
  5
17FE
331
1835
  5
1835
331
1874
  5
1874
331
18B3
  5
18B3
331
18F2
  5
18F2
331
1806
  5
1806
331
183D
  5
183D
331
187C
  5
187C
331
1884
  5
1884
331
18BB
  5
18BB
331
180E
  5
180E
331
1845
  5
1845
331
18FA
  5
18FA
331
184D
  5
184D
331
18C3
  5
18C3
331
1962
  5
1962
331
1999
  5
1999
331
1923
  5
1923
331
192B
  5
192B
331
196A
  5
196A
331
19A1
  5
19A1
331
1933
  5
1933
331
1972
  5
1972
331
193B
  5
193B
331
18CB
  5
18CB
331
1855
  5
1855
331
188C
  5
188C
331
1816
  5
1816
331
18D3
  5
18D3
331
181E
  5
181E
331
185D
  5
185D
331
1894
  5
1894
331
189C
  5
189C
331
18DB
  5
18DB
331
1826
  5
1826
331
1865
  5
1865
331
186D
  5
186D
331
18A4
  5
18A4
331
17F7
  5
17F7
331
182E
  5
182E
331
18E3
  5
18E3
331
197A
  5
197A
331
1904
  5
1904
331
1943
  5
1943
331
194B
  5
194B
331
1982
  5
1982
331
190C
  5
190C
331
1953
  5
1953
331
198A
  5
198A
331
1914
  5
1914
331
191C
  5
191C
331
195B
  5
195B
331
1992
  5
1992
331
1875
  5
1875
331
18AC
  5
18AC
331
17FF
  5
17FF
331
1836
  5
1836
331
18EB
  5
18EB
331
18F3
  5
18F3
331
183E
  5
183E
331
187D
  5
187D
331
1807
  5
1807
331
18B4
  5
18B4
331
18BC
  5
18BC
331
18FB
  5
18FB
331
180F
  5
180F
331
1846
  5
1846
331
1885
  5
1885
331
18C4
  5
18C4
331
184E
  5
184E
331
199A
  5
199A
331
1924
  5
1924
331
1963
  5
1963
331
196B
  5
196B
331
19A2
  5
19A2
331
192C
  5
192C
331
1973
  5
1973
331
1934
  5
1934
331
193C
  5
193C
331
188D
  5
188D
331
18CC
  5
18CC
331
1817
  5
1817
331
1856
  5
1856
331
185E
  5
185E
331
1895
  5
1895
331
181F
  5
181F
331
18D4
  5
18D4
331
18DC
  5
18DC
331
1866
  5
1866
331
189D
  5
189D
331
1827
  5
1827
331
18E4
  5
18E4
331
182F
  5
182F
331
186E
  5
186E
331
18A5
  5
18A5
331
1905
  5
1905
331
1944
  5
1944
331
197B
  5
197B
331
190D
  5
190D
331
194C
  5
194C
331
1983
  5
1983
331
198B
  5
198B
331
1915
  5
1915
331
1954
  5
1954
331
195C
  5
195C
331
1993
  5
1993
331
191D
  5
191D
331
17F8
  5
17F8
331
18AD
  5
18AD
331
18EC
  5
18EC
331
1800
  5
1800
331
1837
  5
1837
331
1876
  5
1876
331
187E
  5
187E
331
18B5
  5
18B5
331
1808
  5
1808
331
183F
  5
183F
331
18F4
  5
18F4
331
1886
  5
1886
331
18BD
  5
18BD
331
1847
  5
1847
331
18FC
  5
18FC
331
184F
  5
184F
331
18C5
  5
18C5
331
1964
  5
1964
331
199B
  5
199B
331
1925
  5
1925
331
192D
  5
192D
331
196C
  5
196C
331
19A3
  5
19A3
331
1935
  5
1935
331
1974
  5
1974
331
193D
  5
193D
331
1810
  5
1810
331
18CD
  5
18CD
331
1818
  5
1818
331
1857
  5
1857
331
188E
  5
188E
331
18D5
  5
18D5
331
1820
  5
1820
331
185F
  5
185F
331
1896
  5
1896
331
189E
  5
189E
331
18DD
  5
18DD
331
1828
  5
1828
331
1867
  5
1867
331
186F
  5
186F
331
18A6
  5
18A6
331
18E5
  5
18E5
331
197C
  5
197C
331
1906
  5
1906
331
1945
  5
1945
331
194D
  5
194D
331
1984
  5
1984
331
190E
  5
190E
331
1916
  5
1916
331
1955
  5
1955
331
198C
  5
198C
331
191E
  5
191E
331
195D
  5
195D
331
1994
  5
1994
331
17F9
  5
17F9
331
1830
  5
1830
331
18ED
  5
18ED
331
1877
  5
1877
331
18AE
  5
18AE
331
1801
  5
1801
331
1838
  5
1838
331
18F5
  5
18F5
331
1840
  5
1840
331
187F
  5
187F
331
1809
  5
1809
331
18B6
  5
18B6
331
18BE
  5
18BE
331
18FD
  5
18FD
331
1848
  5
1848
331
1887
  5
1887
331
18C6
  5
18C6
331
199C
  5
199C
331
1926
  5
1926
331
1965
  5
1965
331
196D
  5
196D
331
19A4
  5
19A4
331
192E
  5
192E
331
1975
  5
1975
331
1936
  5
1936
331
193E
  5
193E
331
1811
  5
1811
331
1850
  5
1850
331
188F
  5
188F
331
18CE
  5
18CE
331
1819
  5
1819
331
1858
  5
1858
331
1860
  5
1860
331
1897
  5
1897
331
1821
  5
1821
331
18D6
  5
18D6
331
18DE
  5
18DE
331
1829
  5
1829
331
1868
  5
1868
331
189F
  5
189F
331
18E6
  5
18E6
331
18A7
  5
18A7
331
1907
  5
1907
331
1946
  5
1946
331
197D
  5
197D
331
1985
  5
1985
331
190F
  5
190F
331
194E
  5
194E
331
198D
  5
198D
331
1917
  5
1917
331
1956
  5
1956
331
195E
  5
195E
331
1995
  5
1995
331
191F
  5
191F
331
1831
  5
1831
331
1870
  5
1870
331
17FA
  5
17FA
331
18AF
  5
18AF
331
18EE
  5
18EE
331
1802
  5
1802
331
1839
  5
1839
331
1878
  5
1878
331
1880
  5
1880
331
18B7
  5
18B7
331
180A
  5
180A
331
1841
  5
1841
331
18F6
  5
18F6
331
18FE
  5
18FE
331
18BF
  5
18BF
331
1849
  5
1849
331
18C7
  5
18C7
331
1927
  5
1927
331
1966
  5
1966
331
199D
  5
199D
331
192F
  5
192F
331
196E
  5
196E
331
19A5
  5
19A5
331
1937
  5
1937
331
1976
  5
1976
331
193F
  5
193F
331
1851
  5
1851
331
1888
  5
1888
331
1812
  5
1812
331
18CF
  5
18CF
331
181A
  5
181A
331
1859
  5
1859
331
1890
  5
1890
331
1898
  5
1898
331
18D7
  5
18D7
331
1822
  5
1822
331
1861
  5
1861
331
18A0
  5
18A0
331
18DF
  5
18DF
331
182A
  5
182A
331
1869
  5
1869
331
18E7
  5
18E7
331
1900
  5
1900
331
197E
  5
197E
331
1908
  5
1908
331
1947
  5
1947
331
194F
  5
194F
331
1986
  5
1986
331
1910
  5
1910
331
1918
  5
1918
331
1957
  5
1957
331
198E
  5
198E
331
1996
  5
1996
331
195F
  5
195F
331
1871
  5
1871
331
18A8
  5
18A8
331
17FB
  5
17FB
331
1832
  5
1832
331
18EF
  5
18EF
331
183A
  5
183A
331
1879
  5
1879
331
1803
  5
1803
331
18B0
  5
18B0
  0
SORTENTSTABLE
  5
1B5D
102
{ACAD_REACTORS
330
1B5C
102
}
330
1B5C
100
AcDbSortentsTable
330
19A8
  0
DIMASSOC
  5
2488
102
{ACAD_REACTORS
330
2480
102
}
330
2480
100
AcDbDimAssoc
330
2475
 90
        3
 70
     0
 71
     0
  1
AcDbOsnapPointRef
 72
    13
331
245B
 73
     2
 91
        0
 40
0.0
 10
0.0
 20
0.0
 30
2.000000000000000E+50
 75
     0
  1
AcDbOsnapPointRef
 72
    13
331
245C
 73
     2
 91
        0
 40
0.0
 10
0.0
 20
0.0
 30
2.000000000000000E+50
 75
     0
  0
DIMASSOC
  5
249C
102
{ACAD_REACTORS
330
2494
102
}
330
2494
100
AcDbDimAssoc
330
2489
 90
        3
 70
     0
 71
     0
  1
AcDbOsnapPointRef
 72
    13
331
245B
 73
     2
 91
        0
 40
0.0
 10
0.0
 20
0.0
 30
2.000000000000000E+50
 75
     0
  1
AcDbOsnapPointRef
 72
    13
331
245A
 73
     2
 91
        0
 40
0.0
 10
0.0
 20
0.0
 30
2.000000000000000E+50
 75
     0
  0
XRECORD
  5
26B
102
{ACAD_REACTORS
330
26A
102
}
330
26A
100
AcDbXrecord
280
     1
 90
        1
340
10D
  0
XRECORD
  5
26F
102
{ACAD_REACTORS
330
26E
102
}
330
26E
100
AcDbXrecord
280
     1
 90
        1
340
10D
  0
LAYOUT
  5
D3
102
{ACAD_XDICTIONARY
360
277
102
}
102
{ACAD_REACTORS
330
1A
102
}
330
1A
100
AcDbPlotSettings
  1

  2
none_device
  4
ISO_A4_(210.00_x_297.00_MM)
  6

 40
7.5
 41
20.0
 42
7.5
 43
20.0
 44
210.0
 45
297.0
 46
0.0
 47
0.0
 48
0.0
 49
0.0
140
0.0
141
0.0
142
1.0
143
1.0
 70
   688
 72
     1
 73
     1
 74
     5
  7

 75
    16
147
1.0
 76
     0
 77
     2
 78
   300
148
0.0
149
0.0
100
AcDbLayout
  1
Arkusz1
 70
     1
 71
     1
 10
-20.0
 20
-7.5
 11
277.0
 21
202.5
 12
0.0
 22
0.0
 32
0.0
 14
25.69999999999999
 24
19.5
 34
0.0
 15
231.3
 25
175.5
 35
0.0
146
0.0
 13
0.0
 23
0.0
 33
0.0
 16
1.0
 26
0.0
 36
0.0
 17
0.0
 27
1.0
 37
0.0
 76
     0
330
D2
331
26D
1001
ACAD_PSEXT
1000
Brak
1000
Brak
1000
Nie można zastosować.
1000
Arkusz nie zostanie wydrukowany dopóki nie wybrano konfiguracji plotera.
1070
     0
  0
LAYOUT
  5
22
102
{ACAD_REACTORS
330
1A
102
}
330
1A
100
AcDbPlotSettings
  1

  2
none_device
  4
ISO_A4_(210.00_x_297.00_MM)
  6

 40
7.5
 41
20.0
 42
7.5
 43
20.0
 44
210.0
 45
297.0
 46
11.54999923706054
 47
-13.65000009536743
 48
0.0
 49
0.0
140
0.0
141
0.0
142
1.0
143
8.704084754739808
 70
 11952
 72
     1
 73
     0
 74
     0
  7

 75
     0
147
0.1148885871608098
 76
     0
 77
     2
 78
   300
148
0.0
149
0.0
100
AcDbLayout
  1
Model
 70
     1
 71
     0
 10
0.0
 20
0.0
 11
12.0
 21
9.0
 12
0.0
 22
0.0
 32
0.0
 14
0.0
 24
0.0
 34
0.0
 15
0.0
 25
0.0
 35
0.0
146
0.0
 13
0.0
 23
0.0
 33
0.0
 16
1.0
 26
0.0
 36
0.0
 17
0.0
 27
1.0
 37
0.0
 76
     0
330
1F
331
EA
1001
ACAD_PSEXT
1000
None
1000
None
1000
Not applicable
1000
The layout will not be plotted unless a new plotter configuration name is selected.
1070
     0
  0
MATERIAL
  5
ED
102
{ACAD_XDICTIONARY
360
24B1
102
}
102
{ACAD_REACTORS
330
6A
102
}
330
6A
100
AcDbMaterial
  1
ByBlock
  0
MATERIAL
  5
EC
102
{ACAD_XDICTIONARY
360
24AF
102
}
102
{ACAD_REACTORS
330
6A
102
}
330
6A
100
AcDbMaterial
  1
ByLayer
  0
MATERIAL
  5
EE
102
{ACAD_XDICTIONARY
360
173
102
}
102
{ACAD_REACTORS
330
6A
102
}
330
6A
100
AcDbMaterial
  1
Global
 43
0.0007999999797903
 43
0.0
 43
0.0
 43
0.0
 43
0.0
 43
0.0007999999797903
 43
0.0
 43
0.0
 43
0.0
 43
0.0
 43
1.0
 43
0.0
 43
0.0
 43
0.0
 43
0.0
 43
1.0
 49
0.0007999999797903
 49
0.0
 49
0.0
 49
0.0
 49
0.0
 49
0.0007999999797903
 49
0.0
 49
0.0
 49
0.0
 49
0.0
 49
1.0
 49
0.0
 49
0.0
 49
0.0
 49
0.0
 49
1.0
142
0.0007999999797903
142
0.0
142
0.0
142
0.0
142
0.0
142
0.0007999999797903
142
0.0
142
0.0
142
0.0
142
0.0
142
1.0
142
0.0
142
0.0
142
0.0
142
0.0
142
1.0
144
0.0007999999797903
144
0.0
144
0.0
144
0.0
144
0.0
144
0.0007999999797903
144
0.0
144
0.0
144
0.0
144
0.0
144
1.0
144
0.0
144
0.0
144
0.0
144
0.0
144
1.0
1001
ACAD
1070
    -1
1070
     3
1070
     0
1000

1071
        0
1070
     0
  0
MLEADERSTYLE
  5
13B
102
{ACAD_REACTORS
330
12D
102
}
330
12D
100
AcDbMLeaderStyle
170
     2
171
     1
172
     0
 90
        2
 40
0.0
 41
0.0
173
     1
 91
-1056964608
340
14
 92
       -2
290
     1
 42
2.0
291
     1
 43
8.0
  3
Standard
 44
4.0
300

342
11
174
     1
178
     1
175
     1
176
     0
 93
-1056964608
 45
4.0
292
     0
297
     0
 46
4.0
 94
-1056964608
 47
1.0
 49
1.0
140
1.0
293
     1
141
0.0
294
     1
177
     0
142
1.0
295
     0
296
     1
143
3.75
1001
ACAD_MLEADERVER
1070
     2
  0
MLEADERSTYLE
  5
12E
102
{ACAD_REACTORS
330
12D
102
}
330
12D
100
AcDbMLeaderStyle
170
     2
171
     1
172
     0
 90
        2
 40
0.0
 41
0.0
173
     1
 91
-1056964608
340
14
 92
       -2
290
     1
 42
2.0
291
     1
 43
8.0
  3
Standard
 44
4.0
300

342
11
174
     1
178
     1
175
     1
176
     0
 93
-1056964608
 45
4.0
292
     0
297
     0
 46
4.0
 94
-1056964608
 47
1.0
 49
1.0
140
1.0
293
     1
141
0.0
294
     1
177
     0
142
1.0
295
     0
296
     0
143
3.75
1001
ACAD_MLEADERVER
1070
     2
  0
MLINESTYLE
  5
18
102
{ACAD_REACTORS
330
17
102
}
330
17
100
AcDbMlineStyle
  2
STANDARD
 70
     0
  3

 62
   256
 51
90.0
 52
90.0
 71
     2
 49
0.5
 62
   256
  6
BYLAYER
 49
-0.5
 62
   256
  6
BYLAYER
  0
ACDBPLACEHOLDER
  5
F
102
{ACAD_REACTORS
330
E
102
}
330
E
  0
SCALE
  5
10D
102
{ACAD_REACTORS
330
10C
102
}
330
10C
100
AcDbScale
 70
     0
300
1:1
140
1.0
141
1.0
290
     1
  0
SCALE
  5
188
102
{ACAD_REACTORS
330
10C
102
}
330
10C
100
AcDbScale
 70
     0
300
1:2
140
1.0
141
2.0
290
     0
  0
SCALE
  5
189
102
{ACAD_REACTORS
330
10C
102
}
330
10C
100
AcDbScale
 70
     0
300
1:4
140
1.0
141
4.0
290
     0
  0
SCALE
  5
18A
102
{ACAD_REACTORS
330
10C
102
}
330
10C
100
AcDbScale
 70
     0
300
1:5
140
1.0
141
5.0
290
     0
  0
SCALE
  5
18B
102
{ACAD_REACTORS
330
10C
102
}
330
10C
100
AcDbScale
 70
     0
300
1:8
140
1.0
141
8.0
290
     0
  0
SCALE
  5
18C
102
{ACAD_REACTORS
330
10C
102
}
330
10C
100
AcDbScale
 70
     0
300
1:10
140
1.0
141
10.0
290
     0
  0
SCALE
  5
18D
102
{ACAD_REACTORS
330
10C
102
}
330
10C
100
AcDbScale
 70
     0
300
1:16
140
1.0
141
16.0
290
     0
  0
SCALE
  5
18E
102
{ACAD_REACTORS
330
10C
102
}
330
10C
100
AcDbScale
 70
     0
300
1:20
140
1.0
141
20.0
290
     0
  0
SCALE
  5
18F
102
{ACAD_REACTORS
330
10C
102
}
330
10C
100
AcDbScale
 70
     0
300
1:30
140
1.0
141
30.0
290
     0
  0
SCALE
  5
190
102
{ACAD_REACTORS
330
10C
102
}
330
10C
100
AcDbScale
 70
     0
300
1:40
140
1.0
141
40.0
290
     0
  0
SCALE
  5
191
102
{ACAD_REACTORS
330
10C
102
}
330
10C
100
AcDbScale
 70
     0
300
1:50
140
1.0
141
50.0
290
     0
  0
SCALE
  5
192
102
{ACAD_REACTORS
330
10C
102
}
330
10C
100
AcDbScale
 70
     0
300
1:100
140
1.0
141
100.0
290
     0
  0
SCALE
  5
193
102
{ACAD_REACTORS
330
10C
102
}
330
10C
100
AcDbScale
 70
     0
300
2:1
140
2.0
141
1.0
290
     0
  0
SCALE
  5
194
102
{ACAD_REACTORS
330
10C
102
}
330
10C
100
AcDbScale
 70
     0
300
4:1
140
4.0
141
1.0
290
     0
  0
SCALE
  5
195
102
{ACAD_REACTORS
330
10C
102
}
330
10C
100
AcDbScale
 70
     0
300
8:1
140
8.0
141
1.0
290
     0
  0
SCALE
  5
196
102
{ACAD_REACTORS
330
10C
102
}
330
10C
100
AcDbScale
 70
     0
300
10:1
140
10.0
141
1.0
290
     0
  0
SCALE
  5
197
102
{ACAD_REACTORS
330
10C
102
}
330
10C
100
AcDbScale
 70
     0
300
100:1
140
100.0
141
1.0
290
     0
  0
SCALE
  5
198
102
{ACAD_REACTORS
330
10C
102
}
330
10C
100
AcDbScale
 70
     0
300
1/128" = 1'-0"
140
0.0078125
141
12.0
290
     0
  0
SCALE
  5
199
102
{ACAD_REACTORS
330
10C
102
}
330
10C
100
AcDbScale
 70
     0
300
1/64" = 1'-0"
140
0.015625
141
12.0
290
     0
  0
SCALE
  5
19A
102
{ACAD_REACTORS
330
10C
102
}
330
10C
100
AcDbScale
 70
     0
300
1/32" = 1'-0"
140
0.03125
141
12.0
290
     0
  0
SCALE
  5
19B
102
{ACAD_REACTORS
330
10C
102
}
330
10C
100
AcDbScale
 70
     0
300
1/16" = 1'-0"
140
0.0625
141
12.0
290
     0
  0
SCALE
  5
19C
102
{ACAD_REACTORS
330
10C
102
}
330
10C
100
AcDbScale
 70
     0
300
3/32" = 1'-0"
140
0.09375
141
12.0
290
     0
  0
SCALE
  5
19D
102
{ACAD_REACTORS
330
10C
102
}
330
10C
100
AcDbScale
 70
     0
300
1/8" = 1'-0"
140
0.125
141
12.0
290
     0
  0
SCALE
  5
19E
102
{ACAD_REACTORS
330
10C
102
}
330
10C
100
AcDbScale
 70
     0
300
3/16" = 1'-0"
140
0.1875
141
12.0
290
     0
  0
SCALE
  5
19F
102
{ACAD_REACTORS
330
10C
102
}
330
10C
100
AcDbScale
 70
     0
300
1/4" = 1'-0"
140
0.25
141
12.0
290
     0
  0
SCALE
  5
1A0
102
{ACAD_REACTORS
330
10C
102
}
330
10C
100
AcDbScale
 70
     0
300
3/8" = 1'-0"
140
0.375
141
12.0
290
     0
  0
SCALE
  5
1A1
102
{ACAD_REACTORS
330
10C
102
}
330
10C
100
AcDbScale
 70
     0
300
1/2" = 1'-0"
140
0.5
141
12.0
290
     0
  0
SCALE
  5
1A2
102
{ACAD_REACTORS
330
10C
102
}
330
10C
100
AcDbScale
 70
     0
300
3/4" = 1'-0"
140
0.75
141
12.0
290
     0
  0
SCALE
  5
1A3
102
{ACAD_REACTORS
330
10C
102
}
330
10C
100
AcDbScale
 70
     0
300
1" = 1'-0"
140
1.0
141
12.0
290
     0
  0
SCALE
  5
1A4
102
{ACAD_REACTORS
330
10C
102
}
330
10C
100
AcDbScale
 70
     0
300
1-1/2" = 1'-0"
140
1.5
141
12.0
290
     0
  0
SCALE
  5
1A5
102
{ACAD_REACTORS
330
10C
102
}
330
10C
100
AcDbScale
 70
     0
300
3" = 1'-0"
140
3.0
141
12.0
290
     0
  0
SCALE
  5
1A6
102
{ACAD_REACTORS
330
10C
102
}
330
10C
100
AcDbScale
 70
     0
300
6" = 1'-0"
140
6.0
141
12.0
290
     0
  0
SCALE
  5
1A7
102
{ACAD_REACTORS
330
10C
102
}
330
10C
100
AcDbScale
 70
     0
300
1'-0" = 1'-0"
140
12.0
141
12.0
290
     0
  0
TABLESTYLE
  5
7F
102
{ACAD_XDICTIONARY
360
162
102
}
102
{ACAD_REACTORS
330
7E
102
}
330
7E
100
AcDbTableStyle
  3
Standard
 70
     0
 71
     0
 40
1.5
 41
1.5
280
     0
281
     0
  7
Standard
140
4.5
170
     2
 62
     0
 63
     7
283
     0
274
    -2
284
     1
 64
     0
275
    -2
285
     1
 65
     0
276
    -2
286
     1
 66
     0
277
    -2
287
     1
 67
     0
278
    -2
288
     1
 68
     0
279
    -2
289
     1
 69
     0
  7
Standard
140
6.0
170
     5
 62
     0
 63
     7
283
     0
274
    -2
284
     1
 64
     0
275
    -2
285
     1
 65
     0
276
    -2
286
     1
 66
     0
277
    -2
287
     1
 67
     0
278
    -2
288
     1
 68
     0
279
    -2
289
     1
 69
     0
  7
Standard
140
4.5
170
     5
 62
     0
 63
     7
283
     0
274
    -2
284
     1
 64
     0
275
    -2
285
     1
 65
     0
276
    -2
286
     1
 66
     0
277
    -2
287
     1
 67
     0
278
    -2
288
     1
 68
     0
279
    -2
289
     1
 69
     0
  0
VISUALSTYLE
  5
F5
102
{ACAD_REACTORS
330
EF
102
}
330
EF
100
AcDbVisualStyle
  2
2dWireframe
 70
     4
 71
     0
 72
     2
 73
     1
 90
        0
 40
-0.6
 41
-30.0
 62
     5
 63
     7
421
 16777215
 74
     1
 91
        4
 64
     7
 65
   257
 75
     1
175
     1
 42
1.0
 92
        0
 66
   257
 43
1.0
 76
     1
 77
     6
 78
     2
 67
     7
 79
     5
170
     0
171
     0
290
     0
174
     0
 93
        1
 44
0.0
173
     0
291
     0
 45
0.0
1001
ACAD
1000
AcDbSavedByObjectVersion
1070
     0
  0
VISUALSTYLE
  5
F7
102
{ACAD_REACTORS
330
EF
102
}
330
EF
100
AcDbVisualStyle
  2
3D Hidden
 70
     6
 71
     1
 72
     2
 73
     2
 90
        0
 40
-0.6
 41
-30.0
 62
     5
 63
     7
421
 16777215
 74
     2
 91
        2
 64
     7
 65
   257
 75
     2
175
     1
 42
40.0
 92
        0
 66
   257
 43
1.0
 76
     1
 77
     6
 78
     2
 67
     7
 79
     3
170
     0
171
     0
290
     0
174
     0
 93
        1
 44
0.0
173
     0
291
     0
 45
0.0
1001
ACAD
1000
AcDbSavedByObjectVersion
1070
     0
  0
VISUALSTYLE
  5
F6
102
{ACAD_REACTORS
330
EF
102
}
330
EF
100
AcDbVisualStyle
  2
3dWireframe
 70
     5
 71
     0
 72
     2
 73
     1
 90
        0
 40
-0.6
 41
-30.0
 62
     5
 63
     7
421
 16777215
 74
     1
 91
        4
 64
     7
 65
   257
 75
     1
175
     1
 42
1.0
 92
        0
 66
   257
 43
1.0
 76
     1
 77
     6
 78
     2
 67
     7
 79
     5
170
     0
171
     0
290
     0
174
     0
 93
        1
 44
0.0
173
     0
291
     0
 45
0.0
1001
ACAD
1000
AcDbSavedByObjectVersion
1070
     0
  0
VISUALSTYLE
  5
F4
102
{ACAD_REACTORS
330
EF
102
}
330
EF
100
AcDbVisualStyle
  2
Basic
 70
     7
 71
     1
 72
     0
 73
     1
 90
        0
 40
-0.6
 41
-30.0
 62
     5
 63
     7
421
 16777215
 74
     0
 91
        4
 64
     7
 65
   257
 75
     1
175
     1
 42
1.0
 92
        8
 66
     7
 43
1.0
 76
     1
 77
     6
 78
     2
 67
     7
 79
     5
170
     0
171
     0
290
     0
174
     0
 93
        1
 44
0.0
173
     0
291
     1
 45
0.0
1001
ACAD
1000
AcDbSavedByObjectVersion
1070
     0
  0
VISUALSTYLE
  5
FB
102
{ACAD_REACTORS
330
EF
102
}
330
EF
100
AcDbVisualStyle
  2
Brighten
 70
    12
 71
     2
 72
     2
 73
     1
 90
        0
 40
-0.6
 41
-30.0
 62
     5
 63
     7
421
 16777215
 74
     1
 91
        4
 64
     7
 65
   257
 75
     1
175
     1
 42
1.0
 92
        8
 66
     7
 43
1.0
 76
     1
 77
     6
 78
     2
 67
     7
 79
     5
170
     0
171
     0
290
     0
174
     0
 93
        1
 44
50.0
173
     0
291
     1
 45
0.0
1001
ACAD
1000
AcDbSavedByObjectVersion
1070
     0
  0
VISUALSTYLE
  5
FF
102
{ACAD_REACTORS
330
EF
102
}
330
EF
100
AcDbVisualStyle
  2
ColorChange
 70
    16
 71
     2
 72
     2
 73
     3
 90
        0
 40
-0.6
 41
-30.0
 62
     5
 63
     8
421
  8421504
 74
     1
 91
        4
 64
     7
 65
   257
 75
     1
175
     1
 42
1.0
 92
        8
 66
     8
424
  8421504
 43
1.0
 76
     1
 77
     6
 78
     2
 67
     7
 79
     5
170
     0
171
     0
290
     0
174
     0
 93
        1
 44
0.0
173
     0
291
     1
 45
0.0
1001
ACAD
1000
AcDbSavedByObjectVersion
1070
     0
  0
VISUALSTYLE
  5
F8
102
{ACAD_REACTORS
330
EF
102
}
330
EF
100
AcDbVisualStyle
  2
Conceptual
 70
     9
 71
     3
 72
     2
 73
     1
 90
        0
 40
-0.6
 41
-30.0
 62
     5
 63
     7
421
 16777215
 74
     2
 91
        2
 64
     7
 65
   257
 75
     1
175
     1
 42
40.0
 92
        8
 66
     7
 43
1.0
 76
     1
 77
     6
 78
     2
 67
     7
 79
     3
170
     0
171
     0
290
     0
174
     0
 93
        1
 44
0.0
173
     0
291
     0
 45
0.0
1001
ACAD
1000
AcDbSavedByObjectVersion
1070
     0
  0
VISUALSTYLE
  5
FA
102
{ACAD_REACTORS
330
EF
102
}
330
EF
100
AcDbVisualStyle
  2
Dim
 70
    11
 71
     2
 72
     2
 73
     1
 90
        0
 40
-0.6
 41
-30.0
 62
     5
 63
     7
421
 16777215
 74
     1
 91
        4
 64
     7
 65
   257
 75
     1
175
     1
 42
1.0
 92
        8
 66
     7
 43
1.0
 76
     1
 77
     6
 78
     2
 67
     7
 79
     5
170
     0
171
     0
290
     0
174
     0
 93
        1
 44
-50.0
173
     0
291
     1
 45
0.0
1001
ACAD
1000
AcDbSavedByObjectVersion
1070
     0
  0
VISUALSTYLE
  5
FE
102
{ACAD_REACTORS
330
EF
102
}
330
EF
100
AcDbVisualStyle
  2
Facepattern
 70
    15
 71
     2
 72
     2
 73
     1
 90
        0
 40
-0.6
 41
-30.0
 62
     5
 63
     7
421
 16777215
 74
     1
 91
        4
 64
     7
 65
   257
 75
     1
175
     1
 42
1.0
 92
        8
 66
     7
 43
1.0
 76
     1
 77
     6
 78
     2
 67
     7
 79
     5
170
     0
171
     0
290
     0
174
     0
 93
        1
 44
0.0
173
     0
291
     1
 45
0.0
1001
ACAD
1000
AcDbSavedByObjectVersion
1070
     0
  0
VISUALSTYLE
  5
F0
102
{ACAD_REACTORS
330
EF
102
}
330
EF
100
AcDbVisualStyle
  2
Flat
 70
     0
 71
     2
 72
     1
 73
     1
 90
        2
 40
-0.6
 41
30.0
 62
     5
 63
     7
421
 16777215
 74
     0
 91
        4
 64
     7
 65
   257
 75
     1
175
     1
 42
1.0
 92
        8
 66
     7
 43
1.0
 76
     1
 77
     6
 78
     2
 67
     7
 79
     5
170
     0
171
     0
290
     0
174
     0
 93
        1
 44
0.0
173
     0
291
     1
 45
0.0
1001
ACAD
1000
AcDbSavedByObjectVersion
1070
     0
  0
VISUALSTYLE
  5
F1
102
{ACAD_REACTORS
330
EF
102
}
330
EF
100
AcDbVisualStyle
  2
FlatWithEdges
 70
     1
 71
     2
 72
     1
 73
     1
 90
        2
 40
-0.6
 41
30.0
 62
     5
 63
     7
421
 16777215
 74
     1
 91
        4
 64
     7
 65
   257
 75
     1
175
     1
 42
1.0
 92
        0
 66
   257
 43
1.0
 76
     1
 77
     6
 78
     2
 67
     7
 79
     5
170
     0
171
     0
290
     0
174
     0
 93
        1
 44
0.0
173
     0
291
     1
 45
0.0
1001
ACAD
1000
AcDbSavedByObjectVersion
1070
     0
  0
VISUALSTYLE
  5
F2
102
{ACAD_REACTORS
330
EF
102
}
330
EF
100
AcDbVisualStyle
  2
Gouraud
 70
     2
 71
     2
 72
     2
 73
     1
 90
        2
 40
-0.6
 41
30.0
 62
     5
 63
     7
421
 16777215
 74
     0
 91
        4
 64
     7
 65
   257
 75
     1
175
     1
 42
1.0
 92
        0
 66
     7
 43
1.0
 76
     1
 77
     6
 78
     2
 67
     7
 79
     5
170
     0
171
     0
290
     0
174
     0
 93
        1
 44
0.0
173
     0
291
     1
 45
0.0
1001
ACAD
1000
AcDbSavedByObjectVersion
1070
     0
  0
VISUALSTYLE
  5
F3
102
{ACAD_REACTORS
330
EF
102
}
330
EF
100
AcDbVisualStyle
  2
GouraudWithEdges
 70
     3
 71
     2
 72
     2
 73
     1
 90
        2
 40
-0.6
 41
30.0
 62
     5
 63
     7
421
 16777215
 74
     1
 91
        4
 64
     7
 65
   257
 75
     1
175
     1
 42
1.0
 92
        0
 66
   257
 43
1.0
 76
     1
 77
     6
 78
     2
 67
     7
 79
     5
170
     0
171
     0
290
     0
174
     0
 93
        1
 44
0.0
173
     0
291
     1
 45
0.0
1001
ACAD
1000
AcDbSavedByObjectVersion
1070
     0
  0
VISUALSTYLE
  5
FD
102
{ACAD_REACTORS
330
EF
102
}
330
EF
100
AcDbVisualStyle
  2
Linepattern
 70
    14
 71
     2
 72
     2
 73
     1
 90
        0
 40
-0.6
 41
-30.0
 62
     5
 63
     7
421
 16777215
 74
     1
 91
        4
 64
     7
 65
   257
 75
     7
175
     7
 42
1.0
 92
        8
 66
     7
 43
1.0
 76
     1
 77
     6
 78
     2
 67
     7
 79
     5
170
     0
171
     0
290
     0
174
     0
 93
        1
 44
0.0
173
     0
291
     1
 45
0.0
1001
ACAD
1000
AcDbSavedByObjectVersion
1070
     0
  0
VISUALSTYLE
  5
F9
102
{ACAD_REACTORS
330
EF
102
}
330
EF
100
AcDbVisualStyle
  2
Realistic
 70
     8
 71
     2
 72
     2
 73
     1
 90
        0
 40
-0.6
 41
-30.0
 62
     5
 63
     7
421
 16777215
 74
     1
 91
        0
 64
     7
 65
   257
 75
     1
175
     1
 42
1.0
 92
        8
 66
     8
424
  7895160
 43
1.0
 76
     1
 77
     6
 78
     2
 67
     7
 79
     5
170
     0
171
     0
290
     0
174
     0
 93
       13
 44
0.0
173
     0
291
     0
 45
0.0
1001
ACAD
1000
AcDbSavedByObjectVersion
1070
     0
  0
VISUALSTYLE
  5
FC
102
{ACAD_REACTORS
330
EF
102
}
330
EF
100
AcDbVisualStyle
  2
Thicken
 70
    13
 71
     2
 72
     2
 73
     1
 90
        0
 40
-0.6
 41
-30.0
 62
     5
 63
     7
421
 16777215
 74
     1
 91
        4
 64
     7
 65
   257
 75
     1
175
     1
 42
1.0
 92
       12
 66
     7
 43
1.0
 76
     1
 77
     6
 78
     2
 67
     7
 79
     5
170
     0
171
     0
290
     0
174
     0
 93
        1
 44
0.0
173
     0
291
     1
 45
0.0
1001
ACAD
1000
AcDbSavedByObjectVersion
1070
     0
  0
DICTIONARYVAR
  5
146
102
{ACAD_REACTORS
330
5E
102
}
330
5E
100
DictionaryVariables
280
     0
  1
1:1
  0
DICTIONARYVAR
  5
145
102
{ACAD_REACTORS
330
5E
102
}
330
5E
100
DictionaryVariables
280
     0
  1
STANDARD
  0
DICTIONARYVAR
  5
84
102
{ACAD_REACTORS
330
5E
102
}
330
5E
100
DictionaryVariables
280
     0
  1
STANDARD
  0
DICTIONARYVAR
  5
5F
102
{ACAD_REACTORS
330
5E
102
}
330
5E
100
DictionaryVariables
280
     0
  1
2
  0
DICTIONARYVAR
  5
63
102
{ACAD_REACTORS
330
5E
102
}
330
5E
100
DictionaryVariables
280
     0
  1
1
  0
DICTIONARYVAR
  5
24AA
102
{ACAD_REACTORS
330
5E
102
}
330
5E
100
DictionaryVariables
280
     0
  1
2
  0
DICTIONARYVAR
  5
24A9
102
{ACAD_REACTORS
330
5E
102
}
330
5E
100
DictionaryVariables
280
     0
  1
1
  0
DICTIONARYVAR
  5
24AC
102
{ACAD_REACTORS
330
5E
102
}
330
5E
100
DictionaryVariables
280
     0
  1
80.000000
  0
DICTIONARYVAR
  5
24AB
102
{ACAD_REACTORS
330
5E
102
}
330
5E
100
DictionaryVariables
280
     0
  1
5.000000
  0
DICTIONARY
  5
277
330
D3
100
AcDbDictionary
280
     1
281
     1
  3
ADSK_XREC_LAYOUTTHUMBNAIL
360
278
  0
DICTIONARY
  5
24B1
330
ED
100
AcDbDictionary
280
     1
281
     1
  3
ACAD_XREC_ROUNDTRIP
360
24B2
  0
DICTIONARY
  5
24AF
330
EC
100
AcDbDictionary
280
     1
281
     1
  3
ACAD_XREC_ROUNDTRIP
360
24B0
  0
DICTIONARY
  5
173
330
EE
100
AcDbDictionary
280
     1
281
     1
  3
ACAD_XREC_ROUNDTRIP
360
24B3
  3
BUMPTILE
360
175
  3
DIFFUSETILE
360
174
  3
OPACITYTILE
360
176
  3
REFLECTIONTILE
360
177
  0
DICTIONARY
  5
162
330
7F
100
AcDbDictionary
280
     1
281
     1
  3
ACAD_ROUNDTRIP_2008_TABLESTYLE_CELLSTYLEMAP
360
24AD
  3
ACAD_XREC_ROUNDTRIP
360
24AE
  0
XRECORD
  5
278
102
{ACAD_REACTORS
330
277
102
}
330
277
100
AcDbXrecord
280
     1
310
28000000B40000007F00000001000800000000004C59000000000000000000000001000000000000FFFFFF0000000000FFFFFF000000000000000000000000000000000000000000000000000000000000000000330000006600000099000000CC000000FF00000000330000333300006633000099330000CC330000FF3300
310
0000660000336600006666000099660000CC660000FF66000000990000339900006699000099990000CC990000FF99000000CC000033CC000066CC000099CC0000CCCC0000FFCC000000FF000033FF000066FF000099FF0000CCFF0000FFFF000000003300330033006600330099003300CC003300FF003300003333003333
310
33006633330099333300CC333300FF33330000663300336633006666330099663300CC663300FF66330000993300339933006699330099993300CC993300FF99330000CC330033CC330066CC330099CC3300CCCC3300FFCC330000FF330033FF330066FF330099FF3300CCFF3300FFFF330000006600330066006600660099
310
006600CC006600FF00660000336600333366006633660099336600CC336600FF33660000666600336666006666660099666600CC666600FF66660000996600339966006699660099996600CC996600FF99660000CC660033CC660066CC660099CC6600CCCC6600FFCC660000FF660033FF660066FF660099FF6600CCFF6600
310
FFFF660000009900330099006600990099009900CC009900FF00990000339900333399006633990099339900CC339900FF33990000669900336699006666990099669900CC669900FF66990000999900339999006699990099999900CC999900FF99990000CC990033CC990066CC990099CC9900CCCC9900FFCC990000FF99
310
0033FF990066FF990099FF9900CCFF9900FFFF99000000CC003300CC006600CC009900CC00CC00CC00FF00CC000033CC003333CC006633CC009933CC00CC33CC00FF33CC000066CC003366CC006666CC009966CC00CC66CC00FF66CC000099CC003399CC006699CC009999CC00CC99CC00FF99CC0000CCCC0033CCCC0066CC
310
CC0099CCCC00CCCCCC00FFCCCC0000FFCC0033FFCC0066FFCC0099FFCC00CCFFCC00FFFFCC000000FF003300FF006600FF009900FF00CC00FF00FF00FF000033FF003333FF006633FF009933FF00CC33FF00FF33FF000066FF003366FF006666FF009966FF00CC66FF00FF66FF000099FF003399FF006699FF009999FF00CC
310
99FF00FF99FF0000CCFF0033CCFF0066CCFF0099CCFF00CCCCFF00FFCCFF0000FFFF0033FFFF0066FFFF0099FFFF00CCFFFF00FFFFFF00000000000D0D0D001A1A1A00282828003535350043434300505050005D5D5D006B6B6B00787878008686860093939300A1A1A100AEAEAE00BBBBBB00C9C9C900D6D6D600E4E4E400
310
F1F1F100FFFFFF0000000000000000000000000000000000000000000000000000000000000000000000000000000000E2E2E2E2E2E2E2E2E2E2E2E2E2E2E2E2E2E2E2E2E2E2E2E2E2E2E2E2E2E2E2E2E2E2E2E2E2E2E2E2E2E2E2E2E2E2E2E2E2E2E2E2E2E2E2E2E2E2E2E2E2E2E2E2E2E2E2E2E2E2E2E2E2E2E2E2E2E2E2
310
E2E2E2E2E2E2E2E2E2E2E2E2E2E2E2E2E2E2E2E2E2E2E2E2E2E2E2E2E2E2E2E2E2E2E2E2E2E2E2E2E2E2E2E2E2E2E2E2E2E2E2E2E2E2E2E2E2E2E2E2E2E2E2E2E2E2E2E2E2E2E2E2E2E2E2E2E2E2E2E2E2E2E2E2E2E2E2E2E2E2E2E2E2E2E2E2E2E2E2E2E2E2F5F5F5F5F5F5F5F5F5F5F5F5F5F5F5F5F5F5F5F5F5F5F5F5F5
310
F5F5F5F5F5F5F5F5F5F5F5F5F5F5F5F5F5F5F5F5F5F5F5F5F5F5F5F5F5F5F5F5F5F5F5F5F5F5F5F5F5F5F5F5F5F5F5F5F5F5F5F5F5F5F5F5F5F5F5F5F5F5F5F5F5F5F5F5F5F5F5F5F5F5F5F5F5F5F5F5F5F5F5F5F5F5F5F5F5F5F5F5F5F5F5F5F5F5F5F5F5F5F5F5F5F5F5F5F5F5F5F5F5F5F5F5F5F5F5F5F5F5F5F5F5F5F5
310
F5F5F5F5F5F5F5F5F5F5F5F5F5F5F5F5F5F5F5F5F5F5F5F5F5E2E2E2F5F5F5F5F5F5F5F5F5F5F5F5F5F5F5F5F5F5F5F5F5F5F5F5F5F5F5F5F5F5F5F5F5F5F5F5F5F5F5F5F5F5F5F5F5F5F5F5F5F5F5F5F5F5F5F5F5F5F5F5F5F5F5F5F5F5F5F5F5F5F5F5F5F5F5F5F5F5F5F5F5F5F5F5F5F5F5F5F5F5F5F5F5F5F5F5F5F5F5
310
F5F5F5F5F5F5F5F5F5F5F5F5F5F5F5F5F5F5F5F5F5F5F5F5F5F5F5F5F5F5F5F5F5F5F5F5F5F5F5F5F5F5F5F5F5F5F5F5F5F5F5F5F5F5F5F5F5F5F5F5F5F5F5F5F5F5F5F5F5F5F5F5F5F5F5F5F5F5E2E2E2F5F5F5F5F5F5F5F5F5F5F5F5F5F5F5F5F5F5F5F5F5F5F5F5F5F5F5F5F5F5F5F5F5F5F5F5F5F5F5F5F5F5F5F5F5F5
310
F5F5F5F5F5F5F5F5F5F5F5F5F5F5F5F5F5F5F5F5F5F5F5F5F5F5F5F5F5F5F5F5F5F5F5F5F5F5F5F5F5F5F5F5F5F5F5F5F5F5F5F5F5F5F5F5F5F5F5F5F5F5F5F5F5F5F5F5F5F5F5F5F5F5F5F5F5F5F5F5F5F5F5F5F5F5F5F5F5F5F5F5F5F5F5F5F5F5F5F5F5F5F5F5F5F5F5F5F5F5F5F5F5F5F5F5F5F5F5F5F5F5F5F5F5F5F5
310
F5F5F5F5E2E2E2F5F5F5F5F5F5F5F5F5F5F5F5F5F5F5F5F5F5F5F5F5F5F5F5F5F5F5F5F5F5F5F5F5F5F5F5F5F5F5F5F5F5F5F5F5F5F5F5F5F5F5F5F5F5F5F5F5F5F5F5F5F5F5F5F5F5F5F5F5F5F5F5F5F5F5F5F5F5F5F5F5F5F5F5F5F5F5F5F5F5F5F5F5F5F5F5F5F5F5F5F5F5F5F5F5F5F5F5F5F5F5F5F5F5F5F5F5F5F5F5
310
F5F5F5F5F5F5F5F5F5F5F5F5F5F5F5F5F5F5F5F5F5F5F5F5F5F5F5F5F5F5F5F5F5F5F5F5F5F5F5F5F5F5F5F5F5F5F5F5F5F5F5F5F5F5F5F5F5E2E2E2F5F5F5F5F5F5F5F5F5F5F5E2E2E2E2E2E2E2E2E2F5F5F5F5F5F5F5F5F5E2E2E2E2E2E2E2E2E2E2E2E2E2E2E2E2F5F5F5F5F5F5F5F5F5F5E2E2E2E2E2E2E2E2E2E2E2E2
310
E2E2E2E2F5F5F5F5F5F5F5F5F5E2E2E2E2E2E2E2E2E2E2E2E2E2E2E2E2E2F5F5F5F5F5F5F5F5F5E2E2E2E2E2E2E2E2E2E2E2E2E2E2E2E2F5F5F5F5F5F5F5F5F5F5E2E2E2E2E2E2E2E2E2E2E2E2E2E2E2E2F5F5F5F5F5F5F5F5F5E2E2E2E2E2E2E2E2E2F5F5F5F5F5F5F5F5F5F5F5E2E2E2F5F5F5F5F5F5F5F5F5F5F5E2F5F5
310
F5F5F5F5F5F5F5F5F5F5F5F5F5F5F5F5F5F5F5F5F5F5F5F5F5F5F5F5F5F5F5F5F5F5F5F5F5F5F5F5F5F5F5F5F5F5F5F5F5F5F5F5F5F5F5F5F5F5F5F5F5F5F5F5F5F5F5F5F5F5F5F5F5F5F5F5F5F5F5F5F5F5F5F5F5F5F5F5F5F5F5F5F5F5F5F5F5F5F5F5F5F5F5F5F5F5F5F5F5F5F5F5F5F5F5F5F5F5F5F5F5F5F5F5F5F5F5
310
F5F5F5F5F5F5F5F5F5F5F5F5F5F5F5F5F5F5F5F5F5F5F5F5E2F5F5F5F5F5F5F5F5F5F5F5E2E2E2F5F5F5F5F5F5F5F5F5F5F5E2F5F5F5F5F5F5F5F5F5F5F5F5F5F5F5F5F5F5F5F5F5F5F5F5F5F5F5F5F5F5F5F5F5F5F5F5F5F5F5F5F5F5F5F5F5F5F5F5F5F5F5F5F5F5F5F5F5F5F5F5F5F5F5F5F5F5F5F5F5F5F5F5F5F5F5F5
310
F5F5F5F5F5F5F5F5F5F5F5F5F5F5F5F5F5F5F5F5F5F5F5F5F5F5F5F5F5F5F5F5F5F5F5F5F5F5F5F5F5F5F5F5F5F5F5F5F5F5F5F5F5F5F5F5F5F5F5F5F5F5F5F5F5F5F5F5F5F5F5F5F5F5F5F5F5E2F5F5F5F5F5F5F5F5F5F5F5E2E2E2F5F5F5F5F5F5F5F5F5F5F5E2F5F5F5F5F5F5F5F5F5F5F5F5F5F5F5F5F5F5F5F5F5F5F5
310
F5F5F5F5F5F5F5F5F5F5F5F5F5F5F5F5F5F5F5F5F5F5F5F5F5F5F5F5F5F5F5F5F5F5F5F5F5F5F5F5F5F5F5F5F5F5F5F5F5F5F5F5F5F5F5F5F5F5F5F5F5F5F5F5F5F5F5F5F5F5F5F5F5F5F5F5F5F5F5F5F5F5F5F5F5F5F5F5F5F5F5F5F5F5F5F5F5F5F5F5F5F5F5F5F5F5F5F5F5F5F5F5F5F5F5F5F5F5F5F5F5F5F5F5F5F5F5
310
F5F5F5E2F5F5F5F5F5F5F5F5F5F5F5E2E2E2F5F5F5F5F5F5F5F5F5F5F5E2F5F5F5F5F5F5F5F5F5F5F5F5F5F5F5F5F5F5F5F5F5F5F5F5F5F5F5F5F5F5F5F5F5F5F5F5F5F5F5F5F5F5F5F5F5F5F5F5F5F5F5F5F5F5F5F5F5F5F5F5F5F5F5F5F5F5F5F5F5F5F5F5F5F5F5F5F5F5F5F5F5F5F5F5F5F5F5F5F5F5F5F5F5F5F5F5F5
310
F5F5F5F5F5F5F5F5F5F5F5F5F5F5F5F5F5F5F5F5F5F5F5F5F5F5F5F5F5F5F5F5F5F5F5F5F5F5F5F5F5F5F5F5F5F5F5F5F5F5F5F5F5F5F5F5E2F5F5F5F5F5F5F5F5F5F5F5E2E2E2F5F5F5F5F5F5F5F5F5F5F5E2F5F5F5F5F5F5F5F5F5F5F5F5F5F5F5F5F5F5F5F5F5F5F5F5F5F5F5F5F5F5F5F5F5F5F5F5F5F5F5F5F5F5F5F5
310
F5F5F5F5F5F5F5F5F5F5F5F5F5F5F5F5F5F5F5F5F5F5F5F5F5F5F5F5F5F5F5F5F5F5F5F5F5F5F5F5F5F5F5F5F5F5F5F5F5F5F5F5F5F5F5F5F5F5F5F5F5F5F5F5F5F5F5F5F5F5F5F5F5F5F5F5F5F5F5F5F5F5F5F5F5F5F5F5F5F5F5F5F5F5F5F5F5F5F5F5F5F5F5F5F5F5F5F5F5E2F5F5F5F5F5F5F5F5F5F5F5E2E2E2F5F5F5
310
F5F5F5F5F5F5F5F5E2F5F5F5F5F5F5F5F5F5F5F5F5F5F5F5F5F5F5F5F5F5F5F5F5F5F5F5F5F5F5F5F5F5F5F5F5F5F5F5F5F5F5F5F5F5F5F5F5F5F5F5F5F5F5F5F5F5F5F5F5F5F5F5F5F5F5F5F5F5F5F5F5F5F5F5F5F5F5F5F5F5F5F5F5F5F5F5F5F5F5F5F5F5F5F5F5F5F5F5F5F5F5F5F5F5F5F5F5F5F5F5F5F5F5F5F5F5F5
310
F5F5F5F5F5F5F5F5F5F5F5F5F5F5F5F5F5F5F5F5F5F5F5F5F5F5F5F5F5F5F5F5F5F5F5E2F5F5F5F5F5F5F5F5F5F5F5E2E2E2F5F5F5F5F5F5F5F5F5F5F5E2F5F5F5F5F5F5F5F5F5F5F5F5F5F5F5F5F5F5F5F5F5F5F5F5F5F5F5F5F5F5F5F5F5F5F5F5F5F5F5F5F5F5F5F5F5F5F5F5F5F5F5F5F5F5F5F5F5F5F5F5F5F5F5F5F5
310
F5F5F5F5F5F5F5F5F5F5F5F5F5F5F5F5F5F5F5F5F5F5F5F5F5F5F5F5F5F5F5F5F5F5F5F5F5F5F5F5F5F5F5F5F5F5F5F5F5F5F5F5F5F5F5F5F5F5F5F5F5F5F5F5F5F5F5F5F5F5F5F5F5F5F5F5F5F5F5F5F5F5F5F5F5F5F5F5E2F5F5F5F5F5F5F5F5F5F5F5E2E2E2F5F5F5F5F5F5F5F5F5F5F5F5F5F5F5F5F5F5F5F5F5F5F5F5
310
F5F5F5F5F5F5F5F5F5F5F5F5F5F5F5F5F5F5F5F5F5F5F5F5F5F5F5F5F5F5F5F5F5F5F5F5F5F5F5F5F5F5F5F5F5F5F5F5F5F5F5F5F5F5F5F5F5F5F5F5F5F5F5F5F5F5F5F5F5F5F5F5F5F5F5F5F5F5F5F5F5F5F5F5F5F5F5F5F5F5F5F5F5F5F5F5F5F5F5F5F5F5F5F5F5F5F5F5F5F5F5F5F5F5F5F5F5F5F5F5F5F5F5F5F5F5F5
310
F5F5F5F5F5F5F5F5F5F5F5F5F5F5F5F5F5F5F5F5F5F5F5F5F5F5E2E2E2F5F5F5F5F5F5F5F5F5F5F5F5F5F5F5F5F5F5F5F5F5F5F5F5F5F5F5F5F5F5F5F5F5F5F5F5F5F5F5F5F5F5F5F5F5F5F5F5F5F5F5F5F5F5F5F5F5F5F5F5F5F5F5F5F5F5F5F5F5F5F5F5F5F5F5F5F5F5F5F5F5F5F5F5F5F5F5F5F5F5F5F5F5F5F5F5F5F5
310
F5F5F5F5F5F5F5F5F5F5F5F5F5F5F5F5F5F5F5F5F5F5F5F5F5F5F5F5F5F5F5F5F5F5F5F5F5F5F5F5F5F5F5F5F5F5F5F5F5F5F5F5F5F5F5F5F5F5F5F5F5F5F5F5F5F5F5F5F5F5F5F5F5F5F5F5F5F5F5E2E2E2F5F5F5F5F5F5F5F5F5F5F5F5F5F5F5F5F5F5F5F5F5F5F5F5F5F5F5F5F5F5F5F5F5F5F5F5F5F5F5F5F5F5F5F5F5
310
F5F5F5F5F5F5F5F5F5F5F5F5F5F5F5F5F5F5F5F5F5F5F5F5F5F5F5F5F5F5F5F5F5F5F5F5F5F5F5F5F5F5F5F5F5F5F5F5F5F5F5F5F5F5F5F5F5F5F5F5F5F5F5F5F5F5F5F5F5F5F5F5F5F5F5F5F5F5F5F5F5F5F5F5F5F5F5F5F5F5F5F5F5F5F5F5F5F5F5F5F5F5F5F5F5F5F5F5F5F5F5F5F5F5F5F5F5F5F5F5F5F5F5F5F5F5F5
310
F5F5F5F5F5E2E2E2F5F5F5F5F5F5F5F5F5F5F5F5F5F5F5F5F5F5F5F5F5F5F5F5F5F5E2E2E2E2E2E2E2E2E2E2E2E2E2E2E2E2E2E2E2E2E2E2E2E2E2E2E2E2E2E2E2E2E2E2E2E2E2E2E2E2E2E2E2E2E2E2E2E2E2E2E2E2E2E2E2E2E2E2E2E2E2E2E2E2E2E2E2E2E2E2E2E2E2E2E2E2E2E2E2E2E2E2E2E2E2E2E2E2E2E2E2E2E2
310
E2E2E2E2E2E2E2E2E2E2E2E2E2E2E2E2E2E2E2E2E2E2E2E2E2E2E2E2E2E2E2E2F5F5F5F5F5F5F5F5F5F5F5F5F5F5F5F5F5F5F5F5F5F5F5F5F5F5E2E2E2F5F5F5F5F5F5F5F5F5F5F5F5F5F5F5F5F5F5F5F5F5F5F5F5F5F5E2F5F5F5F5F5F5F5F5F5F5F5F5F5F5F5F5F5F5F5F5F5F5F5F5F5F5F5F5F5F5F5F5F5F5F5F5F5F5F5
310
F5F5F5F5F5F5F5F5F5F5F5F5F5F5F5F5F5F5F5F5F5F5F5F5F5F5F5F5F5F5F5F5F5F5F5F5F5F5F5F5F5F5F5F5F5F5F5F5F5F5F5F5F5F5F5F5F5F5F5F5F5F5F5F5F5F5F5F5F5F5F5F5F5F5F5F5F5F5F5F5F5F5F5F5E2F5F5F5F5F5F5F5F5F5F5F5F5F5F5F5F5F5F5F5F5F5F5F5F5F5F5E2E2E2F5F5F5F5F5F5F5F5F5F5F5F5F5
310
F5F5F5F5F5F5F5F5F5F5F5F5F5E2F5F5F5F5F5F5F5F5F5F5F5F5F5F5F5F5F5F5F5F5F5F5F5F5F5F5F5F5F5F5F5F5F5F5F5F5F5F5F5F5F5F5F5F5F5F5F5F5F5F5F5F5F5F5F5F5F5F5F5F5F5F5F5F5F5F5F5F5F5F5F5F5F5F5F5F5F5F5F5F5F5F5F5F5F5F5F5F5F5F5F5F5F5F5F5F5F5F5F5F5F5F5F5F5F5F5F5F5F5F5F5F5F5
310
F5F5F5F5F5F5F5F5F5F5E2F5F5F5F5F5F5F5F5F5F5F5F5F5F5F5F5F5F5F5F5F5F5F5F5F5F5E2E2E2F5F5F5F5F5F5F5F5F5F5F5F5F5F5F5F5F5F5F5F5F5F5F5F5F5F5E2F5F5F5F5F5F5F5F5F5F5F5F5F5F5F5F5F5F5F5F5F5F5F5F5F5F5F5F5F5F5F5F5F5F5F5F5F5F5F5F5F5F5F5F5F5F5F5F5F5F5F5F5F5F5F5F5F5F5F5F5
310
F5F5F5F5F5F5F5F5F5F5F5F5F5F5F5F5F5F5F5F5F5F5F5F5F5F5F5F5F5F5F5F5F5F5F5F5F5F5F5F5F5F5F5F5F5F5F5F5F5F5F5F5F5F5F5F5F5F5F5F5F5F5F5E2F5F5F5F5F5F5F5F5F5F5F5F5F5F5F5F5F5F5F5F5F5F5F5F5F5F5E2E2E2F5F5F5F5F5F5F5F5F5F5F5F5F5F5F5F5F5F5F5F5F5F5F5F5F5F5E2F5F5F5F5F5F5F5
310
F5F5F5F5F5F5F5F5F5F5F5F5F5F5F5F5F5F5F5F5F5F5F5F5F5E2E2E2E2E2E2E2E2E2E2E2E2E2E2E2E2E2E2E2E2E2E2E2E2E2E2E2E2E2E2E2E2E2E2E2E2E2E2E2E2E2E2E2E2E2E2E2E2E2E2E2E2E2F5F5F5F5F5F5F5F5F5F5F5F5F5F5F5F5F5F5F5F5F5F5F5F5F5F5F5F5F5F5F5F5F5F5F5F5F5F5E2F5F5F5F5F5F5F5F5F5F5
310
F5F5F5F5F5F5F5F5F5F5F5F5F5F5F5F5E2E2E2F5F5F5F5F5F5F5F5F5F5F5E2F5F5F5F5F5F5F5F5F5F5F5F5F5F5E2F5F5F5F5F5F5F5F5F5F5F5F5F5F5F5F5F5F5F5F5F5F5F5F5F5F5F5F5F5F5F5F5E2E2E2E2E2E2E2E2E2E2E2E2E2E2E2E2E2E2E2E2E2E2E2E2E2E2E2E2E2E2E2E2E2E2E2E2E2E2E2E2E2E2E2E2E2E2E2E2E2
310
E2E2E2E2F5F5F5F5F5F5F5F5F5F5F5F5F5F5F5F5F5F5F5F5F5F5F5F5F5F5F5F5F5F5F5F5F5F5F5F5F5F5E2F5F5F5F5F5F5F5F5F5F5F5F5F5F5E2F5F5F5F5F5F5F5F5F5F5F5E2E2E2F5F5F5F5F5F5F5F5F5F5F5E2F5F5F5F5F5F5F5F5F5F5F5F5F5F5E2F5F5F5F5F5F5F5F5F5F5F5F5F5F5F5F5F5F5F5F5F5F5F5F5F5F5F5F5
310
F5F5F5F5E2E2E2E2E2E2E2E2E2E2E2E2E2E2E2E2E2E2E2E2E2E2E2E2E2E2E2E2E2E2E2E2E2E2E2E2E2E2E2E2E2E2E2E2E2E2E2E2E2E2E2E2E2F5F5F5F5F5F5F5F5F5F5F5F5F5F5F5F5F5F5F5F5F5F5F5F5F5F5F5F5F5F5F5F5F5F5F5F5F5F5E2F5F5F5F5F5F5F5F5F5F5F5F5F5F5E2F5F5F5F5F5F5F5F5F5F5F5E2E2E2F5F5
310
F5F5F5F5F5F5F5F5F5E2F5F5F5F5F5F5F5F5F5F5F5F5F5F5E2F5F5F5F5F5F5F5F5F5F5F5F5F5F5F5F5F5F5F5F5F5F5F5F5F5F5F5F5F5F5F5F5E2E2E2E2E2E2E2E2E2E2E2E2E2E2E2E2E2E2E2E2E2E2E2E2E2E2E2E2E2E2E2E2E2E2E2E2E2E2E2E2E2E2E2E2E2E2E2E2E2E2E2E2E2F5F5F5F5F5F5F5F5F5F5F5F5F5F5F5F5F5
310
F5F5F5F5F5F5F5F5F5F5F5F5F5F5F5F5F5F5F5F5F5E2F5F5F5F5F5F5F5F5F5F5F5F5F5F5E2F5F5F5F5F5F5F5F5F5F5F5E2E2E2F5F5F5F5F5F5F5F5F5F5F5E2F5F5F5F5F5F5F5F5F5F5F5F5F5F5E2F5F5F5F5F5F5F5F5F5F5F5F5F5F5F5F5F5F5F5F5F5F5F5F5F5F5F5F5F5F5F5F5E2E2E2E2E2E2E2E2E2E2E2E2E2E2E2E2E2
310
E2E2E2E2E2E2E2E2E2E2E2E2E2E2E2E2E2E2E2E2E2E2E2E2E2E2E2E2E2E2E2E2E2E2E2E2F5F5F5F5F5F5F5F5F5F5F5F5F5F5F5F5F5F5F5F5F5F5F5F5F5F5F5F5F5F5F5F5F5F5F5F5F5F5E2F5F5F5F5F5F5F5F5F5F5F5F5F5F5E2F5F5F5F5F5F5F5F5F5F5F5E2E2E2F5F5F5F5F5F5F5F5F5F5F5E2F5F5F5F5F5F5F5F5F5F5F5
310
F5F5F5E2F5F5F5F5F5F5F5F5F5F5F5F5F5F5F5F5F5F5F5F5F5F5F5F5F5F5F5F5F5F5F5F5E2E2E2E2E2E2E2E2E2E2E2E2E2E2E2E2E2E2E2E2E2E2E2E2E2E2E2E2E2E2E2E2E2E2E2E2E2E2E2E2E2E2E2E2E2E2E2E2E2E2E2E2E2F5F5F5F5F5F5F5F5F5F5F5F5F5F5F5F5F5F5F5F5F5F5F5F5F5F5F5F5F5F5F5F5F5F5F5F5F5F5
310
E2F5F5F5F5F5F5F5F5F5F5F5F5F5F5E2F5F5F5F5F5F5F5F5F5F5F5E2E2E2F5F5F5F5F5F5F5F5F5F5F5E2F5F5F5F5F5F5F5F5F5F5F5F5F5F5E2F5F5F5F5F5F5F5F5F5F5F5F5F5F5F5F5F5F5F5F5F5F5F5F5F5F5F5F5F5F5F5F5E2E2E2E2E2E2E2E2E2E2E2E2E2E2E2E2E2E2E2E2E2E2E2E2E2E2E2E2E2E2E2E2E2E2E2E2E2E2
310
E2E2E2E2E2E2E2E2E2E2E2E2E2E2E2F5F5F5F5F5F5F5F5F5F5F5F5F5F5F5F5F5F5F5F5F5F5F5F5F5F5F5F5F5F5F5F5F5F5F5F5F5F5E2F5F5F5F5F5F5F5F5F5F5F5F5F5F5E2F5F5F5F5F5F5F5F5F5F5F5E2E2E2F5F5F5F5F5F5F5F5F5F5F5E2F5F5F5F5F5F5F5F5F5F5F5F5F5F5E2F5F5F5F5F5F5F5F5F5F5F5F5F5F5F5F5F5
310
F5F5F5F5F5F5F5F5F5F5F5F5F5F5F5F5F5F5F5F5F5F5F5F5F5F5F5F5F5F5F5F5F5F5F5F5F5F5F5F5F5F5F5F5F5F5F5F5F5F5F5F5F5F5F5F5F5F5F5F5F5F5F5F5F5F5F5F5F5F5F5F5F5F5F5F5F5F5F5F5F5F5F5F5F5F5F5F5F5F5F5F5F5F5F5F5F5F5F5F5F5F5F5F5F5F5E2F5F5F5F5F5F5F5F5F5F5F5F5F5F5E2F5F5F5F5F5
310
F5F5F5F5F5F5E2E2E2F5F5F5F5F5F5F5F5F5F5F5E2F5F5F5F5F5F5F5F5F5F5F5F5F5F5E2F5F5F5F5F5F5F5F5F5F5F5F5F5F5F5F5F5F5F5F5F5F5F5F5F5F5F5F5F5F5F5F5F5F5F5F5F5F5F5F5F5F5F5F5F5F5F5F5F5F5F5F5F5F5F5F5F5F5F5F5F5F5F5F5F5F5F5F5F5F5F5F5F5F5F5F5F5F5F5F5F5F5F5F5F5F5F5F5F5F5F5
310
F5F5F5F5F5F5F5F5F5F5F5F5F5F5F5F5F5F5F5F5F5F5F5F5F5F5F5F5F5F5F5F5E2F5F5F5F5F5F5F5F5F5F5F5F5F5F5E2F5F5F5F5F5F5F5F5F5F5F5E2E2E2F5F5F5F5F5F5F5F5F5F5F5E2F5F5F5F5F5F5F5F5F5F5F5F5F5F5E2F5F5F5F5F5F5F5F5F5F5F5F5F5F5F5F5F5F5F5F5F5F5F5F5F5F5F5F5F5F5F5F5F5F5F5F5F5F5
310
F5F5F5F5F5F5F5F5F5F5F5F5F5F5F5F5F5F5F5F5F5F5F5F5F5F5F5F5F5F5F5F5F5F5F5F5F5F5F5F5F5F5F5F5F5F5F5F5F5F5F5F5F5F5F5F5F5F5F5F5F5F5F5F5F5F5F5F5F5F5F5F5F5F5F5F5F5F5F5F5F5F5F5F5F5E2F5F5F5F5F5F5F5F5F5F5F5F5F5F5E2F5F5F5F5F5F5F5F5F5F5F5E2E2E2F5F5F5F5F5F5F5F5F5F5F5E2
310
F5F5F5F5F5F5F5F5F5F5F5F5F5F5E2F5F5F5F5F5F5F5F5F5F5F5F5F5F5F5F5F5F5F5F5F5F5F5F5F5F5F5F5F5F5F5F5F5F5F5F5F5F5F5F5F5F5F5F5F5F5F5F5F5F5F5F5F5F5F5F5F5F5F5F5F5F5F5F5F5F5F5F5F5F5F5F5F5F5F5F5F5F5F5F5F5F5F5F5F5F5F5F5F5F5F5F5F5F5F5F5F5F5F5F5F5F5F5F5F5F5F5F5F5F5F5F5
310
F5F5F5F5F5F5F5F5F5F5F5E2F5F5F5F5F5F5F5F5F5F5F5F5F5F5E2F5F5F5F5F5F5F5F5F5F5F5E2E2E2F5F5F5F5F5F5F5F5F5F5F5E2F5F5F5F5F5F5F5F5F5F5F5F5F5F5E2F5F5F5F5F5F5F5F5F5F5F5F5F5F5F5F5F5F5F5F5F5F5F5F5F5F5F5F5F5F5F5F5F5F5F5F5F5F5F5F5F5F5F5F5F5F5F5F5F5F5F5F5F5F5F5F5F5F5F5
310
F5F5F5F5F5F5F5F5F5F5F5F5F5F5F5F5F5F5F5F5F5F5F5F5F5F5F5F5F5F5F5F5F5F5F5F5F5F5F5F5F5F5F5F5F5F5F5F5F5F5F5F5F5F5F5F5F5F5F5F5F5F5F5F5E2F5F5F5F5F5F5F5F5F5F5F5F5F5F5E2F5F5F5F5F5F5F5F5F5F5F5E2E2E2F5F5F5F5F5F5F5F5F5F5F5E2F5F5F5F5F5F5F5F5F5F5F5F5F5F5E2F5F5F5F5F5F5
310
F5F5F5F5F5F5F5F5F5F5F5F5F5F5F5F5F5F5F5F5F5F5F5F5F5F5F5F5F5F5F5F5F5F5F5F5F5F5F5F5F5F5F5F5F5F5F5F5F5F5F5F5F5F5F5F5F5F5F5F5F5F5F5F5F5F5F5F5F5F5F5F5F5F5F5F5F5F5F5F5F5F5F5F5F5F5F5F5F5F5F5F5F5F5F5F5F5F5F5F5F5F5F5F5F5F5F5F5F5F5F5F5F5F5F5F5F5E2F5F5F5F5F5F5F5F5F5
310
F5F5F5F5F5E2F5F5F5F5F5F5F5F5F5F5F5E2E2E2F5F5F5F5F5F5F5F5F5F5F5E2F5F5F5F5F5F5F5F5F5F5F5F5F5F5E2F5F5F5F5F5F5F5F5F5F5F5F5F5F5F5F5F5F5F5F5F5F5F5F5F5F5F5F5F5F5F5F5F5F5F5F5F5F5F5F5F5F5F5F5F5F5F5F5F5F5F5F5F5F5F5F5F5F5F5F5F5F5F5E2E2E2E2E2E2F5F5F5F5F5F5F5F5F5F5F5
310
F5F5F5F5F5F5F5F5F5F5F5F5F5F5F5F5F5F5F5F5F5F5F5F5F5F5F5F5F5F5F5F5F5F5F5F5F5F5F5F5F5F5F5E2F5F5F5F5F5F5F5F5F5F5F5F5F5F5E2F5F5F5F5F5F5F5F5F5F5F5E2E2E2F5F5F5F5F5F5F5F5F5F5F5E2F5F5F5F5F5F5F5F5F5F5F5F5F5F5E2F5F5F5F5F5F5F5F5F5F5F5F5F5F5F5F5F5F5F5F5F5F5F5F5F5F5F5
310
F5F5F5F5F5F5F5F5F5F5F5F5F5F5F5F5F5F5F5F5F5F5F5F5F5F5F5F5F5F5E2E2E2E2E2E2F5F5F5F5F5F5E2E2E2E2E2E2F5F5F5F5F5F5F5F5F5F5F5F5F5F5F5F5F5F5F5F5F5F5F5F5F5F5F5F5F5F5F5F5F5F5F5F5F5F5F5F5F5F5F5F5F5F5F5F5E2F5F5F5F5F5F5F5F5F5F5F5F5F5F5E2F5F5F5F5F5F5F5F5F5F5F5E2E2E2F5
310
F5F5F5F5F5F5F5F5F5F5E2F5F5F5F5F5F5F5F5F5F5F5F5F5F5E2F5F5F5F5F5F5F5F5F5F5F5F5F5F5F5F5F5F5F5F5F5F5F5F5F5F5F5F5F5F5F5F5F5F5F5F5F5F5F5F5F5F5F5F5F5F5F5F5F5F5F5F5F5F5F5E2E2F5F5F5F5F5F5F5F5F5F5F5F5F5F5F5F5F5F5E2E2F5F5F5F5F5F5F5F5F5F5F5F5F5F5F5F5F5F5F5F5F5F5F5F5
310
F5F5F5F5F5F5F5F5F5F5F5F5F5F5F5F5F5F5F5F5F5F5E2F5F5F5F5F5F5F5F5F5F5F5F5F5F5E2F5F5F5F5F5F5F5F5F5F5F5E2E2E2F5F5F5F5F5F5F5F5F5F5F5F5F5F5F5F5F5F5F5F5F5F5F5F5F5F5E2F5F5F5F5F5F5F5F5F5F5F5F5F5F5F5F5F5F5F5F5F5F5F5F5F5F5F5F5F5F5F5F5F5F5F5F5F5F5F5F5F5F5F5F5F5F5F5F5
310
F5F5F5E2E2E2E2F5F5F5F5F5F5F5F5F5F5F5F5F5F5F5F5F5F5F5F5F5F5E2E2E2F5F5F5F5F5F5F5F5F5F5F5F5F5F5F5F5F5F5F5F5F5F5F5F5F5F5F5F5F5F5F5F5F5F5F5F5F5F5F5F5F5F5F5E2F5F5F5F5F5F5F5F5F5F5F5F5F5F5F5F5F5F5F5F5F5F5F5F5F5F5E2E2E2F5F5F5F5F5F5F5F5F5F5F5F5F5F5F5F5F5F5F5F5F5F5
310
F5F5F5F5E2F5F5F5F5F5F5F5F5F5F5F5F5F5F5F5F5F5F5F5F5F5F5F5F5F5F5F5F5F5F5F5F5F5F5F5F5F5F5F5F5F5F5F5F5F5F5F5F5F5F5E2F5F5F5F5F5F5F5F5F5F5F5F5F5F5F5F5F5F5F5F5F5F5F5F5F5F5F5F5F5E2E2F5F5F5F5F5F5F5F5F5F5F5F5F5F5F5F5F5F5F5F5F5F5F5F5F5F5F5F5F5F5F5F5F5F5F5F5F5F5F5F5
310
F5E2F5F5F5F5F5F5F5F5F5F5F5F5F5F5F5F5F5F5F5F5F5F5F5F5F5F5E2E2E2F5F5F5F5F5F5F5F5F5F5F5F5F5F5F5F5F5F5F5F5F5F5F5F5F5F5E2F5F5F5F5F5F5F5F5F5F5F5F5F5F5F5F5F5F5F5F5F5F5F5F5F5F5F5F5F5F5F5F5F5F5F5F5F5F5F5F5F5F5F5F5F5F5F5F5E2E2F5F5F5F5F5F5F5F5F5F5F5F5F5F5F5F5F5F5F5
310
F5F5F5F5F5F5F5F5F5F5F5F5F5E2E2F5F5F5F5F5F5F5F5F5F5F5F5F5F5F5F5F5F5F5F5F5F5F5F5F5F5F5F5F5F5F5F5F5F5F5F5F5F5F5E2F5F5F5F5F5F5F5F5F5F5F5F5F5F5F5F5F5F5F5F5F5F5F5F5F5F5E2E2E2F5F5F5F5F5F5F5F5F5F5F5F5F5F5F5F5F5F5F5F5F5F5F5F5F5F5E2F5F5F5F5F5F5F5F5F5F5F5F5F5F5F5F5
310
F5F5F5F5F5F5F5F5F5F5F5F5F5F5F5F5F5F5F5F5F5F5F5F5F5F5F5F5F5F5E2E2F5F5F5F5F5F5F5F5F5F5F5F5F5F5F5F5F5F5F5F5F5F5F5F5F5F5F5F5F5F5F5F5F5F5F5F5E2E2F5F5F5F5F5F5F5F5F5F5F5F5F5F5F5F5F5F5F5F5F5F5F5F5F5F5F5F5F5F5F5F5F5F5F5F5F5E2F5F5F5F5F5F5F5F5F5F5F5F5F5F5F5F5F5F5F5
310
F5F5F5F5F5F5F5E2E2E2F5F5F5F5F5F5F5F5F5F5F5F5F5F5F5F5F5F5F5F5F5F5F5F5F5F5E2F5F5F5F5F5F5F5F5F5F5F5F5F5F5F5F5F5F5F5F5F5F5F5F5F5F5F5F5F5F5F5F5F5F5F5F5F5F5F5F5F5F5F5F5E2E2F5F5F5F5F5F5F5F5F5F5F5F5F5F5F5F5F5F5F5F5F5F5F5F5F5F5F5F5F5F5F5F5F5F5F5F5F5F5F5F5E2E2F5F5
310
F5F5F5F5F5F5F5F5F5F5F5F5F5F5F5F5F5F5F5F5F5F5F5F5F5F5F5F5F5F5F5F5F5E2F5F5F5F5F5F5F5F5F5F5F5F5F5F5F5F5F5F5F5F5F5F5F5F5F5F5E2E2E2F5F5F5F5F5F5F5F5F5F5F5F5F5F5F5F5F5F5F5F5F5F5F5F5F5F5E2F5F5F5F5F5F5F5F5F5F5F5F5F5F5F5F5F5F5F5F5F5F5F5F5F5F5F5F5F5F5F5F5F5F5F5F5F5
310
F5F5F5F5F5F5F5E2F5F5F5F5F5F5F5F5F5F5F5F5F5F5F5F5F5F5F5F5F5F5F5F5F5F5F5F5F5F5F5F5F5F5F5F5F5F5F5F5F5F5F5E2F5F5F5F5F5F5F5F5F5F5F5F5F5F5F5F5F5F5F5F5F5F5F5F5F5F5F5F5F5F5F5F5F5F5E2F5F5F5F5F5F5F5F5F5F5F5F5F5F5F5F5F5F5F5F5F5F5F5F5F5F5E2E2E2F5F5F5F5F5F5F5F5F5F5F5
310
F5F5F5F5F5F5F5F5F5F5F5F5F5F5F5E2F5F5F5F5F5F5F5F5F5F5F5F5F5F5F5F5F5F5F5F5F5F5F5F5F5F5F5F5F5F5F5F5F5F5F5F5F5F5F5F5F5F5F5E2F5F5F5F5F5F5F5F5F5F5F5F5F5F5F5F5F5F5F5F5F5F5F5F5F5F5F5F5F5F5F5F5F5F5F5F5F5F5F5F5F5F5F5F5E2F5F5F5F5F5F5F5F5F5F5F5F5F5F5F5F5F5F5F5F5F5F5
310
F5F5F5F5F5F5F5F5F5F5F5F5E2F5F5F5F5F5F5F5F5F5F5F5F5F5F5F5F5F5F5F5F5F5F5F5F5F5F5E2E2E2F5F5F5F5F5F5F5F5F5F5F5F5F5F5F5F5F5F5F5F5F5F5F5F5F5F5E2F5F5F5F5F5F5F5F5F5F5F5F5F5F5F5F5F5F5F5F5F5F5F5F5F5F5F5F5F5F5F5F5F5F5F5F5F5F5F5F5F5E2E2F5F5F5F5F5F5F5F5F5F5F5F5F5F5F5
310
F5F5F5F5F5F5F5F5F5F5F5F5F5F5F5F5F5F5F5F5F5F5F5F5F5F5F5F5F5F5F5E2E2F5F5F5F5F5F5F5F5F5F5F5F5F5F5F5F5F5F5F5F5F5F5F5F5F5F5F5F5F5F5F5F5E2F5F5F5F5F5F5F5F5F5F5F5F5F5F5F5F5F5F5F5F5F5F5F5F5F5F5E2E2E2F5F5F5F5F5F5F5F5F5F5F5E2F5F5F5F5F5F5F5F5F5F5F5F5F5F5E2F5F5F5F5F5
310
F5F5F5F5F5F5F5F5F5F5F5F5F5F5F5F5F5F5F5F5F5F5F5F5F5F5F5F5F5F5F5F5F5F5F5F5E2F5F5F5F5F5F5F5F5F5F5F5F5F5F5F5F5F5F5F5F5F5F5F5F5F5F5F5F5F5F5F5F5F5F5F5F5F5F5F5F5F5F5F5F5F5F5F5F5F5E2F5F5F5F5F5F5F5F5F5F5F5F5F5F5F5F5F5F5F5F5F5F5F5F5F5F5F5F5F5F5F5E2F5F5F5F5F5F5F5F5
310
F5F5F5F5F5F5E2F5F5F5F5F5F5F5F5F5F5F5E2E2E2F5F5F5F5F5F5F5F5F5F5F5E2F5F5F5F5F5F5F5F5F5F5F5F5F5F5E2F5F5F5F5F5F5F5F5F5F5F5F5F5F5F5F5F5F5F5F5F5F5F5F5F5F5F5F5F5F5F5F5F5F5F5F5F5F5F5F5E2F5F5F5F5F5F5F5F5F5F5F5F5F5F5F5F5F5F5F5F5F5F5F5F5F5F5F5F5F5F5F5F5F5F5F5F5F5F5
310
F5F5F5F5F5F5F5F5F5F5F5F5E2F5F5F5F5F5F5F5F5F5F5F5F5F5F5F5F5F5F5F5F5F5F5F5F5F5F5F5F5F5F5F5E2F5F5F5F5F5F5F5F5F5F5F5F5F5F5E2F5F5F5F5F5F5F5F5F5F5F5E2E2E2F5F5F5F5F5F5F5F5F5F5F5E2F5F5F5F5F5F5F5F5F5F5F5F5F5F5E2F5F5F5F5F5F5F5F5F5F5F5F5F5F5F5F5F5F5F5F5F5F5F5F5F5F5
310
F5F5F5F5F5F5F5F5F5F5F5F5E2E2F5F5F5F5F5F5F5F5F5F5F5F5F5F5F5F5F5F5F5F5F5F5F5F5F5F5F5F5F5F5F5F5F5F5F5F5F5F5F5F5F5F5F5F5F5F5F5F5F5F5F5F5E2E2F5F5F5F5F5F5F5F5F5F5F5F5F5F5F5F5F5F5F5F5F5F5F5F5F5F5F5F5F5E2F5F5F5F5F5F5F5F5F5F5F5F5F5F5E2F5F5F5F5F5F5F5F5F5F5F5E2E2E2
310
F5F5F5F5F5F5F5F5F5F5F5E2F5F5F5F5F5F5F5F5F5F5F5F5F5F5E2F5F5F5F5F5F5F5F5F5F5F5F5F5F5F5F5F5F5F5F5F5F5F5F5F5F5F5F5F5F5F5F5F5F5F5F5F5F5E2F5F5F5F5F5F5F5F5F5F5F5F5F5F5F5F5F5F5F5F5F5F5F5F5F5F5F5F5F5F5F5F5F5F5F5F5F5F5F5F5F5F5F5F5F5F5F5F5F5F5F5F5F5F5F5E2F5F5F5F5F5
310
F5F5F5F5F5F5F5F5F5F5F5F5F5F5F5F5F5F5F5F5F5F5F5E2F5F5F5F5F5F5F5F5F5F5F5F5F5F5E2F5F5F5F5F5F5F5F5F5F5F5E2E2E2F5F5F5F5F5F5F5F5F5F5F5E2F5F5F5F5F5F5F5F5F5F5F5F5F5F5E2F5F5F5F5F5F5F5F5F5F5F5F5F5F5F5F5F5F5F5F5F5F5F5F5F5F5F5F5F5F5F5F5F5F5F5F5F5E2F5F5F5F5F5F5F5F5F5
310
F5F5F5F5F5F5F5F5F5F5F5F5F5F5F5F5F5F5F5F5F5F5F5F5F5F5F5F5F5F5F5F5F5F5F5F5F5F5F5F5F5F5F5F5F5F5F5E2F5F5F5F5F5F5F5F5F5F5F5F5F5F5F5F5F5F5F5F5F5F5F5F5F5F5F5F5E2F5F5F5F5F5F5F5F5F5F5F5F5F5F5E2F5F5F5F5F5F5F5F5F5F5F5E2E2E2F5F5F5F5F5F5F5F5F5F5F5E2F5F5F5F5F5F5F5F5F5
310
F5F5F5F5F5E2F5F5F5F5F5F5F5F5F5F5F5F5F5F5F5F5F5F5F5F5F5F5F5F5F5F5F5F5F5F5F5F5F5F5F5F5F5E2F5F5F5F5F5F5F5F5F5F5F5F5F5F5F5F5F5F5F5F5F5F5F5F5F5F5F5F5F5F5F5F5F5F5F5F5F5F5F5F5F5F5F5F5F5F5F5F5F5F5F5F5F5F5F5F5F5E2F5F5F5F5F5F5F5F5F5F5F5F5F5F5F5F5F5F5F5F5F5F5F5F5F5
310
F5F5E2F5F5F5F5F5F5F5F5F5F5F5F5F5F5E2F5F5F5F5F5F5F5F5F5F5F5E2E2E2F5F5F5F5F5F5F5F5F5F5F5E2F5F5F5F5F5F5F5F5F5F5F5F5F5F5E2F5F5F5F5F5F5F5F5F5F5F5F5F5F5F5F5F5F5F5F5F5F5F5F5F5F5F5F5F5F5F5F5F5F5F5F5E2F5F5F5F5F5F5F5F5F5F5F5F5F5F5F5F5F5F5F5F5F5F5F5F5F5F5F5F5F5F5F5
310
F5F5F5F5F5F5F5F5F5F5F5F5F5F5F5F5F5F5F5F5F5F5F5F5F5F5F5E2F5F5F5F5F5F5F5F5F5F5F5F5F5F5F5F5F5F5F5F5F5F5F5F5F5F5F5E2F5F5F5F5F5F5F5F5F5F5F5F5F5F5E2F5F5F5F5F5F5F5F5F5F5F5E2E2E2F5F5F5F5F5F5F5F5F5F5F5E2F5F5F5F5F5F5F5F5F5F5F5F5F5F5E2F5F5F5F5F5F5F5F5F5F5F5F5F5F5F5
310
F5F5F5F5F5F5F5F5F5F5F5F5F5F5F5F5F5F5F5F5E2F5F5F5F5F5F5F5F5F5F5F5F5F5F5F5F5F5F5F5F5F5F5F5F5F5F5F5F5F5F5F5F5F5F5F5F5F5F5F5F5F5F5F5F5F5F5F5F5F5F5F5F5F5F5F5F5F5F5F5F5E2F5F5F5F5F5F5F5F5F5F5F5F5F5F5F5F5F5F5F5F5F5F5F5F5F5F5E2F5F5F5F5F5F5F5F5F5F5F5F5F5F5E2F5F5F5
310
F5F5F5F5F5F5F5F5E2E2E2F5F5F5F5F5F5F5F5F5F5F5E2F5F5F5F5F5F5F5F5F5F5F5F5F5F5E2F5F5F5F5F5F5F5F5F5F5F5F5F5F5F5F5F5F5F5F5F5F5F5F5F5F5F5F5F5F5F5F5F5F5F5E2F5F5F5F5F5F5F5F5F5F5F5F5F5F5F5F5F5F5F5F5F5F5F5F5F5F5F5F5F5F5F5F5F5F5F5F5F5F5F5F5F5F5F5F5F5F5F5F5F5F5F5F5F5
310
F5F5F5F5F5F5F5F5E2F5F5F5F5F5F5F5F5F5F5F5F5F5F5F5F5F5F5F5F5F5F5F5F5F5E2F5F5F5F5F5F5F5F5F5F5F5F5F5F5E2F5F5F5F5F5F5F5F5F5F5F5E2E2E2F5F5F5F5F5F5F5F5F5F5F5E2F5F5F5F5F5F5F5F5F5F5F5F5F5F5E2F5F5F5F5F5F5F5F5F5F5F5F5F5F5F5F5F5F5F5F5F5F5F5F5F5F5F5F5F5F5F5F5F5F5E2F5
310
F5F5F5F5F5F5F5F5F5F5F5F5F5F5F5F5F5F5F5F5F5F5F5F5F5F5F5F5F5F5F5F5F5F5F5F5F5F5F5F5F5F5F5F5F5F5F5F5F5F5F5F5F5F5F5F5F5F5F5F5F5E2F5F5F5F5F5F5F5F5F5F5F5F5F5F5F5F5F5F5F5F5F5F5F5F5F5E2F5F5F5F5F5F5F5F5F5F5F5F5F5F5E2F5F5F5F5F5F5F5F5F5F5F5E2E2E2F5F5F5F5F5F5F5F5F5F5
310
F5E2F5F5F5F5F5F5F5F5F5F5F5F5F5F5E2F5F5F5F5F5F5F5F5F5F5F5F5F5F5F5F5F5F5F5F5F5F5F5F5F5F5F5F5F5F5F5F5F5F5E2F5F5F5F5F5F5F5F5F5F5F5F5F5F5F5F5F5F5F5F5F5F5F5F5F5F5F5F5F5F5F5F5F5F5F5F5F5F5F5F5F5F5F5F5F5F5F5F5F5F5F5F5F5F5F5F5F5F5F5F5F5F5F5E2F5F5F5F5F5F5F5F5F5F5F5
310
F5F5F5F5F5F5F5F5F5F5F5F5F5E2F5F5F5F5F5F5F5F5F5F5F5F5F5F5E2F5F5F5F5F5F5F5F5F5F5F5E2E2E2F5F5F5F5F5F5F5F5F5F5F5E2F5F5F5F5F5F5F5F5F5F5F5F5F5F5E2F5F5F5F5F5F5F5F5F5F5F5F5F5F5F5F5F5F5F5F5F5F5F5F5F5F5F5F5F5F5F5F5F5E2F5F5F5F5F5F5F5F5F5F5F5F5F5F5F5F5F5F5F5F5F5F5F5
310
F5F5F5F5F5F5F5F5F5F5F5F5F5F5F5F5F5F5F5F5F5F5F5F5F5F5F5F5F5F5F5F5F5F5F5F5F5F5F5F5F5E2F5F5F5F5F5F5F5F5F5F5F5F5F5F5F5F5F5F5F5F5F5F5F5F5E2F5F5F5F5F5F5F5F5F5F5F5F5F5F5E2F5F5F5F5F5F5F5F5F5F5F5E2E2E2F5F5F5F5F5F5F5F5F5F5F5E2F5F5F5F5F5F5F5F5F5F5F5F5F5F5E2F5F5F5F5
310
F5F5F5F5F5F5F5F5F5F5F5F5F5F5F5F5F5F5F5F5F5F5F5F5F5F5F5F5F5E2F5F5F5F5F5F5F5F5F5F5F5F5F5F5F5F5F5F5F5F5F5F5F5F5F5F5F5F5F5F5F5F5F5F5F5F5F5F5F5F5F5F5F5F5F5F5F5F5F5F5F5F5F5F5F5F5F5F5F5F5F5F5F5F5F5E2F5F5F5F5F5F5F5F5F5F5F5F5F5F5F5F5F5F5F5F5F5F5F5E2F5F5F5F5F5F5F5
310
F5F5F5F5F5F5F5E2F5F5F5F5F5F5F5F5F5F5F5E2E2E2F5F5F5F5F5F5F5F5F5F5F5E2F5F5F5F5F5F5F5F5F5F5F5F5F5F5E2F5F5F5F5F5F5F5F5F5F5F5F5F5F5F5F5F5F5F5F5F5F5F5F5F5F5F5F5F5F5F5F5E2F5F5F5F5F5F5F5F5F5F5F5F5F5F5F5F5F5F5F5F5F5F5F5F5F5F5F5F5F5F5F5F5F5F5F5F5F5F5F5F5F5F5F5F5F5
310
F5F5F5F5F5F5F5F5F5F5F5F5F5F5F5F5F5F5F5F5F5E2F5F5F5F5F5F5F5F5F5F5F5F5F5F5F5F5F5F5F5F5F5F5F5E2F5F5F5F5F5F5F5F5F5F5F5F5F5F5E2F5F5F5F5F5F5F5F5F5F5F5E2E2E2F5F5F5F5F5F5F5F5F5F5F5E2F5F5F5F5F5F5F5F5F5F5F5F5F5F5E2F5F5F5F5F5F5F5F5F5F5F5F5F5F5F5F5F5F5F5F5F5F5F5F5F5
310
F5F5F5F5F5F5F5E2F5F5F5F5F5F5F5F5F5F5F5F5F5F5F5F5F5F5F5F5F5F5F5F5F5F5F5F5F5F5F5F5F5F5F5F5F5F5F5F5F5F5F5F5F5F5F5F5F5F5F5F5F5F5F5F5F5F5F5F5F5F5F5F5F5F5E2F5F5F5F5F5F5F5F5F5F5F5F5F5F5F5F5F5F5F5F5F5F5F5E2F5F5F5F5F5F5F5F5F5F5F5F5F5F5E2F5F5F5F5F5F5F5F5F5F5F5E2E2
310
E2F5F5F5F5F5F5F5F5F5F5F5F5F5F5F5F5F5F5F5F5F5F5F5F5F5F5E2F5F5F5F5F5F5F5F5F5F5F5F5F5F5F5F5F5F5F5F5F5F5F5F5F5F5F5F5F5F5F5F5E2F5F5F5F5F5F5F5F5F5F5F5F5F5F5F5F5F5F5F5F5F5F5F5F5F5F5F5F5F5F5F5F5F5F5F5F5F5F5F5F5F5F5F5F5F5F5F5F5F5F5F5F5F5F5F5F5F5F5F5F5F5F5F5F5F5F5
310
E2F5F5F5F5F5F5F5F5F5F5F5F5F5F5F5F5F5F5F5F5F5F5F5E2F5F5F5F5F5F5F5F5F5F5F5F5F5F5F5F5F5F5F5F5F5F5F5F5F5F5E2E2E2F5F5F5F5F5F5F5F5F5F5F5F5F5F5F5F5F5F5F5F5F5F5F5F5F5F5E2F5F5F5F5F5F5F5F5F5F5F5F5F5F5F5F5F5F5F5F5F5F5F5F5F5F5F5F5F5F5F5F5E2F5F5F5F5F5F5F5F5F5F5F5F5F5
310
F5F5F5F5F5F5F5F5F5F5F5F5F5F5F5F5E2E2E2E2E2E2E2E2F5F5F5F5F5F5F5F5F5F5F5F5F5F5F5F5F5F5F5F5F5F5F5F5F5F5F5F5F5F5E2F5F5F5F5F5F5F5F5F5F5F5F5F5F5F5F5F5F5F5F5F5F5E2F5F5F5F5F5F5F5F5F5F5F5F5F5F5F5F5F5F5F5F5F5F5F5F5F5F5E2E2E2F5F5F5F5F5F5F5F5F5F5F5F5F5F5F5F5F5F5F5F5
310
F5F5F5F5F5F5E2F5F5F5F5F5F5F5F5F5F5F5F5F5F5F5F5F5F5F5F5F5F5F5F5F5F5F5F5F5F5F5E2F5F5F5F5F5F5F5F5F5F5F5F5F5F5F5F5F5F5F5F5F5F5F5F5F5F5F5F5E2E2E2E2F5E2E2E2E2E2E2F5F5F5F5F5F5F5F5F5F5F5F5F5F5F5F5F5F5F5F5F5F5F5F5F5F5F5F5F5E2F5F5F5F5F5F5F5F5F5F5F5F5F5F5F5F5F5F5F5
310
F5F5F5E2F5F5F5F5F5F5F5F5F5F5F5F5F5F5F5F5F5F5F5F5F5F5F5F5F5F5E2E2E2F5F5F5F5F5F5F5F5F5F5F5F5F5F5F5F5F5F5F5F5F5F5F5F5F5F5E2F5F5F5F5F5F5F5F5F5F5F5F5F5F5F5F5F5F5F5F5F5F5F5F5F5F5F5F5F5F5F5E2F5F5F5F5F5F5F5F5F5F5F5F5F5F5F5F5F5F5F5F5F5F5F5F5F5F5F5E2E2E2F5F5F5F5E2
310
F5F5F5E2E2E2F5F5F5F5F5F5F5F5F5F5F5F5F5F5F5F5F5F5F5F5F5F5F5F5F5F5F5E2F5F5F5F5F5F5F5F5F5F5F5F5F5F5F5F5F5F5F5F5F5F5E2F5F5F5F5F5F5F5F5F5F5F5F5F5F5F5F5F5F5F5F5F5F5F5F5F5F5E2E2E2F5F5F5F5F5F5F5F5F5F5F5F5F5F5F5F5F5F5F5F5F5F5F5F5F5F5E2F5F5F5F5F5F5F5F5F5F5F5F5F5F5
310
F5F5F5F5F5F5F5F5F5F5F5F5F5F5F5F5F5E2F5F5F5F5F5F5F5F5F5F5F5F5F5F5F5F5F5F5F5F5F5F5F5F5F5F5E2E2E2F5F5F5E2E2E2F5F5F5F5E2E2E2F5F5F5F5F5F5F5F5F5F5F5F5F5F5F5F5F5F5F5F5F5F5F5F5F5F5E2F5F5F5F5F5F5F5F5F5F5F5F5F5F5F5F5F5F5F5F5F5F5E2F5F5F5F5F5F5F5F5F5F5F5F5F5F5F5F5F5
310
F5F5F5F5F5F5F5F5F5E2E2E2F5F5F5F5F5F5F5F5F5F5F5F5F5F5F5F5F5F5F5F5F5F5F5F5F5F5E2F5F5F5F5F5F5F5F5F5F5F5F5F5F5F5F5F5F5F5F5F5F5F5F5F5F5F5F5F5F5F5E2F5F5F5F5F5F5F5F5F5F5F5F5F5F5F5F5F5F5F5F5F5F5F5F5F5F5E2E2E2E2E2E2F5E2E2E2E2F5F5E2E2E2F5F5F5F5F5F5F5F5F5F5F5F5F5F5
310
F5F5F5F5F5F5F5F5F5F5F5F5F5E2F5F5F5F5F5F5F5F5F5F5F5F5F5F5F5F5F5F5F5F5F5E2F5F5F5F5F5F5F5F5F5F5F5F5F5F5F5F5F5F5F5F5F5F5F5F5F5F5E2E2E2F5F5F5F5F5F5F5F5F5F5F5F5F5F5F5F5F5F5F5F5F5F5F5F5F5F5E2F5F5F5F5F5F5F5F5F5F5F5F5F5F5F5F5F5F5F5F5F5F5F5F5F5F5F5F5F5F5E2F5F5F5F5
310
F5F5F5F5F5F5F5F5F5F5F5F5F5F5F5F5F5F5F5F5F5F5E2E2F5F5E2F5E2E2E2E2E2E2E2E2E2F5E2E2F5F5F5F5F5F5F5F5F5F5F5F5F5F5F5F5F5F5F5F5F5F5F5F5F5BEE2E2F5F5F5F5F5F5F5F5F5F5F5F5F5F5F5F5F5F5F5F5E2F5F5F5F5F5F5F5F5F5F5F5F5F5F5F5F5F5F5F5F5F5F5F5F5F5F5E2E2E2F5F5F5F5F5F5F5F5F5
310
F5F5F5F5F5F5F5F5F5F5F5F5F5F5F5F5F5E2F5F5F5F5F5F5F5F5F5F5F5F5F5F5F5F5F5F5F5F5F5F5F5F5F5F5F5F5F5F5E2F5F5F5F5F5F5F5F5F5F5F5F5F5F5F5F5F5F5F5F5F5F5F5F5F5F5E2F5F5F5E2E2F5F5E2E2F5F5E2F5E2F5F5E2F5F5F5F5F5F5F5F5F5F5F5F5F5F5F5F5F5F5F5F5F5E2E2E2E2E2E2BEF5F5F5F5F5F5
310
F5F5F5F5F5F5F5F5F5F5F5F5F5F5E2F5F5F5F5F5F5F5F5F5F5F5F5F5F5F5F5F5F5F5F5F5F5F5F5F5F5E2E2E2F5F5F5F5F5F5F5F5F5F5F5F5F5F5F5F5F5F5F5F5F5F5F5F5F5F5E2F5F5F5F5F5F5F5F5F5F5F5F5F5F5F5F5F5F5F5F5F5F5F5F5F5F5F5F5F5F5E2F5F5F5F5F5F5F5F5F5F5F5F5F5F5F5F5F5F5F5F5F5F5F5F5F5
310
E2E2F5F5E2F5E2E2E2E2E2E2E2E2F5E2E2F5E2E2F5F5F5F5F5F5F5F5F5F5E2E2E2E2E2E2E2E2E2E2F5F5F5F5F5E2F5F5F5F5F5F5F5F5F5F5F5F5F5F5F5F5F5F5F5F5F5E2F5F5F5F5F5F5F5F5F5F5F5F5F5F5F5F5F5F5F5F5F5F5F5F5F5F5E2E2E2F5F5F5F5F5F5F5F5F5F5F5E2F5F5F5F5F5F5F5F5F5F5F5F5F5F5E2F5F5F5
310
F5F5F5F5F5F5F5F5F5F5F5F5F5F5F5F5F5F5F5F5F5F5F5F5F5F5F5E2F5F5F5F5F5F5F5F5F5F5F5F5F5F5F5F5F5F5F5F5F5F5F5F5F5E2E2F5F5E2E2F5E2E2E2E2E2F5E2E2F5E2F5E2E2E2E2E2E2E2E2E2E2E2E2F5F5F5F5F5F5F5F5F5F5F5F5F5F5F5E2F5F5F5F5F5F5F5F5F5F5F5F5F5F5F5F5F5F5F5F5F5E2F5F5F5F5F5F5
310
F5F5F5F5F5F5F5F5E2F5F5F5F5F5F5F5F5F5F5F5E2E2E2F5F5F5F5F5F5F5F5F5F5F5E2F5F5F5F5F5F5F5F5F5F5F5F5F5F5E2F5F5F5F5F5F5F5F5F5F5F5F5F5F5F5F5F5F5F5F5F5F5F5F5F5F5F5F5F5F5E2F5F5F5F5F5F5F5F5F5F5F5F5F5F5F5F5F5F5F5F5F5F5F5F5F5E2E2E2E2E2E2E2E2E2E2E2E2E2E2E2E2E2E2E2E2F5
310
F5F5F5F5F5F5F5F5F5F5F5F5F5F5F5F5F5F5F5F5F5F5F5F5E2F5F5F5F5F5F5F5F5F5F5F5F5F5F5F5F5F5F5F5F5F5E2F5F5F5F5F5F5F5F5F5F5F5F5F5F5E2F5F5F5F5F5F5F5F5F5F5F5E2E2E2F5F5F5F5F5F5F5F5F5F5F5E2F5F5F5F5F5F5F5F5F5F5F5F5F5F5E2F5F5F5F5F5F5F5F5F5F5F5F5F5F5F5F5F5F5F5F5F5F5F5F5
310
F5F5F5F5F5F5E2F5F5F5F5F5F5F5F5F5F5F5F5F5F5F5F5F5F5F5F5F5F5F5F5F5E2E2E2E2E2E2E2E2E2E2E2E2E2E2E2E2E2E2E2E2F5F5F5F5F5F5F5F5F5F5F5F5F5F5F5F5F5F5F5F5F5F5F5F5F5E2F5F5F5F5F5F5F5F5F5F5F5F5F5F5F5F5F5F5F5F5F5E2F5F5F5F5F5F5F5F5F5F5F5F5F5F5E2F5F5F5F5F5F5F5F5F5F5F5E2
310
E2E2F5F5F5F5F5F5F5F5F5F5F5E2F5F5F5F5F5F5F5F5F5F5F5F5F5F5E2F5F5F5F5F5F5F5F5F5F5F5F5F5F5F5F5F5F5F5F5F5F5F5F5F5F5F5F5F5F5E2F5F5F5F5F5F5F5F5F5F5F5F5F5F5F5E2E2E2E2E2E2E2E2E2E2E2E2F5E2E2E2E2E2E2E2E2E2E2E2E2F5E2F5E2E2F5F5F5F5F5F5F5F5F5F5F5F5F5F5F5F5F5F5F5F5F5F5
310
F5F5F5E2F5F5F5F5F5F5F5F5F5F5F5F5F5F5F5F5F5F5F5F5F5E2F5F5F5F5F5F5F5F5F5F5F5F5F5F5E2F5F5F5F5F5F5F5F5F5F5F5E2E2E2F5F5F5F5F5F5F5F5F5F5F5E2F5F5F5F5F5F5F5F5F5F5F5F5F5F5E2F5F5F5F5F5F5F5F5F5F5F5F5F5F5F5F5F5F5F5F5F5F5F5F5F5F5F5F5F5BEE2F5F5F5F5F5E2E2E2E2E2E2E2E2E2
310
E2F5F5F5F5F5F5F5F5F5F5E2E2F5F5E2F5E2E2F5E2E2E2E2E2F5E2F5F5E2E2F5F5F5F5F5F5F5F5F5F5F5F5F5F5F5F5F5F5F5F5F5F5F5F5F5E2F5F5F5F5F5F5F5F5F5F5F5F5F5F5F5F5F5F5F5F5F5E2F5F5F5F5F5F5F5F5F5F5F5F5F5F5E2F5F5F5F5F5F5F5F5F5F5F5E2E2E2F5F5F5F5F5F5F5F5F5F5F5E2F5F5F5F5F5F5F5
310
F5F5F5F5F5F5F5E2F5F5F5F5F5F5F5F5F5F5F5F5F5F5F5F5F5F5F5F5F5F5F5F5F5F5E2E2E2E2E2E2E2E2E2E2F5F5F5F5F5F5F5F5F5F5F5F5F5F5F5F5F5F5F5F5F5E2E2F5E2E2E2E2E2E2E2E2E2E2F5E2F5F5E2F5F5F5F5F5F5F5F5F5F5F5F5F5F5F5F5F5F5F5F5F5F5F5F5F5F5E2F5F5F5F5F5F5F5F5F5F5F5F5F5F5F5F5F5
310
F5F5F5F5E2F5F5F5F5F5F5F5F5F5F5F5F5F5F5E2F5F5F5F5F5F5F5F5F5F5F5E2E2E2F5F5F5F5F5F5F5F5F5F5F5E2F5F5F5F5F5F5F5F5F5F5F5F5F5F5E2F5F5F5F5F5F5F5F5F5F5F5F5F5F5F5F5F5F5F5F5F5E2E2E2E2E2F5F5F5F5E2BEF5F5F5F5F5F5F5F5F5F5F5F5F5F5F5F5F5F5F5F5F5F5F5F5F5F5E2F5E2E2F5F5E2E2
310
E2E2F5E2E2F5F5E2F5F5F5F5F5F5F5F5F5F5F5F5F5F5F5F5F5F5F5F5F5F5F5F5F5F5F5E2F5F5F5F5F5F5F5F5F5F5F5F5F5F5F5F5F5F5F5F5F5E2F5F5F5F5F5F5F5F5F5F5F5F5F5F5E2F5F5F5F5F5F5F5F5F5F5F5E2E2E2F5F5F5F5F5F5F5F5F5F5F5E2F5F5F5F5F5F5F5F5F5F5F5F5F5F5E2F5F5F5F5F5F5F5F5F5F5F5F5F5
310
F5F5F5F5F5F5F5F5F5E2E2E2E2E2E2F5F5E2E2F5F5F5F5F5F5F5F5F5F5F5F5F5F5F5F5F5F5F5F5F5F5F5F5F5F5E2E2E2F5E2E2F5E2F5E2E2F5F5E2E2E2F5F5F5F5F5F5F5F5F5F5F5F5F5F5F5F5F5F5F5F5F5F5F5F5F5F5F5E2F5F5F5F5F5F5F5F5F5F5F5F5F5F5F5F5F5F5F5F5F5E2F5F5F5F5F5F5F5F5F5F5F5F5F5F5E2F5
310
F5F5F5F5F5F5F5F5F5F5E2E2E2F5F5F5F5F5F5F5F5F5F5F5E2F5F5F5F5F5F5F5F5F5F5F5F5F5F5E2F5F5F5F5F5F5F5F5F5F5F5F5F5F5F5F5F5F5F5F5F5F5E2E2E2E2E2E2F5F5F5E2F5F5F5F5F5F5F5F5F5F5F5F5F5F5F5F5F5F5F5F5F5F5F5F5F5F5F5E2E2F5F5F5E2E2E2F5F5F5F5E2E2F5F5F5F5F5F5F5F5F5F5F5F5F5F5
310
F5F5F5F5F5F5F5F5F5F5F5F5F5E2F5F5F5F5F5F5F5F5F5F5F5F5F5F5F5F5F5F5F5F5F5F5E2F5F5F5F5F5F5F5F5F5F5F5F5F5F5E2F5F5F5F5F5F5F5F5F5F5F5E2E2E2F5F5F5F5F5F5F5F5F5F5F5E2F5F5F5F5F5F5F5F5F5F5F5F5F5F5E2F5F5F5F5F5F5F5F5F5F5F5F5F5F5F5F5F5F5F5F5F5F5E2E2E2E2E2E2F5F5F5E2F5F5
310
F5F5F5F5F5F5F5F5F5F5F5F5F5F5F5F5F5F5F5F5F5F5F5F5F5F5E2E2F5F5F5E2F5F5F5E2E2E2F5F5F5F5F5F5F5F5F5F5F5F5F5F5F5F5F5F5F5F5F5F5F5F5F5F5F5F5E2F5F5F5F5F5F5F5F5F5F5F5F5F5F5F5F5F5F5F5F5F5F5E2F5F5F5F5F5F5F5F5F5F5F5F5F5F5E2F5F5F5F5F5F5F5F5F5F5F5E2E2E2F5F5F5F5F5F5F5F5
310
F5F5F5E2F5F5F5F5F5F5F5F5F5F5F5F5F5F5E2F5F5F5F5F5F5F5F5F5F5F5F5F5F5F5F5F5F5F5F5F5F5F5F5F5F5F5F5F5F5F5E2F5F5F5F5F5F5F5F5F5F5F5F5F5F5F5F5F5F5F5F5F5F5F5F5F5F5F5F5F5E2E2E2E2E2E2E2E2E2E2F5F5F5F5F5F5F5F5F5F5F5F5F5F5F5F5F5F5F5F5F5F5F5F5F5F5F5F5F5E2F5F5F5F5F5F5F5
310
F5F5F5F5F5F5F5F5F5F5F5F5F5F5F5E2F5F5F5F5F5F5F5F5F5F5F5F5F5F5E2F5F5F5F5F5F5F5F5F5F5F5E2E2E2F5F5F5F5F5F5F5F5F5F5F5E2F5F5F5F5F5F5F5F5F5F5F5F5F5F5E2F5F5F5F5F5F5F5F5F5F5F5F5F5F5F5F5F5F5F5F5F5F5F5F5F5F5F5F5F5F5F5F5E2F5F5F5F5F5F5F5F5F5F5F5F5F5F5F5F5F5F5F5F5F5F5
310
F5F5F5F5F5F5F5F5E2E2E2E2E2E2F5F5F5F5F5F5F5F5F5F5F5F5F5F5F5F5F5F5F5F5F5F5F5F5F5F5F5F5F5F5F5E2F5F5F5F5F5F5F5F5F5F5F5F5F5F5F5F5F5F5F5F5F5F5E2F5F5F5F5F5F5F5F5F5F5F5F5F5F5E2F5F5F5F5F5F5F5F5F5F5F5E2E2E2F5F5F5F5F5F5F5F5F5F5F5E2F5F5F5F5F5F5F5F5F5F5F5F5F5F5E2F5F5
310
F5F5F5F5F5F5F5F5F5F5F5F5F5F5F5F5F5F5F5F5F5F5F5F5F5F5F5F5F5F5E2F5F5F5F5F5F5F5F5F5F5F5F5F5F5F5F5F5F5F5F5F5F5F5F5F5F5F5F5F5F5F5F5F5F5F5F5F5F5F5F5F5F5F5F5F5F5F5F5F5F5F5F5F5F5F5F5F5F5F5F5F5F5F5F5F5F5E2F5F5F5F5F5F5F5F5F5F5F5F5F5F5F5F5F5F5F5F5F5F5F5E2F5F5F5F5F5
310
F5F5F5F5F5F5F5F5F5E2F5F5F5F5F5F5F5F5F5F5F5E2E2E2F5F5F5F5F5F5F5F5F5F5F5E2F5F5F5F5F5F5F5F5F5F5F5F5F5F5E2F5F5F5F5F5F5F5F5F5F5F5F5F5F5F5F5F5F5F5F5F5F5F5F5F5F5F5F5F5F5F5F5E2F5F5F5F5F5F5F5F5F5F5F5F5F5F5F5F5F5F5F5F5F5F5F5F5F5F5F5F5F5F5F5F5F5F5F5F5F5F5F5F5F5F5F5
310
F5F5F5F5F5F5F5F5F5F5F5F5F5F5F5F5F5F5F5F5F5F5F5E2F5F5F5F5F5F5F5F5F5F5F5F5F5F5F5F5F5F5F5F5F5F5F5E2F5F5F5F5F5F5F5F5F5F5F5F5F5F5E2F5F5F5F5F5F5F5F5F5F5F5E2E2E2F5F5F5F5F5F5F5F5F5F5F5E2F5F5F5F5F5F5F5F5F5F5F5F5F5F5E2F5F5F5F5F5F5F5F5F5F5F5F5F5F5F5F5F5F5F5F5F5F5F5
310
F5F5F5F5F5F5F5F5F5E2F5F5F5F5F5F5F5F5F5F5F5F5F5F5F5F5F5F5F5F5F5F5F5F5F5F5F5F5F5F5F5F5F5F5F5F5F5F5F5F5F5F5F5F5F5F5F5F5F5F5F5F5F5F5F5F5F5F5F5F5F5F5F5F5F5F5E2F5F5F5F5F5F5F5F5F5F5F5F5F5F5F5F5F5F5F5F5F5F5F5E2F5F5F5F5F5F5F5F5F5F5F5F5F5F5E2F5F5F5F5F5F5F5F5F5F5F5
310
E2E2E2F5F5F5F5F5F5F5F5F5F5F5F5F5F5F5F5F5F5F5F5F5F5F5F5F5F5E2F5F5F5F5F5F5F5F5F5F5F5F5F5F5F5F5F5F5F5F5F5F5F5F5F5F5F5F5F5F5F5F5F5E2F5F5F5F5F5F5F5F5F5F5F5F5F5F5F5F5F5F5F5F5F5F5F5F5F5F5F5F5F5F5F5F5F5F5F5F5F5F5F5F5F5F5F5F5F5F5F5F5F5F5F5F5F5F5F5F5F5F5F5F5F5F5F5
310
F5F5E2F5F5F5F5F5F5F5F5F5F5F5F5F5F5F5F5F5F5F5F5F5F5F5E2F5F5F5F5F5F5F5F5F5F5F5F5F5F5F5F5F5F5F5F5F5F5F5F5F5F5E2E2E2F5F5F5F5F5F5F5F5F5F5F5F5F5F5F5F5F5F5F5F5F5F5F5F5F5F5E2F5F5F5F5F5F5F5F5F5F5F5F5F5F5F5F5F5F5F5F5F5F5F5F5F5F5F5F5F5F5F5F5F5E2F5F5F5F5F5F5F5F5F5F5
310
F5F5F5F5F5F5F5F5F5F5F5F5F5F5F5F5F5F5F5F5F5F5F5F5F5F5F5F5F5F5F5F5F5F5F5F5F5F5F5F5F5F5F5F5F5F5F5F5F5F5F5F5F5F5E2F5F5F5F5F5F5F5F5F5F5F5F5F5F5F5F5F5F5F5F5F5F5F5F5E2F5F5F5F5F5F5F5F5F5F5F5F5F5F5F5F5F5F5F5F5F5F5F5F5F5F5E2E2E2F5F5F5F5F5F5F5F5F5F5F5F5F5F5F5F5F5F5
310
F5F5F5F5F5F5F5F5E2F5F5F5F5F5F5F5F5F5F5F5F5F5F5F5F5F5F5F5F5F5F5F5F5F5F5F5F5F5F5F5F5F5F5E2F5F5F5F5F5F5F5F5F5F5F5F5F5F5F5F5F5F5F5F5F5F5F5F5F5F5F5F5F5F5F5F5F5F5F5F5F5F5F5F5F5F5F5F5F5F5F5F5F5F5F5F5F5F5F5F5F5F5F5F5F5F5F5E2F5F5F5F5F5F5F5F5F5F5F5F5F5F5F5F5F5F5F5
310
F5F5F5F5F5E2F5F5F5F5F5F5F5F5F5F5F5F5F5F5F5F5F5F5F5F5F5F5F5F5F5F5E2E2E2F5F5F5F5F5F5F5F5F5F5F5F5F5F5F5F5F5F5F5F5F5F5F5F5F5F5E2F5F5F5F5F5F5F5F5F5F5F5F5F5F5F5F5F5F5F5F5F5F5F5F5F5F5F5F5F5F5F5F5F5F5E2F5F5F5F5F5F5F5F5F5F5F5F5F5F5F5F5F5F5F5F5F5F5F5F5F5F5F5F5F5F5
310
F5F5F5F5F5F5F5F5F5F5F5F5F5F5F5F5F5F5F5F5F5F5F5F5F5F5F5F5F5F5F5F5E2F5F5F5F5F5F5F5F5F5F5F5F5F5F5F5F5F5F5F5F5F5F5F5F5F5E2F5F5F5F5F5F5F5F5F5F5F5F5F5F5F5F5F5F5F5F5F5F5F5F5F5F5E2E2E2F5F5F5F5F5F5F5F5F5F5F5F5F5F5F5F5F5F5F5F5F5F5F5F5F5F5E2F5F5F5F5F5F5F5F5F5F5F5F5
310
F5F5F5F5F5F5F5F5F5F5F5F5F5F5F5F5F5F5F5F5F5F5F5E2F5F5F5F5F5F5F5F5F5F5F5F5F5F5F5F5F5F5F5F5F5F5F5F5F5F5F5F5F5F5F5F5F5F5F5F5F5F5F5F5F5F5F5F5F5F5F5F5F5F5F5F5F5F5F5F5F5F5F5F5E2F5F5F5F5F5F5F5F5F5F5F5F5F5F5F5F5F5F5F5F5F5F5F5F5F5F5E2F5F5F5F5F5F5F5F5F5F5F5F5F5F5F5
310
F5F5F5F5F5F5F5F5F5F5F5E2E2E2F5F5F5F5F5F5F5F5F5F5F5F5F5F5F5F5F5F5F5F5F5F5F5F5F5F5E2F5F5F5F5F5F5F5F5F5F5F5F5F5F5F5F5F5F5F5F5F5F5F5F5F5F5F5F5F5F5F5F5F5F5F5F5E2F5F5F5F5F5F5F5F5F5F5F5F5F5F5F5F5F5F5F5F5F5F5F5F5F5F5F5F5F5F5F5F5F5F5F5F5F5F5F5F5F5F5F5F5F5F5F5F5F5
310
F5F5F5F5F5F5F5F5F5F5E2F5F5F5F5F5F5F5F5F5F5F5F5F5F5F5F5F5F5F5F5F5F5F5F5F5F5E2F5F5F5F5F5F5F5F5F5F5F5F5F5F5F5F5F5F5F5F5F5F5F5F5F5F5E2E2E2F5F5F5F5F5F5F5F5F5F5F5F5F5F5F5F5F5F5F5F5F5F5F5F5F5F5E2F5F5F5F5F5F5F5F5F5F5F5F5F5F5F5F5F5F5F5F5F5F5F5F5F5F5F5F5F5F5F5F5F5
310
F5F5F5E2F5F5F5F5F5F5F5F5F5F5F5F5F5F5F5F5F5F5F5F5F5F5F5F5F5F5F5F5F5F5F5F5F5F5F5F5F5F5F5F5F5F5F5F5F5F5F5F5F5F5F5F5F5F5F5F5F5F5E2F5F5F5F5F5F5F5F5F5F5F5F5F5F5F5F5F5F5F5F5F5F5F5F5F5F5F5E2F5F5F5F5F5F5F5F5F5F5F5F5F5F5F5F5F5F5F5F5F5F5F5F5F5F5E2E2E2F5F5F5F5F5F5F5
310
F5F5F5F5F5F5F5F5F5F5F5F5F5F5F5F5F5F5F5E2F5F5F5F5F5F5F5F5F5F5F5F5F5F5F5F5F5F5F5F5F5F5F5F5F5F5F5F5F5F5F5F5F5F5F5F5F5E2F5F5F5F5F5F5F5F5F5F5F5F5F5F5F5F5F5F5F5F5F5F5F5F5F5F5F5F5F5F5F5F5F5F5F5F5F5F5F5F5F5F5F5F5F5F5F5F5F5F5F5F5F5F5F5F5F5E2F5F5F5F5F5F5F5F5F5F5F5
310
F5F5F5F5F5F5F5F5F5F5F5F5F5F5F5F5E2F5F5F5F5F5F5F5F5F5F5F5F5F5F5F5F5F5F5F5F5F5F5F5F5F5F5E2E2E2F5F5F5F5F5F5F5F5F5F5F5E2F5F5F5F5F5F5F5F5F5F5F5F5F5F5E2F5F5F5F5F5F5F5F5F5F5F5F5F5F5F5F5F5F5F5F5F5F5F5F5F5F5F5F5F5F5F5F5F5F5F5F5F5E2F5F5F5F5F5F5F5F5F5F5F5F5F5F5F5F5
310
F5F5F5F5F5F5F5F5F5F5F5F5F5F5F5F5F5F5F5F5F5F5F5F5F5F5F5F5F5F5F5F5F5F5F5F5F5F5F5F5E2F5F5F5F5F5F5F5F5F5F5F5F5F5F5F5F5F5F5F5F5F5F5F5F5F5F5F5F5E2F5F5F5F5F5F5F5F5F5F5F5F5F5F5E2F5F5F5F5F5F5F5F5F5F5F5E2E2E2F5F5F5F5F5F5F5F5F5F5F5E2F5F5F5F5F5F5F5F5F5F5F5F5F5F5E2F5
310
F5F5F5F5F5F5F5F5F5F5F5F5F5F5F5F5F5F5F5F5F5F5F5F5F5F5F5F5F5F5F5F5F5F5F5F5F5E2F5F5F5F5F5F5F5F5F5F5F5F5F5F5F5F5F5F5F5F5F5F5F5F5F5F5F5F5F5F5F5F5F5F5F5F5F5F5F5F5F5F5F5F5F5F5F5F5F5F5F5F5F5F5E2F5F5F5F5F5F5F5F5F5F5F5F5F5F5F5F5F5F5F5F5F5F5F5F5F5F5F5F5F5E2F5F5F5F5
310
F5F5F5F5F5F5F5F5F5F5E2F5F5F5F5F5F5F5F5F5F5F5E2E2E2F5F5F5F5F5F5F5F5F5F5F5E2F5F5F5F5F5F5F5F5F5F5F5F5F5F5E2F5F5F5F5F5F5F5F5F5F5F5F5F5F5F5F5F5F5F5F5F5F5F5F5F5F5F5F5F5F5F5F5F5F5F5F5F5F5F5E2F5F5F5F5F5F5F5F5F5F5F5F5F5F5F5F5F5F5F5F5F5F5F5F5F5F5F5F5F5F5F5F5F5F5F5
310
F5F5F5F5F5F5F5F5F5F5F5F5F5F5F5F5F5E2F5F5F5F5F5F5F5F5F5F5F5F5F5F5F5F5F5F5F5F5F5F5F5F5F5F5F5F5F5F5E2F5F5F5F5F5F5F5F5F5F5F5F5F5F5E2F5F5F5F5F5F5F5F5F5F5F5E2E2E2F5F5F5F5F5F5F5F5F5F5F5E2F5F5F5F5F5F5F5F5F5F5F5F5F5F5E2F5F5F5F5F5F5F5F5F5F5F5F5F5F5F5F5F5F5F5F5F5F5
310
F5F5F5F5F5F5F5F5F5F5F5F5F5F5F5F5F5F5E2F5F5F5F5F5F5F5F5F5F5F5F5F5F5F5F5F5F5F5F5F5F5F5F5F5F5F5F5F5F5F5F5F5F5F5F5F5F5F5F5F5F5F5F5F5F5F5F5F5F5E2F5F5F5F5F5F5F5F5F5F5F5F5F5F5F5F5F5F5F5F5F5F5F5F5F5F5F5F5F5F5F5E2F5F5F5F5F5F5F5F5F5F5F5F5F5F5E2F5F5F5F5F5F5F5F5F5F5
310
F5E2E2E2F5F5F5F5F5F5F5F5F5F5F5E2F5F5F5F5F5F5F5F5F5F5F5F5F5F5E2F5F5F5F5F5F5F5F5F5F5F5F5F5F5F5F5F5F5F5F5F5F5F5F5F5F5F5F5F5F5F5F5F5F5F5F5F5F5F5F5F5E2F5F5F5F5F5F5F5F5F5F5F5F5F5F5F5F5F5F5F5F5F5F5F5F5F5F5F5F5F5F5F5F5F5F5F5F5F5F5F5F5F5F5F5F5F5F5F5F5F5E2F5F5F5F5
310
F5F5F5F5F5F5F5F5F5F5F5F5F5F5F5F5F5F5F5F5F5F5F5F5F5F5F5E2F5F5F5F5F5F5F5F5F5F5F5F5F5F5E2F5F5F5F5F5F5F5F5F5F5F5E2E2E2F5F5F5F5F5F5F5F5F5F5F5E2F5F5F5F5F5F5F5F5F5F5F5F5F5F5E2F5F5F5F5F5F5F5F5F5F5F5F5F5F5F5F5F5F5F5F5F5F5F5F5F5F5F5F5F5F5F5F5F5F5F5F5F5F5F5F5F5E2F5
310
F5F5F5F5F5F5F5F5F5F5F5F5F5F5F5F5F5F5F5F5F5F5F5F5F5F5F5F5F5F5F5F5F5F5F5F5F5F5F5F5F5F5F5F5F5F5F5E2F5F5F5F5F5F5F5F5F5F5F5F5F5F5F5F5F5F5F5F5F5F5F5F5F5F5F5F5F5F5F5F5E2F5F5F5F5F5F5F5F5F5F5F5F5F5F5E2F5F5F5F5F5F5F5F5F5F5F5E2E2E2F5F5F5F5F5F5F5F5F5F5F5E2F5F5F5F5F5
310
F5F5F5F5F5F5F5F5F5E2F5F5F5F5F5F5F5F5F5F5F5F5F5F5F5F5F5F5F5F5F5F5F5F5F5F5F5F5F5F5F5F5F5F5F5F5F5F5F5F5F5F5E2E2F5F5F5F5F5F5F5F5F5F5F5F5F5F5F5F5F5F5F5F5F5F5F5F5F5F5F5F5F5F5F5F5F5F5F5F5F5F5F5F5F5F5F5F5E2E2F5F5F5F5F5F5F5F5F5F5F5F5F5F5F5F5F5F5F5F5F5F5F5F5F5F5F5
310
F5F5F5F5F5F5E2F5F5F5F5F5F5F5F5F5F5F5F5F5F5E2F5F5F5F5F5F5F5F5F5F5F5E2E2E2F5F5F5F5F5F5F5F5F5F5F5E2F5F5F5F5F5F5F5F5F5F5F5F5F5F5E2F5F5F5F5F5F5F5F5F5F5F5F5F5F5F5F5F5F5F5F5F5F5F5F5F5F5F5F5F5F5F5F5F5F5F5F5F5F5F5F5F5F5F5F5E2F5F5F5F5F5F5F5F5F5F5F5F5F5F5F5F5F5F5F5
310
F5F5F5F5F5F5F5F5F5F5F5F5F5F5F5F5F5F5F5F5F5F5F5E2F5F5F5F5F5F5F5F5F5F5F5F5F5F5F5F5F5F5F5F5F5F5F5F5F5F5F5F5F5F5F5F5F5F5F5E2F5F5F5F5F5F5F5F5F5F5F5F5F5F5E2F5F5F5F5F5F5F5F5F5F5F5E2E2E2F5F5F5F5F5F5F5F5F5F5F5E2F5F5F5F5F5F5F5F5F5F5F5F5F5F5E2F5F5F5F5F5F5F5F5F5F5F5
310
F5F5F5F5F5F5F5F5F5F5F5F5F5F5F5F5F5F5F5F5F5F5F5F5F5F5F5F5F5F5F5F5F5F5E2E2F5F5F5F5F5F5F5F5F5F5F5F5F5F5F5F5F5F5F5F5F5F5F5F5F5F5F5F5F5F5F5F5F5F5F5F5F5F5E2E2F5F5F5F5F5F5F5F5F5F5F5F5F5F5F5F5F5F5F5F5F5F5F5F5F5F5F5F5F5F5F5F5F5F5F5F5E2F5F5F5F5F5F5F5F5F5F5F5F5F5F5
310
E2F5F5F5F5F5F5F5F5F5F5F5E2E2E2F5F5F5F5F5F5F5F5F5F5F5E2F5F5F5F5F5F5F5F5F5F5F5F5F5F5E2F5F5F5F5F5F5F5F5F5F5F5F5F5F5F5F5F5F5F5F5F5F5F5F5F5F5F5F5F5F5F5F5F5F5F5F5F5F5F5F5F5F5F5F5F5F5F5E2F5F5F5F5F5F5F5F5F5F5F5F5F5F5F5F5F5F5F5F5F5F5F5F5F5F5F5F5F5F5F5F5F5F5F5F5E2
310
F5F5F5F5F5F5F5F5F5F5F5F5F5F5F5F5F5F5F5F5F5F5F5F5F5F5F5F5F5F5F5F5F5F5F5F5F5F5E2F5F5F5F5F5F5F5F5F5F5F5F5F5F5E2F5F5F5F5F5F5F5F5F5F5F5E2E2E2F5F5F5F5F5F5F5F5F5F5F5E2F5F5F5F5F5F5F5F5F5F5F5F5F5F5E2F5F5F5F5F5F5F5F5F5F5F5F5F5F5F5F5F5F5F5F5F5F5F5F5F5F5F5F5F5F5F5F5
310
F5F5F5F5F5F5F5F5F5F5F5F5F5F5F5F5E2F5F5F5F5F5F5F5F5F5F5F5F5F5F5F5F5F5F5F5F5F5F5F5F5F5F5F5F5F5F5F5F5F5F5E2F5F5F5F5F5F5F5F5F5F5F5F5F5F5F5F5F5F5F5F5F5F5F5F5F5F5F5F5F5F5F5F5F5F5F5F5F5F5F5E2F5F5F5F5F5F5F5F5F5F5F5F5F5F5E2F5F5F5F5F5F5F5F5F5F5F5E2E2E2F5F5F5F5F5F5
310
F5F5F5F5F5E2F5F5F5F5F5F5F5F5F5F5F5F5F5F5E2F5F5F5F5F5F5F5F5F5F5F5F5F5F5F5F5F5F5F5F5F5F5F5F5F5F5F5F5F5F5F5F5F5F5F5F5F5F5F5F5F5F5F5F5F5F5F5F5F5E2E2E2F5F5F5F5F5F5F5F5F5F5F5F5F5F5F5F5F5F5F5F5F5F5F5F5F5F5F5E2E2E2E2F5F5F5F5F5F5F5F5F5F5F5F5F5F5F5F5F5F5F5F5F5F5F5
310
F5F5F5F5F5F5F5F5F5F5F5F5F5F5F5F5F5E2F5F5F5F5F5F5F5F5F5F5F5F5F5F5E2F5F5F5F5F5F5F5F5F5F5F5E2E2E2F5F5F5F5F5F5F5F5F5F5F5E2F5F5F5F5F5F5F5F5F5F5F5F5F5F5E2F5F5F5F5F5F5F5F5F5F5F5F5F5F5F5F5F5F5F5F5F5F5F5F5F5F5F5F5F5F5F5F5F5F5F5F5F5F5F5F5F5F5F5F5F5F5F5F5F5F5F5F5E2
310
E2F5F5F5F5F5F5F5F5F5F5F5F5F5F5F5F5F5F5F5F5F5F5F5F5E2F5F5F5F5F5F5F5F5F5F5F5F5F5F5F5F5F5F5F5F5F5F5F5F5F5F5F5F5F5F5F5F5F5F5F5F5F5F5F5F5F5F5F5F5E2F5F5F5F5F5F5F5F5F5F5F5F5F5F5E2F5F5F5F5F5F5F5F5F5F5F5E2E2E2F5F5F5F5F5F5F5F5F5F5F5E2F5F5F5F5F5F5F5F5F5F5F5F5F5F5E2
310
F5F5F5F5F5F5F5F5F5F5F5F5F5F5F5F5F5F5F5F5F5F5F5F5F5F5F5F5F5F5F5F5F5F5F5F5F5F5F5F5F5F5F5F5F5F5F5F5F5F5F5F5F5F5E2E2E2E2F5F5F5F5F5F5F5F5F5F5F5F5F5F5F5F5E2E2E2E2F5F5F5F5F5F5F5F5F5F5F5F5F5F5F5F5F5F5F5F5F5F5F5F5F5F5F5F5F5F5F5F5F5F5F5F5F5F5F5F5F5F5F5F5F5E2F5F5F5
310
F5F5F5F5F5F5F5F5F5F5F5E2F5F5F5F5F5F5F5F5F5F5F5E2E2E2F5F5F5F5F5F5F5F5F5F5F5E2F5F5F5F5F5F5F5F5F5F5F5F5F5F5E2F5F5F5F5F5F5F5F5F5F5F5F5F5F5F5F5F5F5F5F5F5F5F5F5F5F5F5F5F5F5F5F5F5F5F5F5F5F5F5F5F5F5F5F5F5F5F5F5F5F5F5F5F5F5F5F5F5F5E2E2E2E2E2E2E2E2E2E2E2E2E2E2E2E2
310
F5F5F5F5F5F5F5F5F5F5F5F5F5F5F5F5F5F5F5F5F5F5F5F5F5F5F5F5F5F5F5F5F5F5F5F5F5F5F5F5F5F5F5F5F5F5F5F5F5E2F5F5F5F5F5F5F5F5F5F5F5F5F5F5E2F5F5F5F5F5F5F5F5F5F5F5E2E2E2F5F5F5F5F5F5F5F5F5F5F5F5F5F5F5F5F5F5F5F5F5F5F5F5F5F5E2F5F5F5F5F5F5F5F5F5F5F5F5F5F5F5F5F5F5F5F5F5
310
F5F5F5F5F5F5F5F5F5F5F5F5F5F5F5F5F5F5F5F5F5F5F5F5F5F5F5F5F5F5F5F5F5F5F5F5F5F5F5F5F5F5F5F5F5F5F5F5F5F5F5F5F5F5F5F5F5F5F5F5F5F5F5F5F5F5F5F5F5F5F5F5F5F5F5F5F5F5F5F5F5F5F5F5F5F5F5F5F5F5F5F5F5F5F5F5F5F5F5F5F5F5E2F5F5F5F5F5F5F5F5F5F5F5F5F5F5F5F5F5F5F5F5F5F5F5F5
310
F5F5E2E2E2F5F5F5F5F5F5F5F5F5F5F5F5F5F5F5F5F5F5F5F5F5F5F5F5F5F5E2F5F5F5F5F5F5F5F5F5F5F5F5F5F5F5F5F5F5F5F5F5F5F5F5F5F5F5F5F5F5F5F5F5F5F5F5F5F5F5F5F5F5F5F5F5F5F5F5F5F5F5F5F5F5F5F5F5F5F5F5F5F5F5F5F5F5F5F5F5F5F5F5F5F5F5F5F5F5F5F5F5F5F5F5F5F5F5F5F5F5F5F5F5F5F5
310
F5F5F5F5F5F5F5F5F5F5F5F5F5F5F5F5F5F5F5F5F5F5F5F5F5F5F5F5E2F5F5F5F5F5F5F5F5F5F5F5F5F5F5F5F5F5F5F5F5F5F5F5F5F5F5E2E2E2F5F5F5F5F5F5F5F5F5F5F5F5F5F5F5F5F5F5F5F5F5F5F5F5F5F5E2F5F5F5F5F5F5F5F5F5F5F5F5F5F5F5F5F5F5F5F5F5F5F5F5F5F5F5F5F5F5F5F5F5F5F5F5F5F5F5F5F5F5
310
F5F5F5F5F5F5F5F5F5F5F5F5F5F5F5F5F5F5F5F5F5F5F5F5F5F5F5F5F5F5F5F5F5F5F5F5F5F5F5F5F5F5F5F5F5F5F5F5F5F5F5F5F5F5F5F5F5F5F5F5F5F5F5F5F5F5F5F5F5F5F5F5F5F5F5F5F5F5F5F5F5E2F5F5F5F5F5F5F5F5F5F5F5F5F5F5F5F5F5F5F5F5F5F5F5F5F5F5E2E2E2F5F5F5F5F5F5F5F5F5F5F5F5F5F5F5F5
310
F5F5F5F5F5F5F5F5F5F5E2F5F5F5F5F5F5F5F5F5F5F5F5F5F5F5F5F5F5F5F5F5F5F5F5F5F5F5F5F5F5F5F5F5F5F5F5F5F5F5F5F5F5F5F5F5F5F5F5F5F5F5F5F5F5F5F5F5F5F5F5F5F5F5F5F5F5F5F5F5F5F5F5F5F5F5F5F5F5F5F5F5F5F5F5F5F5F5F5F5F5F5F5F5F5F5F5F5F5F5F5F5F5F5F5F5F5F5F5F5F5F5F5F5F5F5F5
310
F5F5F5F5F5F5F5E2F5F5F5F5F5F5F5F5F5F5F5F5F5F5F5F5F5F5F5F5F5F5F5F5F5F5E2E2E2F5F5F5F5F5F5F5F5F5F5F5F5F5F5F5F5F5F5F5F5F5F5F5F5F5F5E2E2E2E2E2E2E2E2E2E2E2E2E2E2E2E2E2E2E2E2E2E2E2E2E2E2E2E2E2E2E2E2E2E2E2E2E2E2E2E2E2E2E2E2E2E2E2E2E2E2E2E2E2E2E2E2E2E2E2E2E2E2E2E2
310
E2E2E2E2E2E2E2E2E2E2E2E2E2E2E2E2E2E2E2E2E2E2E2E2E2E2E2E2E2E2E2E2E2E2E2E2E2E2E2E2E2E2E2E2E2E2E2E2E2E2E2E2E2E2E2E2E2E2E2E2E2F5F5F5F5F5F5F5F5F5F5F5F5F5F5F5F5F5F5F5F5F5F5F5F5F5F5E2E2E2F5F5F5F5F5F5F5F5F5F5F5F5F5F5F5F5F5F5F5F5F5F5F5F5F5F5F5F5F5F5F5F5F5F5F5F5F5
310
F5F5F5F5F5F5F5F5F5F5F5F5F5F5F5F5F5F5F5F5F5F5F5F5F5F5F5F5F5F5F5F5F5F5F5F5F5F5F5F5F5F5F5F5F5F5F5F5F5F5F5F5F5F5F5F5F5F5F5F5F5F5F5F5F5F5F5F5F5F5F5F5F5F5F5F5F5F5F5F5F5F5F5F5F5F5F5F5F5F5F5F5F5F5F5F5F5F5F5F5F5F5F5F5F5F5F5F5F5F5F5F5F5F5F5F5F5F5F5F5F5F5F5F5F5F5F5
310
F5F5F5F5F5F5F5F5F5F5F5F5F5E2E2E2F5F5F5F5F5F5F5F5F5F5F5F5F5F5F5F5F5F5F5F5F5F5F5F5F5F5F5F5F5F5F5F5F5F5F5F5F5F5F5F5F5F5F5F5F5F5F5F5F5F5F5F5F5F5F5F5F5F5F5F5F5F5F5F5F5F5F5F5F5F5F5F5F5F5F5F5F5F5F5F5F5F5F5F5F5F5F5F5F5F5F5F5F5F5F5F5F5F5F5F5F5F5F5F5F5F5F5F5F5F5F5
310
F5F5F5F5F5F5F5F5F5F5F5F5F5F5F5F5F5F5F5F5F5F5F5F5F5F5F5F5F5F5F5F5F5F5F5F5F5F5F5F5F5F5F5F5F5F5F5F5F5F5F5F5F5F5F5F5F5F5F5F5F5F5F5F5F5F5E2E2E2F5F5F5F5F5F5F5F5F5F5F5F5F5F5F5F5F5F5F5F5F5F5F5F5F5F5F5F5F5F5F5F5F5F5F5F5F5F5F5F5F5F5F5F5F5F5F5F5F5F5F5F5F5F5F5F5F5F5
310
F5F5F5F5F5F5F5F5F5F5F5F5F5F5F5F5F5F5F5F5F5F5F5F5F5F5F5F5F5F5F5F5F5F5F5F5F5F5F5F5F5F5F5F5F5F5F5F5F5F5F5F5F5F5F5F5F5F5F5F5F5F5F5F5F5F5F5F5F5F5F5F5F5F5F5F5F5F5F5F5F5F5F5F5F5F5F5F5F5F5F5F5F5F5F5F5F5F5F5F5F5F5F5F5F5F5F5F5F5F5F5F5F5F5F5F5F5F5F5E2E2E2F5F5F5F5F5
310
F5F5F5F5F5F5E2F5F5F5F5F5F5F5F5F5F5F5F5F5F5F5F5F5F5F5F5F5F5F5F5F5F5F5F5F5F5F5F5F5F5F5F5F5F5F5F5F5F5F5F5F5F5F5F5F5F5F5F5F5F5F5F5F5F5F5F5F5F5F5F5F5F5F5F5F5F5F5F5F5F5F5F5F5F5F5F5F5F5F5F5F5F5F5F5F5F5F5F5F5F5F5F5F5F5F5F5F5F5F5F5F5F5F5F5F5F5F5F5F5F5F5F5F5F5F5F5
310
F5F5F5F5F5F5F5F5F5F5F5F5F5F5F5F5F5F5F5F5F5F5F5F5F5F5F5F5F5F5F5F5F5E2F5F5F5F5F5F5F5F5F5F5F5E2E2E2F5F5F5F5F5F5F5F5F5F5F5E2F5F5F5F5F5F5F5F5F5F5F5F5F5F5F5F5F5F5F5F5F5F5F5F5F5F5F5F5F5F5F5F5F5F5F5F5F5F5F5F5F5F5F5F5F5F5F5F5F5F5F5F5F5F5F5F5F5F5F5F5F5F5F5F5F5F5F5
310
F5F5F5F5F5F5F5F5F5F5F5F5F5F5F5F5F5F5F5F5F5F5F5F5F5F5F5F5F5F5F5F5F5F5F5F5F5F5F5F5F5F5F5F5F5F5F5F5F5F5F5F5F5F5F5F5F5F5F5F5F5F5F5F5F5F5F5F5F5F5F5F5F5F5F5F5F5F5F5F5F5F5F5F5F5F5E2F5F5F5F5F5F5F5F5F5F5F5E2E2E2F5F5F5F5F5F5F5F5F5F5F5E2F5F5F5F5F5F5F5F5F5F5F5F5F5F5
310
F5F5F5F5F5F5F5F5F5F5F5F5F5F5F5F5F5F5F5F5F5F5F5F5F5F5F5F5F5F5F5F5F5F5F5F5F5F5F5F5F5F5F5F5F5F5F5F5F5F5F5F5F5F5F5F5F5F5F5F5F5F5F5F5F5F5F5F5F5F5F5F5F5F5F5F5F5F5F5F5F5F5F5F5F5F5F5F5F5F5F5F5F5F5F5F5F5F5F5F5F5F5F5F5F5F5F5F5F5F5F5F5F5F5F5F5F5F5F5F5F5F5F5F5F5F5F5
310
F5F5F5F5F5F5F5F5F5F5F5F5E2F5F5F5F5F5F5F5F5F5F5F5E2E2E2F5F5F5F5F5F5F5F5F5F5F5E2F5F5F5F5F5F5F5F5F5F5F5F5F5F5F5F5F5F5F5F5F5F5F5F5F5F5F5F5F5F5F5F5F5F5F5F5F5F5F5F5F5F5F5F5F5F5F5F5F5F5F5F5F5F5F5F5F5F5F5F5F5F5F5F5F5F5F5F5F5F5F5F5F5F5F5F5F5F5F5F5F5F5F5F5F5F5F5F5
310
F5F5F5F5F5F5F5F5F5F5F5F5F5F5F5F5F5F5F5F5F5F5F5F5F5F5F5F5F5F5F5F5F5F5F5F5F5F5F5F5F5F5F5F5F5F5F5F5F5F5F5F5F5F5F5F5F5F5F5F5F5F5F5F5F5E2F5F5F5F5F5F5F5F5F5F5F5E2E2E2F5F5F5F5F5F5F5F5F5F5F5E2F5F5F5F5F5F5F5F5F5F5F5F5F5F5F5F5F5F5F5F5F5F5F5F5F5F5F5F5F5F5F5F5F5F5F5
310
F5F5F5F5F5F5F5F5F5F5F5F5F5F5F5F5F5F5F5F5F5F5F5F5F5F5F5F5F5F5F5F5F5F5F5F5F5F5F5F5F5F5F5F5F5F5F5F5F5F5F5F5F5F5F5F5F5F5F5F5F5F5F5F5F5F5F5F5F5F5F5F5F5F5F5F5F5F5F5F5F5F5F5F5F5F5F5F5F5F5F5F5F5F5F5F5F5F5F5F5F5F5F5F5F5F5F5F5F5F5F5F5F5F5F5F5F5F5E2F5F5F5F5F5F5F5F5
310
F5F5F5E2E2E2F5F5F5F5F5F5F5F5F5F5F5E2F5F5F5F5F5F5F5F5F5F5F5F5F5F5F5F5F5F5F5F5F5F5F5F5F5F5F5F5F5F5F5F5F5F5F5F5F5F5F5F5F5F5F5F5F5F5F5F5F5F5F5F5F5F5F5F5F5F5F5F5F5F5F5F5F5F5F5F5F5F5F5F5F5F5F5F5F5F5F5F5F5F5F5F5F5F5F5F5F5F5F5F5F5F5F5F5F5F5F5F5F5F5F5F5F5F5F5F5F5
310
F5F5F5F5F5F5F5F5F5F5F5F5F5F5F5F5F5F5F5F5F5F5F5F5F5F5F5F5F5F5F5F5F5F5F5F5F5F5F5F5F5F5F5F5E2F5F5F5F5F5F5F5F5F5F5F5E2E2E2F5F5F5F5F5F5F5F5F5F5F5E2F5F5F5F5F5F5F5F5F5F5F5F5F5F5F5F5F5F5F5F5F5F5F5F5F5F5F5F5F5F5F5F5F5F5F5F5F5F5F5F5F5F5F5F5F5F5F5F5F5F5F5F5F5F5F5F5
310
F5F5F5F5F5F5F5F5F5F5F5F5F5F5F5F5F5F5F5F5F5F5F5F5F5F5F5F5F5F5F5F5F5F5F5F5F5F5F5F5F5F5F5F5F5F5F5F5F5F5F5F5F5F5F5F5F5F5F5F5F5F5F5F5F5F5F5F5F5F5F5F5F5F5F5F5F5F5F5F5F5F5F5F5F5F5F5F5F5F5F5F5F5F5F5F5F5E2F5F5F5F5F5F5F5F5F5F5F5E2E2E2F5F5F5F5F5F5F5F5F5F5F5E2E2E2E2
310
E2E2E2E2E2F5F5F5F5F5F5F5F5F5E2E2E2E2E2E2E2E2E2E2E2E2E2E2E2E2F5F5F5F5F5F5F5F5F5F5E2E2E2E2E2E2E2E2E2E2E2E2E2E2E2E2F5F5F5F5F5F5F5F5F5E2E2E2E2E2E2E2E2E2E2E2E2E2E2E2E2E2F5F5F5F5F5F5F5F5F5E2E2E2E2E2E2E2E2E2E2E2E2E2E2E2E2F5F5F5F5F5F5F5F5F5F5E2E2E2E2E2E2E2E2E2E2
310
E2E2E2E2E2E2F5F5F5F5F5F5F5F5F5E2E2E2E2E2E2E2E2E2F5F5F5F5F5F5F5F5F5F5F5E2E2E2F5F5F5F5F5F5F5F5F5F5F5F5F5F5F5F5F5F5F5F5F5F5F5F5F5F5F5F5F5F5F5F5F5F5F5F5F5F5F5F5F5F5F5F5F5F5F5F5F5F5F5F5F5F5F5F5F5F5F5F5F5F5F5F5F5F5F5F5F5F5F5F5F5F5F5F5F5F5F5F5F5F5F5F5F5F5F5F5F5
310
F5F5F5F5F5F5F5F5F5F5F5F5F5F5F5F5F5F5F5F5F5F5F5F5F5F5F5F5F5F5F5F5F5F5F5F5F5F5F5F5F5F5F5F5F5F5F5F5F5F5F5F5F5F5F5F5F5F5F5F5F5F5F5F5F5F5F5F5F5F5F5F5F5F5F5F5F5F5F5F5F5F5F5F5F5F5F5F5E2E2E2F5F5F5F5F5F5F5F5F5F5F5F5F5F5F5F5F5F5F5F5F5F5F5F5F5F5F5F5F5F5F5F5F5F5F5F5
310
F5F5F5F5F5F5F5F5F5F5F5F5F5F5F5F5F5F5F5F5F5F5F5F5F5F5F5F5F5F5F5F5F5F5F5F5F5F5F5F5F5F5F5F5F5F5F5F5F5F5F5F5F5F5F5F5F5F5F5F5F5F5F5F5F5F5F5F5F5F5F5F5F5F5F5F5F5F5F5F5F5F5F5F5F5F5F5F5F5F5F5F5F5F5F5F5F5F5F5F5F5F5F5F5F5F5F5F5F5F5F5F5F5F5F5F5F5F5F5F5F5F5F5F5F5F5F5
310
F5F5F5F5F5F5F5F5F5F5F5F5F5F5E2E2E2F5F5F5F5F5F5F5F5F5F5F5F5F5F5F5F5F5F5F5F5F5F5F5F5F5F5F5F5F5F5F5F5F5F5F5F5F5F5F5F5F5F5F5F5F5F5F5F5F5F5F5F5F5F5F5F5F5F5F5F5F5F5F5F5F5F5F5F5F5F5F5F5F5F5F5F5F5F5F5F5F5F5F5F5F5F5F5F5F5F5F5F5F5F5F5F5F5F5F5F5F5F5F5F5F5F5F5F5F5F5
310
F5F5F5F5F5F5F5F5F5F5F5F5F5F5F5F5F5F5F5F5F5F5F5F5F5F5F5F5F5F5F5F5F5F5F5F5F5F5F5F5F5F5F5F5F5F5F5F5F5F5F5F5F5F5F5F5F5F5F5F5F5F5F5F5F5F5F5E2E2E2F5F5F5F5F5F5F5F5F5F5F5F5F5F5F5F5F5F5F5F5F5F5F5F5F5F5F5F5F5F5F5F5F5F5F5F5F5F5F5F5F5F5F5F5F5F5F5F5F5F5F5F5F5F5F5F5F5
310
F5F5F5F5F5F5F5F5F5F5F5F5F5F5F5F5F5F5F5F5F5F5F5F5F5F5F5F5F5F5F5F5F5F5F5F5F5F5F5F5F5F5F5F5F5F5F5F5F5F5F5F5F5F5F5F5F5F5F5F5F5F5F5F5F5F5F5F5F5F5F5F5F5F5F5F5F5F5F5F5F5F5F5F5F5F5F5F5F5F5F5F5F5F5F5F5F5F5F5F5F5F5F5F5F5F5F5F5F5F5F5F5F5F5F5F5F5F5F5F5E2EFE2E2E2E2E2
310
E2E2E2E2E2E2E2E2E2E2E2E2E2E2E2E2E2E2E2E2E2E2E2E2E2E2E2E2E2E2E2E2E2E2E2E2E2E2E2E2E2E2E2E2E2E2E2E2E2E2E2E2E2E2E2E2E2E2E2E2E2E2E2E2E2E2E2E2E2E2E2E2E2E2E2E2E2E2E2E2E2E2E2E2E2E2E2E2E2E2E2E2E2E2E2E2E2E2E2E2E2E2E2E2E2E2E2E2E2E2E2E2E2E2E2E2E2E2E2E2E2E2E2E2E2E2E2
310
E2E2E2E2E2E2E2E2E2E2E2E2E2E2E2E2E2E2E2E2E2E2E2E2E2E2E2E2E2E2E2E2E2E2E2E2E2E2E2E2E2E2E2E2E2E2E2EF
  0
XRECORD
  5
24B2
102
{ACAD_REACTORS
330
24B1
102
}
330
24B1
100
AcDbXrecord
280
     1
102
MATERIAL
148
0.0
149
0.0
149
0.0
 93
        0
 94
       63
282
     0
 72
     1
 77
     1
171
     1
175
     1
179
     1
273
     0
  0
XRECORD
  5
24B0
102
{ACAD_REACTORS
330
24AF
102
}
330
24AF
100
AcDbXrecord
280
     1
102
MATERIAL
148
0.0
149
0.0
149
0.0
 93
        0
 94
       63
282
     0
 72
     1
 77
     1
171
     1
175
     1
179
     1
273
     0
  0
XRECORD
  5
24B3
102
{ACAD_REACTORS
330
173
102
}
330
173
100
AcDbXrecord
280
     1
102
MATERIAL
148
0.0
149
0.0
149
0.0
 93
        0
 94
       63
282
     0
 72
     1
 77
     1
171
     1
175
     1
179
     1
273
     0
  0
XRECORD
  5
175
102
{ACAD_REACTORS
330
173
102
}
330
173
100
AcDbXrecord
280
     1
270
     1
271
     1
  0
XRECORD
  5
174
102
{ACAD_REACTORS
330
173
102
}
330
173
100
AcDbXrecord
280
     1
270
     1
271
     1
  0
XRECORD
  5
176
102
{ACAD_REACTORS
330
173
102
}
330
173
100
AcDbXrecord
280
     1
270
     1
271
     1
  0
XRECORD
  5
177
102
{ACAD_REACTORS
330
173
102
}
330
173
100
AcDbXrecord
280
     1
270
     1
271
     1
  0
CELLSTYLEMAP
  5
24AD
102
{ACAD_REACTORS
330
162
102
}
330
162
100
AcDbCellStyleMap
 90
        3
300
CELLSTYLE
  1
TABLEFORMAT_BEGIN
 90
        5
170
     1
 91
        0
 92
    32768
 62
   257
 93
        1
300
CONTENTFORMAT
  1
CONTENTFORMAT_BEGIN
 90
        0
 91
        0
 92
      512
 93
        0
300

 40
0.0
140
1.0
 94
        5
 62
     0
340
11
144
6.0
309
CONTENTFORMAT_END
171
     1
301
MARGIN
  1
CELLMARGIN_BEGIN
 40
1.5
 40
1.5
 40
1.5
 40
1.5
 40
4.5
 40
4.5
309
CELLMARGIN_END
 94
        6
 95
        1
302
GRIDFORMAT
  1
GRIDFORMAT_BEGIN
 90
        0
 91
        1
 62
     0
 92
       -2
340
14
 93
        0
 40
1.125
309
GRIDFORMAT_END
 95
        2
302
GRIDFORMAT
  1
GRIDFORMAT_BEGIN
 90
        0
 91
        1
 62
     0
 92
       -2
340
14
 93
        0
 40
1.125
309
GRIDFORMAT_END
 95
        4
302
GRIDFORMAT
  1
GRIDFORMAT_BEGIN
 90
        0
 91
        1
 62
     0
 92
       -2
340
14
 93
        0
 40
1.125
309
GRIDFORMAT_END
 95
        8
302
GRIDFORMAT
  1
GRIDFORMAT_BEGIN
 90
        0
 91
        1
 62
     0
 92
       -2
340
14
 93
        0
 40
1.125
309
GRIDFORMAT_END
 95
       16
302
GRIDFORMAT
  1
GRIDFORMAT_BEGIN
 90
        0
 91
        1
 62
     0
 92
       -2
340
14
 93
        0
 40
1.125
309
GRIDFORMAT_END
 95
       32
302
GRIDFORMAT
  1
GRIDFORMAT_BEGIN
 90
        0
 91
        1
 62
     0
 92
       -2
340
14
 93
        0
 40
1.125
309
GRIDFORMAT_END
309
TABLEFORMAT_END
  1
CELLSTYLE_BEGIN
 90
        1
 91
        1
300
_TITLE
309
CELLSTYLE_END
300
CELLSTYLE
  1
TABLEFORMAT_BEGIN
 90
        5
170
     1
 91
        0
 92
        0
 62
   257
 93
        1
300
CONTENTFORMAT
  1
CONTENTFORMAT_BEGIN
 90
        0
 91
        0
 92
      512
 93
        0
300

 40
0.0
140
1.0
 94
        5
 62
     0
340
11
144
4.5
309
CONTENTFORMAT_END
171
     1
301
MARGIN
  1
CELLMARGIN_BEGIN
 40
1.5
 40
1.5
 40
1.5
 40
1.5
 40
4.5
 40
4.5
309
CELLMARGIN_END
 94
        6
 95
        1
302
GRIDFORMAT
  1
GRIDFORMAT_BEGIN
 90
        0
 91
        1
 62
     0
 92
       -2
340
14
 93
        0
 40
1.125
309
GRIDFORMAT_END
 95
        2
302
GRIDFORMAT
  1
GRIDFORMAT_BEGIN
 90
        0
 91
        1
 62
     0
 92
       -2
340
14
 93
        0
 40
1.125
309
GRIDFORMAT_END
 95
        4
302
GRIDFORMAT
  1
GRIDFORMAT_BEGIN
 90
        0
 91
        1
 62
     0
 92
       -2
340
14
 93
        0
 40
1.125
309
GRIDFORMAT_END
 95
        8
302
GRIDFORMAT
  1
GRIDFORMAT_BEGIN
 90
        0
 91
        1
 62
     0
 92
       -2
340
14
 93
        0
 40
1.125
309
GRIDFORMAT_END
 95
       16
302
GRIDFORMAT
  1
GRIDFORMAT_BEGIN
 90
        0
 91
        1
 62
     0
 92
       -2
340
14
 93
        0
 40
1.125
309
GRIDFORMAT_END
 95
       32
302
GRIDFORMAT
  1
GRIDFORMAT_BEGIN
 90
        0
 91
        1
 62
     0
 92
       -2
340
14
 93
        0
 40
1.125
309
GRIDFORMAT_END
309
TABLEFORMAT_END
  1
CELLSTYLE_BEGIN
 90
        2
 91
        1
300
_HEADER
309
CELLSTYLE_END
300
CELLSTYLE
  1
TABLEFORMAT_BEGIN
 90
        5
170
     1
 91
        0
 92
        0
 62
   257
 93
        1
300
CONTENTFORMAT
  1
CONTENTFORMAT_BEGIN
 90
        0
 91
        0
 92
      512
 93
        0
300

 40
0.0
140
1.0
 94
        2
 62
     0
340
11
144
4.5
309
CONTENTFORMAT_END
171
     1
301
MARGIN
  1
CELLMARGIN_BEGIN
 40
1.5
 40
1.5
 40
1.5
 40
1.5
 40
4.5
 40
4.5
309
CELLMARGIN_END
 94
        6
 95
        1
302
GRIDFORMAT
  1
GRIDFORMAT_BEGIN
 90
        0
 91
        1
 62
     0
 92
       -2
340
14
 93
        0
 40
1.125
309
GRIDFORMAT_END
 95
        2
302
GRIDFORMAT
  1
GRIDFORMAT_BEGIN
 90
        0
 91
        1
 62
     0
 92
       -2
340
14
 93
        0
 40
1.125
309
GRIDFORMAT_END
 95
        4
302
GRIDFORMAT
  1
GRIDFORMAT_BEGIN
 90
        0
 91
        1
 62
     0
 92
       -2
340
14
 93
        0
 40
1.125
309
GRIDFORMAT_END
 95
        8
302
GRIDFORMAT
  1
GRIDFORMAT_BEGIN
 90
        0
 91
        1
 62
     0
 92
       -2
340
14
 93
        0
 40
1.125
309
GRIDFORMAT_END
 95
       16
302
GRIDFORMAT
  1
GRIDFORMAT_BEGIN
 90
        0
 91
        1
 62
     0
 92
       -2
340
14
 93
        0
 40
1.125
309
GRIDFORMAT_END
 95
       32
302
GRIDFORMAT
  1
GRIDFORMAT_BEGIN
 90
        0
 91
        1
 62
     0
 92
       -2
340
14
 93
        0
 40
1.125
309
GRIDFORMAT_END
309
TABLEFORMAT_END
  1
CELLSTYLE_BEGIN
 90
        3
 91
        2
300
_DATA
309
CELLSTYLE_END
  0
XRECORD
  5
24AE
102
{ACAD_REACTORS
330
162
102
}
330
162
100
AcDbXrecord
280
     1
102
ACAD_ROUNDTRIP_PRE2007_TABLESTYLE
 90
      512
 91
        0
  1

 92
      512
 93
        0
  2

 94
      512
 95
        0
  3

  0
ENDSEC
  0
EOF
