  0
SECTION
  2
HEADER
  9
$ACADVER
  1
AC1018
  9
$ACADMAINTVER
 70
   104
  9
$DWGCODEPAGE
  3
ANSI_1250
  9
$LASTSAVEDBY
  1
bonzo
  9
$INSBASE
 10
0.0
 20
0.0
 30
0.0
  9
$EXTMIN
 10
8.73038433975585
 20
4.38346444977451
 30
0.0
  9
$EXTMAX
 10
15.63945288172584
 20
9.863766536244682
 30
0.0
  9
$LIMMIN
 10
0.0
 20
0.0
  9
$LIMMAX
 10
12.0
 20
9.0
  9
$ORTHOMODE
 70
     1
  9
$REGENMODE
 70
     1
  9
$FILLMODE
 70
     1
  9
$QTEXTMODE
 70
     0
  9
$MIRRTEXT
 70
     1
  9
$LTSCALE
 40
1.0
  9
$ATTMODE
 70
     1
  9
$TEXTSIZE
 40
0.2
  9
$TRACEWID
 40
0.05
  9
$TEXTSTYLE
  7
Standard
  9
$CLAYER
  8
0
  9
$CELTYPE
  6
ByLayer
  9
$CECOLOR
 62
   256
  9
$CELTSCALE
 40
1.0
  9
$DISPSILH
 70
     0
  9
$DIMSCALE
 40
0.02
  9
$DIMASZ
 40
3.0
  9
$DIMEXO
 40
20.0
  9
$DIMDLI
 40
0.0
  9
$DIMRND
 40
0.1
  9
$DIMDLE
 40
0.0
  9
$DIMEXE
 40
5.0
  9
$DIMTP
 40
0.0
  9
$DIMTM
 40
0.0
  9
$DIMTXT
 40
9.0
  9
$DIMCEN
 40
12.0
  9
$DIMTSZ
 40
0.0
  9
$DIMTOL
 70
     0
  9
$DIMLIM
 70
     0
  9
$DIMTIH
 70
     0
  9
$DIMTOH
 70
     0
  9
$DIMSE1
 70
     1
  9
$DIMSE2
 70
     1
  9
$DIMTAD
 70
     1
  9
$DIMZIN
 70
     1
  9
$DIMBLK
  1

  9
$DIMASO
 70
     1
  9
$DIMSHO
 70
     1
  9
$DIMPOST
  1

  9
$DIMAPOST
  1

  9
$DIMALT
 70
     0
  9
$DIMALTD
 70
     4
  9
$DIMALTF
 40
1.0
  9
$DIMLFAC
 40
1.0
  9
$DIMTOFL
 70
     1
  9
$DIMTVP
 40
0.0
  9
$DIMTIX
 70
     1
  9
$DIMSOXD
 70
     0
  9
$DIMSAH
 70
     1
  9
$DIMBLK1
  1
MAR-STRZ
  9
$DIMBLK2
  1
MAR-STRZ
  9
$DIMSTYLE
  2
AR SKALA 1-50
  9
$DIMCLRD
 70
   256
  9
$DIMCLRE
 70
   256
  9
$DIMCLRT
 70
   256
  9
$DIMTFAC
 40
0.01
  9
$DIMGAP
 40
6.0
  9
$DIMJUST
 70
     0
  9
$DIMSD1
 70
     0
  9
$DIMSD2
 70
     0
  9
$DIMTOLJ
 70
     1
  9
$DIMTZIN
 70
     0
  9
$DIMALTZ
 70
     0
  9
$DIMALTTZ
 70
     0
  9
$DIMUPT
 70
     0
  9
$DIMDEC
 70
     2
  9
$DIMTDEC
 70
     2
  9
$DIMALTU
 70
     2
  9
$DIMALTTD
 70
     4
  9
$DIMTXSTY
  7
AR 01 SWIS
  9
$DIMAUNIT
 70
     0
  9
$DIMADEC
 70
     1
  9
$DIMALTRND
 40
0.0
  9
$DIMAZIN
 70
     0
  9
$DIMDSEP
 70
    46
  9
$DIMATFIT
 70
     3
  9
$DIMFRAC
 70
     0
  9
$DIMLDRBLK
  1
MAR-STRZ
  9
$DIMLUNIT
 70
     2
  9
$DIMLWD
 70
    -2
  9
$DIMLWE
 70
    -2
  9
$DIMTMOVE
 70
     2
  9
$LUNITS
 70
     2
  9
$LUPREC
 70
     4
  9
$SKETCHINC
 40
0.1
  9
$FILLETRAD
 40
0.0
  9
$AUNITS
 70
     0
  9
$AUPREC
 70
     0
  9
$MENU
  1
.
  9
$ELEVATION
 40
0.0
  9
$PELEVATION
 40
0.0
  9
$THICKNESS
 40
0.0
  9
$LIMCHECK
 70
     0
  9
$CHAMFERA
 40
0.5
  9
$CHAMFERB
 40
0.5
  9
$CHAMFERC
 40
1.0
  9
$CHAMFERD
 40
0.0
  9
$SKPOLY
 70
     0
  9
$TDCREATE
 40
2455956.457693160
  9
$TDUCREATE
 40
2455956.416026493
  9
$TDUPDATE
 40
2459273.514215625
  9
$TDUUPDATE
 40
2459273.472548959
  9
$TDINDWG
 40
0.1233574074
  9
$TDUSRTIMER
 40
0.1233574074
  9
$USRTIMER
 70
     1
  9
$ANGBASE
 50
0.0
  9
$ANGDIR
 70
     0
  9
$PDMODE
 70
     0
  9
$PDSIZE
 40
0.0
  9
$PLINEWID
 40
0.0
  9
$SPLFRAME
 70
     0
  9
$SPLINETYPE
 70
     6
  9
$SPLINESEGS
 70
     8
  9
$HANDSEED
  5
5D03
  9
$SURFTAB1
 70
     6
  9
$SURFTAB2
 70
     6
  9
$SURFTYPE
 70
     6
  9
$SURFU
 70
     6
  9
$SURFV
 70
     6
  9
$UCSBASE
  2

  9
$UCSNAME
  2

  9
$UCSORG
 10
0.0
 20
0.0
 30
0.0
  9
$UCSXDIR
 10
1.0
 20
0.0
 30
0.0
  9
$UCSYDIR
 10
0.0
 20
1.0
 30
0.0
  9
$UCSORTHOREF
  2

  9
$UCSORTHOVIEW
 70
     0
  9
$UCSORGTOP
 10
0.0
 20
0.0
 30
0.0
  9
$UCSORGBOTTOM
 10
0.0
 20
0.0
 30
0.0
  9
$UCSORGLEFT
 10
0.0
 20
0.0
 30
0.0
  9
$UCSORGRIGHT
 10
0.0
 20
0.0
 30
0.0
  9
$UCSORGFRONT
 10
0.0
 20
0.0
 30
0.0
  9
$UCSORGBACK
 10
0.0
 20
0.0
 30
0.0
  9
$PUCSBASE
  2

  9
$PUCSNAME
  2

  9
$PUCSORG
 10
0.0
 20
0.0
 30
0.0
  9
$PUCSXDIR
 10
1.0
 20
0.0
 30
0.0
  9
$PUCSYDIR
 10
0.0
 20
1.0
 30
0.0
  9
$PUCSORTHOREF
  2

  9
$PUCSORTHOVIEW
 70
     0
  9
$PUCSORGTOP
 10
0.0
 20
0.0
 30
0.0
  9
$PUCSORGBOTTOM
 10
0.0
 20
0.0
 30
0.0
  9
$PUCSORGLEFT
 10
0.0
 20
0.0
 30
0.0
  9
$PUCSORGRIGHT
 10
0.0
 20
0.0
 30
0.0
  9
$PUCSORGFRONT
 10
0.0
 20
0.0
 30
0.0
  9
$PUCSORGBACK
 10
0.0
 20
0.0
 30
0.0
  9
$USERI1
 70
     0
  9
$USERI2
 70
     0
  9
$USERI3
 70
     0
  9
$USERI4
 70
     0
  9
$USERI5
 70
     0
  9
$USERR1
 40
0.0
  9
$USERR2
 40
0.0
  9
$USERR3
 40
0.0
  9
$USERR4
 40
0.0
  9
$USERR5
 40
0.0
  9
$WORLDVIEW
 70
     1
  9
$SHADEDGE
 70
     3
  9
$SHADEDIF
 70
    70
  9
$TILEMODE
 70
     1
  9
$MAXACTVP
 70
    64
  9
$PINSBASE
 10
0.0
 20
0.0
 30
0.0
  9
$PLIMCHECK
 70
     0
  9
$PEXTMIN
 10
6.561544945354853
 20
3.282189374834842
 30
0.0
  9
$PEXTMAX
 10
296.6096419909582
 20
206.4421558651099
 30
0.0
  9
$PLIMMIN
 10
3.386557152386103
 20
0.1071894225185588
  9
$PLIMMAX
 10
300.4395661855892
 20
209.9958460387295
  9
$UNITMODE
 70
     0
  9
$VISRETAIN
 70
     1
  9
$PLINEGEN
 70
     0
  9
$PSLTSCALE
 70
     0
  9
$TREEDEPTH
 70
  3020
  9
$CMLSTYLE
  2
Standard
  9
$CMLJUST
 70
     0
  9
$CMLSCALE
 40
1.0
  9
$PROXYGRAPHICS
 70
     1
  9
$MEASUREMENT
 70
     0
  9
$CELWEIGHT
370
    -1
  9
$ENDCAPS
280
     0
  9
$JOINSTYLE
280
     0
  9
$LWDISPLAY
290
     0
  9
$INSUNITS
 70
     1
  9
$HYPERLINKBASE
  1

  9
$STYLESHEET
  1

  9
$XEDIT
290
     1
  9
$CEPSNTYPE
380
     0
  9
$PSTYLEMODE
290
     1
  9
$FINGERPRINTGUID
  2
{1B330B5B-CE04-4EC8-B886-8C8BFC3A02BF}
  9
$VERSIONGUID
  2
{2411F470-8DF3-4733-8194-0CD5CE0BBCB7}
  9
$EXTNAMES
290
     1
  9
$PSVPSCALE
 40
0.0
  9
$OLESTARTUP
290
     0
  9
$SORTENTS
280
   127
  9
$INDEXCTL
280
     0
  9
$HIDETEXT
280
     1
  9
$XCLIPFRAME
290
     0
  9
$HALOGAP
280
     0
  9
$OBSCOLOR
 70
   257
  9
$OBSLTYPE
280
     0
  9
$INTERSECTIONDISPLAY
280
     0
  9
$INTERSECTIONCOLOR
 70
   257
  9
$DIMASSOC
280
     2
  9
$PROJECTNAME
  1

  0
ENDSEC
  0
SECTION
  2
CLASSES
  0
CLASS
  1
ACDBDICTIONARYWDFLT
  2
AcDbDictionaryWithDefault
  3
ObjectDBX Classes
 90
        0
 91
        1
280
     0
281
     0
  0
CLASS
  1
VISUALSTYLE
  2
AcDbVisualStyle
  3
ObjectDBX Classes
 90
     4095
 91
       16
280
     0
281
     0
  0
CLASS
  1
MATERIAL
  2
AcDbMaterial
  3
ObjectDBX Classes
 90
     1153
 91
        3
280
     0
281
     0
  0
CLASS
  1
DICTIONARYVAR
  2
AcDbDictionaryVar
  3
ObjectDBX Classes
 90
        0
 91
        9
280
     0
281
     0
  0
CLASS
  1
TABLESTYLE
  2
AcDbTableStyle
  3
ObjectDBX Classes
 90
     4095
 91
        1
280
     0
281
     0
  0
CLASS
  1
SORTENTSTABLE
  2
AcDbSortentsTable
  3
ObjectDBX Classes
 90
        0
 91
        1
280
     0
281
     0
  0
CLASS
  1
DIMASSOC
  2
AcDbDimAssoc
  3
"AcDbDimAssoc|Product Desc:     AcDim ARX App For Dimension|Company:          Autodesk, Inc.|WEB Address:      www.autodesk.com"
 90
        0
 91
        2
280
     0
281
     0
  0
CLASS
  1
SCALE
  2
AcDbScale
  3
ObjectDBX Classes
 90
     1153
 91
       33
280
     0
281
     0
  0
CLASS
  1
MLEADERSTYLE
  2
AcDbMLeaderStyle
  3
ACDB_MLEADERSTYLE_CLASS
 90
     4095
 91
        1
280
     0
281
     0
  0
CLASS
  1
CELLSTYLEMAP
  2
AcDbCellStyleMap
  3
ObjectDBX Classes
 90
     1152
 91
        2
280
     0
281
     0
  0
ENDSEC
  0
SECTION
  2
TABLES
  0
TABLE
  2
VPORT
  5
8
102
{ACAD_XDICTIONARY
360
84C
102
}
330
0
100
AcDbSymbolTable
 70
     1
  0
VPORT
  5
29
330
8
100
AcDbSymbolTableRecord
100
AcDbViewportTableRecord
  2
*Active
 70
     0
 10
0.0
 20
0.0
 11
1.0
 21
1.0
 12
10.93540052701196
 22
7.417031039125755
 13
0.0
 23
0.0
 14
0.5
 24
0.5
 15
0.5
 25
0.5
 16
0.0
 26
0.0
 36
1.0
 17
0.0
 27
0.0
 37
-1000.0
 40
7.658589889752519
 41
2.060556464811783
 42
50.0
 43
4.148984367261674
 44
9.217858496371269
 50
0.0
 51
0.0
 71
     0
 72
   100
 73
     1
 74
     3
 75
     0
 76
     0
 77
     0
 78
     0
281
     0
 65
     1
110
0.0
120
0.0
130
0.0
111
1.0
121
0.0
131
0.0
112
0.0
122
1.0
132
0.0
 79
     0
146
0.0
  0
ENDTAB
  0
TABLE
  2
LTYPE
  5
5
330
0
100
AcDbSymbolTable
 70
     2
  0
LTYPE
  5
14
330
5
100
AcDbSymbolTableRecord
100
AcDbLinetypeTableRecord
  2
ByBlock
 70
     0
  3

 72
    65
 73
     0
 40
0.0
  0
LTYPE
  5
15
330
5
100
AcDbSymbolTableRecord
100
AcDbLinetypeTableRecord
  2
ByLayer
 70
     0
  3

 72
    65
 73
     0
 40
0.0
  0
LTYPE
  5
16
330
5
100
AcDbSymbolTableRecord
100
AcDbLinetypeTableRecord
  2
Continuous
 70
     0
  3
Solid line
 72
    65
 73
     0
 40
0.0
  0
LTYPE
  5
886
330
5
100
AcDbSymbolTableRecord
100
AcDbLinetypeTableRecord
  2
DASHED
 70
     0
  3
Dashed __ __ __ __ __ __ __ __ __ __ __ __ __ _
 72
    65
 73
     2
 40
0.75
 49
0.5
 74
     0
 49
-0.25
 74
     0
  0
ENDTAB
  0
TABLE
  2
LAYER
  5
2
102
{ACAD_XDICTIONARY
360
7D1
102
}
330
0
100
AcDbSymbolTable
 70
     4
  0
LAYER
  5
10
102
{ACAD_XDICTIONARY
360
423C
102
}
330
2
100
AcDbSymbolTableRecord
100
AcDbLayerTableRecord
  2
0
 70
     0
 62
     7
  6
Continuous
370
    80
390
F
  0
LAYER
  5
87B
102
{ACAD_XDICTIONARY
360
423E
102
}
330
2
100
AcDbSymbolTableRecord
100
AcDbLayerTableRecord
  2
STREFA BEZPIECZEŃSTWA
 70
     0
 62
     7
  6
DASHED
370
   100
390
F
1001
AcAecLayerStandard
1000

1000

  0
LAYER
  5
87D
102
{ACAD_XDICTIONARY
360
4240
102
}
330
2
100
AcDbSymbolTableRecord
100
AcDbLayerTableRecord
  2
WYMIAR
 70
     0
 62
     7
  6
Continuous
370
   100
390
F
1001
AcAecLayerStandard
1000

1000

  0
LAYER
  5
8CC
330
2
100
AcDbSymbolTableRecord
100
AcDbLayerTableRecord
  2
Defpoints
 70
     0
 62
     7
  6
Continuous
290
     0
370
     5
390
F
1001
RAK
1000
{ACET-LAYISO
1070
     0
1070
     7
1000
Continuous
1071
        5
1071
        0
1005
F
1000
ACET-LAYISO}
  0
ENDTAB
  0
TABLE
  2
STYLE
  5
3
330
0
100
AcDbSymbolTable
 70
     2
  0
STYLE
  5
11
330
3
100
AcDbSymbolTableRecord
100
AcDbTextStyleTableRecord
  2
Standard
 70
     0
 40
0.0
 41
1.0
 50
0.0
 71
     0
 42
0.2
  3
txt
  4

  0
STYLE
  5
8CE
330
3
100
AcDbSymbolTableRecord
100
AcDbTextStyleTableRecord
  2
AR 01 SWIS
 70
     0
 40
0.0
 41
1.0
 50
0.0
 71
     0
 42
55.0
  3

  4

1001
ACAD
1000
Swis721 Cn BT
1071
       34
  0
ENDTAB
  0
TABLE
  2
VIEW
  5
6
330
0
100
AcDbSymbolTable
 70
     0
  0
ENDTAB
  0
TABLE
  2
UCS
  5
7
330
0
100
AcDbSymbolTable
 70
     0
  0
ENDTAB
  0
TABLE
  2
APPID
  5
9
330
0
100
AcDbSymbolTable
 70
     9
  0
APPID
  5
12
330
9
100
AcDbSymbolTableRecord
100
AcDbRegAppTableRecord
  2
ACAD
 70
     0
  0
APPID
  5
7CB
330
9
100
AcDbSymbolTableRecord
100
AcDbRegAppTableRecord
  2
ACAD_PSEXT
 70
     0
  0
APPID
  5
875
330
9
100
AcDbSymbolTableRecord
100
AcDbRegAppTableRecord
  2
ACAD_EXEMPT_FROM_CAD_STANDARDS
 70
     0
  0
APPID
  5
87C
330
9
100
AcDbSymbolTableRecord
100
AcDbRegAppTableRecord
  2
AcAecLayerStandard
 70
     0
  0
APPID
  5
8D4
330
9
100
AcDbSymbolTableRecord
100
AcDbRegAppTableRecord
  2
RAK
 70
     0
  0
APPID
  5
8D5
330
9
100
AcDbSymbolTableRecord
100
AcDbRegAppTableRecord
  2
ACAD_DSTYLE_DIMJOGGED_JOGANGLE_SYMBOL
 70
     0
  0
APPID
  5
8D6
330
9
100
AcDbSymbolTableRecord
100
AcDbRegAppTableRecord
  2
ACAD_DSTYLE_DIMJAG
 70
     0
  0
APPID
  5
8D7
330
9
100
AcDbSymbolTableRecord
100
AcDbRegAppTableRecord
  2
ACAD_DSTYLE_DIMTALN
 70
     0
  0
APPID
  5
4236
330
9
100
AcDbSymbolTableRecord
100
AcDbRegAppTableRecord
  2
ACAD_MLEADERVER
 70
     0
  0
ENDTAB
  0
TABLE
  2
DIMSTYLE
  5
A
330
0
100
AcDbSymbolTable
 70
     2
100
AcDbDimStyleTable
 71
     1
340
8CF
  0
DIMSTYLE
105
8CF
102
{ACAD_REACTORS
330
57A3
330
57A6
102
}
330
A
100
AcDbSymbolTableRecord
100
AcDbDimStyleTableRecord
  2
AR SKALA 1-50
 70
     0
 40
0.02
 41
3.0
 42
20.0
 43
0.0
 44
5.0
 45
0.1
 73
     0
 74
     0
 75
     1
 76
     1
 77
     1
 78
     1
140
9.0
141
12.0
143
1.0
146
0.01
147
6.0
171
     4
172
     1
173
     1
174
     1
176
   256
177
   256
178
   256
179
     1
271
     2
272
     2
274
     4
279
     2
340
8CE
341
8BC
343
8BC
344
8BC
  0
DIMSTYLE
105
A46
330
A
100
AcDbSymbolTableRecord
100
AcDbDimStyleTableRecord
  2
Standard
 70
     0
340
11
  0
ENDTAB
  0
TABLE
  2
BLOCK_RECORD
  5
1
330
0
100
AcDbSymbolTable
 70
     3
  0
BLOCK_RECORD
  5
1F
102
{ACAD_XDICTIONARY
360
5F8
102
}
330
1
100
AcDbSymbolTableRecord
100
AcDbBlockTableRecord
  2
*Model_Space
340
22
  0
BLOCK_RECORD
  5
1B
330
1
100
AcDbSymbolTableRecord
100
AcDbBlockTableRecord
  2
*Paper_Space
340
1E
  0
BLOCK_RECORD
  5
8BC
330
1
100
AcDbSymbolTableRecord
100
AcDbBlockTableRecord
  2
MAR-STRZ
340
0
310
2800000020000000200000000100080000000000000400000000000000000000000000000000000000000000000080000080000000808000800000008000800080800000C0C0C000C0DCC000F0CAA6000020400000206000002080000020A0000020C0000020E00000400000004020000040400000406000004080000040A0
310
000040C0000040E00000600000006020000060400000606000006080000060A0000060C0000060E00000800000008020000080400000806000008080000080A0000080C0000080E00000A0000000A0200000A0400000A0600000A0800000A0A00000A0C00000A0E00000C0000000C0200000C0400000C0600000C0800000C0
310
A00000C0C00000C0E00000E0000000E0200000E0400000E0600000E0800000E0A00000E0C00000E0E00040000000400020004000400040006000400080004000A0004000C0004000E00040200000402020004020400040206000402080004020A0004020C0004020E000404000004040200040404000404060004040800040
310
40A0004040C0004040E00040600000406020004060400040606000406080004060A0004060C0004060E00040800000408020004080400040806000408080004080A0004080C0004080E00040A0000040A0200040A0400040A0600040A0800040A0A00040A0C00040A0E00040C0000040C0200040C0400040C0600040C08000
310
40C0A00040C0C00040C0E00040E0000040E0200040E0400040E0600040E0800040E0A00040E0C00040E0E00080000000800020008000400080006000800080008000A0008000C0008000E00080200000802020008020400080206000802080008020A0008020C0008020E00080400000804020008040400080406000804080
310
008040A0008040C0008040E00080600000806020008060400080606000806080008060A0008060C0008060E00080800000808020008080400080806000808080008080A0008080C0008080E00080A0000080A0200080A0400080A0600080A0800080A0A00080A0C00080A0E00080C0000080C0200080C0400080C0600080C0
310
800080C0A00080C0C00080C0E00080E0000080E0200080E0400080E0600080E0800080E0A00080E0C00080E0E000C0000000C0002000C0004000C0006000C0008000C000A000C000C000C000E000C0200000C0202000C0204000C0206000C0208000C020A000C020C000C020E000C0400000C0402000C0404000C0406000C0
310
408000C040A000C040C000C040E000C0600000C0602000C0604000C0606000C0608000C060A000C060C000C060E000C0800000C0802000C0804000C0806000C0808000C080A000C080C000C080E000C0A00000C0A02000C0A04000C0A06000C0A08000C0A0A000C0A0C000C0A0E000C0C00000C0C02000C0C04000C0C06000
310
C0C08000C0C0A000F0FBFF00A4A0A000808080000000FF0000FF000000FFFF00FF000000FF00FF00FFFF0000FFFFFF00000000000000000000000000000000000000000000000000000000000000000000000000000000000000000000000000FF000000000000000000000000000000000000000000000000000000000000
310
00FF00000000000000000000000000000000000000000000000000000000000000FF00000000000000000000000000000000000000000000000000000000000000FF00000000000000000000000000000000000000000000000000000000000000FF000000000000000000000000000000000000000000F900000000000000
310
0000FF00000000000000000000000000000000000000000000F90000000000000000FF0000000000000000000000000000000000000000000000F900000000000000FF000000000000000000000000000000000000000000000000F9000000000000FF00000000000000000000000000000000000000000000000000F90000
310
000000FF0000000000000000000000000000000000000000000000000000F900000000FF000000000000000000000000000000000000000000000000000000F9000000FF00000000000000000000000000000000000000000000000000000000F90000FF000000000000000000000000000000000000000000000000000000
310
0000F900FF000000000000000000000000000000000000000000000000000000000000F9FF00000000000000000000000000000000000000000000FFFFFFFFFFFFFFFFFFFFFFFFFFFFFFFFFFFF0000000000000000000000000000000000000000000000FFF900000000000000000000000000000000000000000000000000
310
0000000000FF00F90000000000000000000000000000000000000000000000000000000000FF0000F900000000000000000000000000000000000000000000000000000000FF000000F9000000000000000000000000000000000000000000000000000000FF00000000F90000000000000000000000000000000000000000
310
000000000000FF0000000000F900000000000000000000000000000000000000000000000000FF000000000000F9000000000000000000000000000000000000000000000000FF00000000000000F90000000000000000000000000000000000000000000000FF0000000000000000F9000000000000000000000000000000
310
00000000000000FF00000000000000000000000000000000000000000000000000000000000000FF00000000000000000000000000000000000000000000000000000000000000FF00000000000000000000000000000000000000000000000000000000000000FF0000000000000000000000000000000000000000000000
310
0000000000000000FF0000000000000000000000000000000000000000000000000000000000000000000000000000000000000000000000
102
{BLKREFS
331
5CC6
331
5CC7
331
5CD0
331
5CD1
102
}
  0
BLOCK_RECORD
  5
5CC2
330
1
100
AcDbSymbolTableRecord
100
AcDbBlockTableRecord
  2
*D1
340
0
  0
BLOCK_RECORD
  5
5CCC
330
1
100
AcDbSymbolTableRecord
100
AcDbBlockTableRecord
  2
*D2
340
0
  0
ENDTAB
  0
ENDSEC
  0
SECTION
  2
BLOCKS
  0
BLOCK
  5
20
330
1F
100
AcDbEntity
  8
0
100
AcDbBlockBegin
  2
*Model_Space
 70
     0
 10
0.0
 20
0.0
 30
0.0
  3
*Model_Space
  1

  0
ENDBLK
  5
21
330
1F
100
AcDbEntity
  8
0
100
AcDbBlockEnd
  0
BLOCK
  5
1C
330
1B
100
AcDbEntity
 67
     1
  8
0
100
AcDbBlockBegin
  2
*Paper_Space
 70
     0
 10
0.0
 20
0.0
 30
0.0
  3
*Paper_Space
  1

  0
ENDBLK
  5
1D
330
1B
100
AcDbEntity
 67
     1
  8
0
100
AcDbBlockEnd
  0
BLOCK
  5
8BD
330
8BC
100
AcDbEntity
  8
0
100
AcDbBlockBegin
  2
MAR-STRZ
 70
     0
 10
0.0
 20
0.0
 30
0.0
  3
MAR-STRZ
  1

  0
LINE
  5
8BE
330
8BC
100
AcDbEntity
  8
0
100
AcDbLine
 10
0.0
 20
2.299999999999272
 30
0.0
 11
0.0
 21
-2.299999999999272
 31
0.0
  0
LINE
  5
8BF
330
8BC
100
AcDbEntity
  8
0
 62
    10
100
AcDbLine
 10
1.5
 20
1.5
 30
0.0
 11
-1.5
 21
-1.5
 31
0.0
  0
LINE
  5
8C0
330
8BC
100
AcDbEntity
  8
0
100
AcDbLine
 10
1.399999999999636
 20
0.0
 30
0.0
 11
-1.399999999999636
 21
0.0
 31
0.0
  0
ENDBLK
  5
8C1
330
8BC
100
AcDbEntity
  8
0
100
AcDbBlockEnd
  0
BLOCK
  5
5CC3
330
5CC2
100
AcDbEntity
  8
0
100
AcDbBlockBegin
  2
*D1
 70
     1
 10
0.0
 20
0.0
 30
0.0
  3
*D1
  1

  0
LINE
  5
5CC5
330
5CC2
100
AcDbEntity
  8
WYMIAR
370
    -2
100
AcDbLine
 10
15.50145288172589
 20
8.596908546262115
 30
0.0
 11
15.50145288172589
 21
5.216908546262115
 31
0.0
  0
INSERT
  5
5CC6
330
5CC2
100
AcDbEntity
  8
WYMIAR
370
    -2
100
AcDbBlockReference
  2
MAR-STRZ
 10
15.50145288172589
 20
8.656908546262116
 30
0.0
 41
0.06
 42
0.06
 43
0.06
 50
90.0
  0
INSERT
  5
5CC7
330
5CC2
100
AcDbEntity
  8
WYMIAR
370
    -2
100
AcDbBlockReference
  2
MAR-STRZ
 10
15.50145288172589
 20
5.156908546262116
 30
0.0
 41
0.06
 42
0.06
 43
0.06
 50
270.0
  0
MTEXT
  5
5CC8
330
5CC2
100
AcDbEntity
  8
WYMIAR
100
AcDbMText
 10
15.29145288172588
 20
6.906908546262118
 30
0.0
 40
0.18
 41
0.0
 71
     5
 72
     1
  1
\A1;3.50
  7
AR 01 SWIS
 11
0.0000000000000001
 21
1.0
 31
0.0
 73
     1
 44
1.0
  0
POINT
  5
5CC9
330
5CC2
100
AcDbEntity
  8
Defpoints
 62
     0
100
AcDbPoint
 10
14.82038433975585
 20
8.656908546262116
 30
0.0
  0
POINT
  5
5CCA
330
5CC2
100
AcDbEntity
  8
Defpoints
 62
     0
100
AcDbPoint
 10
14.82038433975585
 20
5.156908546262116
 30
0.0
  0
POINT
  5
5CCB
330
5CC2
100
AcDbEntity
  8
Defpoints
 62
     0
100
AcDbPoint
 10
15.50145288172589
 20
5.156908546262116
 30
0.0
  0
ENDBLK
  5
5CC4
330
5CC2
100
AcDbEntity
  8
0
100
AcDbBlockEnd
  0
BLOCK
  5
5CCD
330
5CCC
100
AcDbEntity
  8
0
100
AcDbBlockBegin
  2
*D2
 70
     1
 10
0.0
 20
0.0
 30
0.0
  3
*D2
  1

  0
LINE
  5
5CCF
330
5CCC
100
AcDbEntity
  8
WYMIAR
370
    -2
100
AcDbLine
 10
14.76038433975585
 20
9.511461341439488
 30
0.0
 11
8.880384339755851
 21
9.511461341439488
 31
0.0
  0
INSERT
  5
5CD0
330
5CCC
100
AcDbEntity
  8
WYMIAR
370
    -2
100
AcDbBlockReference
  2
MAR-STRZ
 10
14.82038433975585
 20
9.511461341439488
 30
0.0
 41
0.06
 42
0.06
 43
0.06
  0
INSERT
  5
5CD1
330
5CCC
100
AcDbEntity
  8
WYMIAR
370
    -2
100
AcDbBlockReference
  2
MAR-STRZ
 10
8.82038433975585
 20
9.511461341439488
 30
0.0
 41
0.06
 42
0.06
 43
0.06
 50
180.0
  0
MTEXT
  5
5CD2
330
5CCC
100
AcDbEntity
  8
WYMIAR
100
AcDbMText
 10
11.82038433975585
 20
9.721461341439489
 30
0.0
 40
0.18
 41
0.0
 71
     5
 72
     1
  1
\A1;6.00
  7
AR 01 SWIS
 73
     1
 44
1.0
  0
POINT
  5
5CD3
330
5CCC
100
AcDbEntity
  8
Defpoints
 62
     0
100
AcDbPoint
 10
14.82038433975585
 20
8.656908546262116
 30
0.0
  0
POINT
  5
5CD4
330
5CCC
100
AcDbEntity
  8
Defpoints
 62
     0
100
AcDbPoint
 10
8.82038433975585
 20
8.656908546262117
 30
0.0
  0
POINT
  5
5CD5
330
5CCC
100
AcDbEntity
  8
Defpoints
 62
     0
100
AcDbPoint
 10
8.82038433975585
 20
9.511461341439488
 30
0.0
  0
ENDBLK
  5
5CCE
330
5CCC
100
AcDbEntity
  8
0
100
AcDbBlockEnd
  0
ENDSEC
  0
SECTION
  2
ENTITIES
  0
LWPOLYLINE
  5
57A2
102
{ACAD_REACTORS
330
57A5
330
57A8
102
}
330
1F
100
AcDbEntity
  8
STREFA BEZPIECZEŃSTWA
 48
0.5
100
AcDbPolyline
 90
        4
 70
     1
 43
0.0
 10
8.82038433975585
 20
8.656908546262117
 10
8.82038433975585
 20
5.156908546262117
 10
14.82038433975585
 20
5.156908546262116
 10
14.82038433975585
 20
8.656908546262116
  0
DIMENSION
  5
57A3
102
{ACAD_XDICTIONARY
360
57A4
102
}
102
{ACAD_REACTORS
330
57A5
102
}
330
1F
100
AcDbEntity
  8
WYMIAR
100
AcDbDimension
  2
*D1
 10
15.50145288172589
 20
5.156908546262116
 30
0.0
 11
15.29145288172588
 21
6.906908546262118
 31
0.0
 70
    33
 71
     5
 42
3.5
  3
AR SKALA 1-50
100
AcDbAlignedDimension
 13
14.82038433975585
 23
8.656908546262116
 33
0.0
 14
14.82038433975585
 24
5.156908546262116
 34
0.0
  0
DIMENSION
  5
57A6
102
{ACAD_XDICTIONARY
360
57A7
102
}
102
{ACAD_REACTORS
330
57A8
102
}
330
1F
100
AcDbEntity
  8
WYMIAR
100
AcDbDimension
  2
*D2
 10
8.82038433975585
 20
9.511461341439488
 30
0.0
 11
11.82038433975585
 21
9.721461341439489
 31
0.0
 70
    33
 71
     5
 42
6.000000000000003
  3
AR SKALA 1-50
100
AcDbAlignedDimension
 13
14.82038433975585
 23
8.656908546262116
 33
0.0
 14
8.82038433975585
 24
8.656908546262117
 34
0.0
  0
LINE
  5
57A9
330
1F
100
AcDbEntity
  8
0
100
AcDbLine
 10
13.28660452955229
 20
6.81492466443445
 30
0.0
 11
13.28727405264137
 21
6.816331333319078
 31
0.0
  0
LINE
  5
57AA
330
1F
100
AcDbEntity
  8
0
100
AcDbLine
 10
13.28727405264137
 20
6.816331333319078
 30
0.0
 11
13.28780173356787
 21
6.817797657226628
 31
0.0
  0
LINE
  5
57AB
330
1F
100
AcDbEntity
  8
0
100
AcDbLine
 10
13.28780173356787
 20
6.817797657226628
 30
0.0
 11
13.28818239252026
 21
6.819309242456051
 31
0.0
  0
LINE
  5
57AC
330
1F
100
AcDbEntity
  8
0
100
AcDbLine
 10
13.28818239252026
 20
6.819309242456051
 30
0.0
 11
13.2884122928813
 21
6.820851251012975
 31
0.0
  0
LINE
  5
57AD
330
1F
100
AcDbEntity
  8
0
100
AcDbLine
 10
13.27644309566867
 20
7.004540671785982
 30
0.0
 11
13.27816564299897
 21
7.004206669530611
 31
0.0
  0
LINE
  5
57AE
330
1F
100
AcDbEntity
  8
0
100
AcDbLine
 10
13.27816564299897
 20
7.004206669530611
 30
0.0
 11
13.27983214833954
 21
7.003655990217418
 31
0.0
  0
LINE
  5
57AF
330
1F
100
AcDbEntity
  8
0
100
AcDbLine
 10
13.27692966323575
 20
6.80780189825169
 30
0.0
 11
13.27865488678111
 21
6.80780189825169
 31
0.0
  0
LINE
  5
57B0
330
1F
100
AcDbEntity
  8
0
100
AcDbLine
 10
13.28289081566045
 20
7.001943493699465
 30
0.0
 11
13.28423362640327
 21
7.000809307424625
 31
0.0
  0
LINE
  5
57B1
330
1F
100
AcDbEntity
  8
0
100
AcDbLine
 10
13.28423362640327
 20
7.000809307424625
 30
0.0
 11
13.28542248895777
 21
6.999513260130009
 31
0.0
  0
LINE
  5
57B2
330
1F
100
AcDbEntity
  8
0
100
AcDbLine
 10
13.28542248895777
 20
6.999513260130009
 30
0.0
 11
13.28643822116645
 21
6.998076263386274
 31
0.0
  0
LINE
  5
57B3
330
1F
100
AcDbEntity
  8
0
100
AcDbLine
 10
13.28643822116645
 20
6.998076263386274
 30
0.0
 11
13.28726443430959
 21
6.996521502966907
 31
0.0
  0
LINE
  5
57B4
330
1F
100
AcDbEntity
  8
0
100
AcDbLine
 10
13.28140406795163
 20
6.809241551780382
 30
0.0
 11
13.28265889873134
 21
6.810159122098064
 31
0.0
  0
LINE
  5
57B5
330
1F
100
AcDbEntity
  8
0
100
AcDbLine
 10
13.28006501584221
 20
6.808453231065294
 30
0.0
 11
13.28140406795163
 21
6.809241551780382
 31
0.0
  0
LINE
  5
57B6
330
1F
100
AcDbEntity
  8
0
100
AcDbLine
 10
13.27865488678111
 20
6.80780189825169
 30
0.0
 11
13.28006501584221
 21
6.808453231065294
 31
0.0
  0
LINE
  5
57B7
330
1F
100
AcDbEntity
  8
0
100
AcDbLine
 10
13.28265889873134
 20
6.810159122098064
 30
0.0
 11
13.28381719053514
 21
6.811196934981915
 31
0.0
  0
LINE
  5
57B8
330
1F
100
AcDbEntity
  8
0
100
AcDbLine
 10
13.28381719053514
 20
6.811196934981915
 30
0.0
 11
13.2848675733609
 21
6.812344803072684
 31
0.0
  0
LINE
  5
57B9
330
1F
100
AcDbEntity
  8
0
100
AcDbLine
 10
13.2848675733609
 20
6.812344803072684
 30
0.0
 11
13.28579973646056
 21
6.81359145868931
 31
0.0
  0
LINE
  5
57BA
330
1F
100
AcDbEntity
  8
0
100
AcDbLine
 10
13.28579973646056
 20
6.81359145868931
 30
0.0
 11
13.28660452955229
 21
6.81492466443445
 31
0.0
  0
LINE
  5
57BB
330
1F
100
AcDbEntity
  8
0
100
AcDbLine
 10
13.27983214833954
 20
7.003655990217418
 30
0.0
 11
13.28141572282272
 21
7.002897518992363
 31
0.0
  0
LINE
  5
57BC
330
1F
100
AcDbEntity
  8
0
100
AcDbLine
 10
13.28141572282272
 20
7.002897518992363
 30
0.0
 11
13.28289081566045
 21
7.001943493699465
 31
0.0
  0
LINE
  5
57BD
330
1F
100
AcDbEntity
  8
0
100
AcDbLine
 10
13.28829825295118
 20
6.993160529952654
 30
0.0
 11
13.28848917790743
 21
6.991408546262115
 31
0.0
  0
LINE
  5
57BE
330
1F
100
AcDbEntity
  8
0
100
AcDbLine
 10
13.28788779753527
 20
6.994874064748395
 30
0.0
 11
13.28829825295118
 21
6.993160529952654
 31
0.0
  0
LINE
  5
57BF
330
1F
100
AcDbEntity
  8
0
100
AcDbLine
 10
13.28726443430959
 20
6.996521502966907
 30
0.0
 11
13.28788779753527
 21
6.994874064748395
 31
0.0
  0
LINE
  5
57C0
330
1F
100
AcDbEntity
  8
0
100
AcDbLine
 10
13.27469229944725
 20
7.004652607896425
 30
0.0
 11
13.27644309566867
 21
7.004540671785982
 31
0.0
  0
LINE
  5
57C1
330
1F
100
AcDbEntity
  8
0
100
AcDbLine
 10
13.2884122928813
 20
6.820851251012975
 30
0.0
 11
13.28848917790743
 21
6.822408546262104
 31
0.0
  0
LINE
  5
57C2
330
1F
100
AcDbEntity
  8
0
100
AcDbLine
 10
13.28676395436207
 20
6.822408546262104
 30
0.0
 11
13.28676395436207
 21
6.991408546262115
 31
0.0
  0
LINE
  5
57C3
330
1F
100
AcDbEntity
  8
0
100
AcDbLine
 10
13.28657302940581
 20
6.993160529952654
 30
0.0
 11
13.28676395436207
 21
6.991408546262115
 31
0.0
  0
LINE
  5
57C4
330
1F
100
AcDbEntity
  8
0
100
AcDbLine
 10
13.28616257398991
 20
6.994874064748395
 30
0.0
 11
13.28657302940581
 21
6.993160529952654
 31
0.0
  0
LINE
  5
57C5
330
1F
100
AcDbEntity
  8
0
100
AcDbLine
 10
13.28553921076422
 20
6.996521502966907
 30
0.0
 11
13.28616257398991
 21
6.994874064748395
 31
0.0
  0
LINE
  5
57C6
330
1F
100
AcDbEntity
  8
0
100
AcDbLine
 10
13.28471299762109
 20
6.998076263386274
 30
0.0
 11
13.28553921076422
 21
6.996521502966907
 31
0.0
  0
LINE
  5
57C7
330
1F
100
AcDbEntity
  8
0
100
AcDbLine
 10
13.28369726541241
 20
6.999513260130009
 30
0.0
 11
13.28471299762109
 21
6.998076263386274
 31
0.0
  0
LINE
  5
57C8
330
1F
100
AcDbEntity
  8
0
100
AcDbLine
 10
13.28250840285791
 20
7.000809307424625
 30
0.0
 11
13.28369726541241
 21
6.999513260130009
 31
0.0
  0
LINE
  5
57C9
330
1F
100
AcDbEntity
  8
0
100
AcDbLine
 10
13.28116559211508
 20
7.001943493699465
 30
0.0
 11
13.28250840285791
 21
7.000809307424625
 31
0.0
  0
LINE
  5
57CA
330
1F
100
AcDbEntity
  8
0
100
AcDbLine
 10
13.27969049927736
 20
7.002897518992363
 30
0.0
 11
13.28116559211508
 21
7.001943493699465
 31
0.0
  0
LINE
  5
57CB
330
1F
100
AcDbEntity
  8
0
100
AcDbLine
 10
13.27810692479419
 20
7.003655990217418
 30
0.0
 11
13.27969049927736
 21
7.002897518992363
 31
0.0
  0
LINE
  5
57CC
330
1F
100
AcDbEntity
  8
0
100
AcDbLine
 10
13.27644041945361
 20
7.004206669530611
 30
0.0
 11
13.27810692479419
 21
7.003655990217418
 31
0.0
  0
LINE
  5
57CD
330
1F
100
AcDbEntity
  8
0
100
AcDbLine
 10
13.27471787212331
 20
7.004540671785982
 30
0.0
 11
13.27644041945361
 21
7.004206669530611
 31
0.0
  0
LINE
  5
57CE
330
1F
100
AcDbEntity
  8
0
100
AcDbLine
 10
13.27296707590189
 20
7.004652607896425
 30
0.0
 11
13.27471787212331
 21
7.004540671785982
 31
0.0
  0
LINE
  5
57CF
330
1F
100
AcDbEntity
  8
0
100
AcDbLine
 10
13.10203903954075
 20
7.004122882701701
 30
0.0
 11
13.10373072471986
 21
7.004652607896425
 31
0.0
  0
LINE
  5
57D0
330
1F
100
AcDbEntity
  8
0
100
AcDbLine
 10
13.10042104016199
 20
7.003397109554961
 30
0.0
 11
13.10203903954075
 21
7.004122882701701
 31
0.0
  0
LINE
  5
57D1
330
1F
100
AcDbEntity
  8
0
100
AcDbLine
 10
13.09889914859139
 20
7.002485346118398
 30
0.0
 11
13.10042104016199
 21
7.003397109554961
 31
0.0
  0
LINE
  5
57D2
330
1F
100
AcDbEntity
  8
0
100
AcDbLine
 10
13.09749445498826
 20
7.001400227481462
 30
0.0
 11
13.09889914859139
 21
7.002485346118398
 31
0.0
  0
LINE
  5
57D3
330
1F
100
AcDbEntity
  8
0
100
AcDbLine
 10
13.09622642539898
 20
7.0001567910656
 30
0.0
 11
13.09749445498826
 21
7.001400227481462
 31
0.0
  0
LINE
  5
57D4
330
1F
100
AcDbEntity
  8
0
100
AcDbLine
 10
13.09511263199923
 20
6.998772268237765
 30
0.0
 11
13.09622642539898
 21
7.0001567910656
 31
0.0
  0
LINE
  5
57D5
330
1F
100
AcDbEntity
  8
0
100
AcDbLine
 10
13.09416850958129
 20
6.997265845520552
 30
0.0
 11
13.09511263199923
 21
6.998772268237765
 31
0.0
  0
LINE
  5
57D6
330
1F
100
AcDbEntity
  8
0
100
AcDbLine
 10
13.09340714166082
 20
6.995658398708095
 30
0.0
 11
13.09416850958129
 21
6.997265845520552
 31
0.0
  0
LINE
  5
57D7
330
1F
100
AcDbEntity
  8
0
100
AcDbLine
 10
13.09283907916739
 20
6.99397220357222
 30
0.0
 11
13.09340714166082
 21
6.995658398708095
 31
0.0
  0
LINE
  5
57D8
330
1F
100
AcDbEntity
  8
0
100
AcDbLine
 10
13.0924721942311
 20
6.992230627167935
 30
0.0
 11
13.09283907916739
 21
6.99397220357222
 31
0.0
  0
LINE
  5
57D9
330
1F
100
AcDbEntity
  8
0
100
AcDbLine
 10
13.0923115710918
 20
6.990457804016082
 30
0.0
 11
13.0924721942311
 21
6.992230627167935
 31
0.0
  0
LINE
  5
57DA
330
1F
100
AcDbEntity
  8
0
100
AcDbLine
 10
13.09235943564238
 20
6.988678301650559
 30
0.0
 11
13.0923115710918
 21
6.990457804016082
 31
0.0
  0
LINE
  5
57DB
330
1F
100
AcDbEntity
  8
0
100
AcDbLine
 10
13.09238302764029
 20
6.987274331500679
 30
0.0
 11
13.09235943564238
 21
6.988678301650559
 31
0.0
  0
LINE
  5
57DC
330
1F
100
AcDbEntity
  8
0
100
AcDbLine
 10
13.09221406940488
 20
6.985880458348455
 30
0.0
 11
13.09238302764029
 21
6.987274331500679
 31
0.0
  0
LINE
  5
57DD
330
1F
100
AcDbEntity
  8
0
100
AcDbLine
 10
13.09185577620757
 20
6.984523207568678
 30
0.0
 11
13.09221406940488
 21
6.985880458348455
 31
0.0
  0
LINE
  5
57DE
330
1F
100
AcDbEntity
  8
0
100
AcDbLine
 10
13.09131496635985
 20
6.983228407613133
 30
0.0
 11
13.09185577620757
 21
6.984523207568678
 31
0.0
  0
LINE
  5
57DF
330
1F
100
AcDbEntity
  8
0
100
AcDbLine
 10
13.09060193146097
 20
6.982020698495909
 30
0.0
 11
13.09131496635985
 21
6.983228407613133
 31
0.0
  0
LINE
  5
57E0
330
1F
100
AcDbEntity
  8
0
100
AcDbLine
 10
13.08973024054903
 20
6.980923062894341
 30
0.0
 11
13.09060193146097
 21
6.982020698495909
 31
0.0
  0
LINE
  5
57E1
330
1F
100
AcDbEntity
  8
0
100
AcDbLine
 10
13.08871648188248
 20
6.979956388789269
 30
0.0
 11
13.08973024054903
 21
6.980923062894341
 31
0.0
  0
LINE
  5
57E2
330
1F
100
AcDbEntity
  8
0
100
AcDbLine
 10
13.08757994726596
 20
6.979139071967161
 30
0.0
 11
13.08871648188248
 21
6.979956388789269
 31
0.0
  0
LINE
  5
57E3
330
1F
100
AcDbEntity
  8
0
100
AcDbLine
 10
13.08634226492769
 20
6.978486665948786
 30
0.0
 11
13.08757994726596
 21
6.979139071967161
 31
0.0
  0
LINE
  5
57E4
330
1F
100
AcDbEntity
  8
0
100
AcDbLine
 10
13.08502698793473
 20
6.978011586005998
 30
0.0
 11
13.08634226492769
 21
6.978486665948786
 31
0.0
  0
LINE
  5
57E5
330
1F
100
AcDbEntity
  8
0
100
AcDbLine
 10
13.0836591459787
 20
6.977722872899456
 30
0.0
 11
13.08502698793473
 21
6.978011586005998
 31
0.0
  0
LINE
  5
57E6
330
1F
100
AcDbEntity
  8
0
100
AcDbLine
 10
13.08226476906127
 20
6.97762602083305
 30
0.0
 11
13.0836591459787
 21
6.977722872899456
 31
0.0
  0
LINE
  5
57E7
330
1F
100
AcDbEntity
  8
0
100
AcDbLine
 10
13.08226476906127
 20
6.97762602083305
 30
0.0
 11
12.97376658343925
 21
6.97762602083305
 31
0.0
  0
LINE
  5
57E8
330
1F
100
AcDbEntity
  8
0
100
AcDbLine
 10
12.97376658343925
 20
6.97762602083305
 30
0.0
 11
12.97177283084854
 21
6.977535430022649
 31
0.0
  0
LINE
  5
57E9
330
1F
100
AcDbEntity
  8
0
100
AcDbLine
 10
12.97177283084854
 20
6.977535430022649
 30
0.0
 11
12.96979535852367
 21
6.977264397323389
 31
0.0
  0
LINE
  5
57EA
330
1F
100
AcDbEntity
  8
0
100
AcDbLine
 10
12.96979535852367
 20
6.977264397323389
 30
0.0
 11
12.96785031379171
 21
6.976815135890711
 31
0.0
  0
LINE
  5
57EB
330
1F
100
AcDbEntity
  8
0
100
AcDbLine
 10
12.96785031379171
 20
6.976815135890711
 30
0.0
 11
12.96595357918766
 21
6.976191314231734
 31
0.0
  0
LINE
  5
57EC
330
1F
100
AcDbEntity
  8
0
100
AcDbLine
 10
12.96595357918766
 20
6.976191314231734
 30
0.0
 11
12.96412064276341
 21
6.975398026249529
 31
0.0
  0
LINE
  5
57ED
330
1F
100
AcDbEntity
  8
0
100
AcDbLine
 10
12.96412064276341
 20
6.975398026249529
 30
0.0
 11
12.9623664716179
 21
6.974441749648144
 31
0.0
  0
LINE
  5
57EE
330
1F
100
AcDbEntity
  8
0
100
AcDbLine
 10
12.9623664716179
 20
6.974441749648144
 30
0.0
 11
12.96070538968113
 21
6.973330293038011
 31
0.0
  0
LINE
  5
57EF
330
1F
100
AcDbEntity
  8
0
100
AcDbLine
 10
12.96070538968113
 20
6.973330293038011
 30
0.0
 11
12.95915096075018
 21
6.972072732173679
 31
0.0
  0
LINE
  5
57F0
330
1F
100
AcDbEntity
  8
0
100
AcDbLine
 10
12.95915096075018
 20
6.972072732173679
 30
0.0
 11
12.95771587773205
 21
6.970679335844374
 31
0.0
  0
LINE
  5
57F1
330
1F
100
AcDbEntity
  8
0
100
AcDbLine
 10
12.95771587773205
 20
6.970679335844374
 30
0.0
 11
12.956411858998
 21
6.969161482022891
 31
0.0
  0
LINE
  5
57F2
330
1F
100
AcDbEntity
  8
0
100
AcDbLine
 10
12.956411858998
 20
6.969161482022891
 30
0.0
 11
12.95524955269551
 21
6.967531564957035
 31
0.0
  0
LINE
  5
57F3
330
1F
100
AcDbEntity
  8
0
100
AcDbLine
 10
12.95506855620356
 20
6.846085662726118
 30
0.0
 11
12.95606075716456
 21
6.844457547767285
 31
0.0
  0
LINE
  5
57F4
330
1F
100
AcDbEntity
  8
0
100
AcDbLine
 10
12.95606075716456
 20
6.844457547767285
 30
0.0
 11
12.95720567070141
 21
6.842933944096153
 31
0.0
  0
LINE
  5
57F5
330
1F
100
AcDbEntity
  8
0
100
AcDbLine
 10
12.95720567070141
 20
6.842933944096153
 30
0.0
 11
12.95849247082476
 21
6.841529258492422
 31
0.0
  0
LINE
  5
57F6
330
1F
100
AcDbEntity
  8
0
100
AcDbLine
 10
12.95849247082476
 20
6.841529258492422
 30
0.0
 11
12.95990898990446
 21
6.840256773279087
 31
0.0
  0
LINE
  5
57F7
330
1F
100
AcDbEntity
  8
0
100
AcDbLine
 10
12.95990898990446
 20
6.840256773279087
 30
0.0
 11
12.96144183372345
 21
6.839128520728402
 31
0.0
  0
LINE
  5
57F8
330
1F
100
AcDbEntity
  8
0
100
AcDbLine
 10
12.96144183372345
 20
6.839128520728402
 30
0.0
 11
12.96307650812966
 21
6.838155169287994
 31
0.0
  0
LINE
  5
57F9
330
1F
100
AcDbEntity
  8
0
100
AcDbLine
 10
12.96307650812966
 20
6.838155169287994
 30
0.0
 11
12.96479755608889
 21
6.837345922702945
 31
0.0
  0
LINE
  5
57FA
330
1F
100
AcDbEntity
  8
0
100
AcDbLine
 10
12.96479755608889
 20
6.837345922702945
 30
0.0
 11
12.96658870384221
 21
6.836708432987671
 31
0.0
  0
LINE
  5
57FB
330
1F
100
AcDbEntity
  8
0
100
AcDbLine
 10
12.96658870384221
 20
6.836708432987671
 30
0.0
 11
12.96843301478621
 21
6.836248728070636
 31
0.0
  0
LINE
  5
57FC
330
1F
100
AcDbEntity
  8
0
100
AcDbLine
 10
12.96843301478621
 20
6.836248728070636
 30
0.0
 11
12.9703130496209
 21
6.835971154795836
 31
0.0
  0
LINE
  5
57FD
330
1F
100
AcDbEntity
  8
0
100
AcDbLine
 10
12.9703130496209
 20
6.835971154795836
 30
0.0
 11
12.97221103125092
 21
6.835878337820241
 31
0.0
  0
LINE
  5
57FE
330
1F
100
AcDbEntity
  8
0
100
AcDbLine
 10
13.07971382067457
 20
6.835878337820241
 30
0.0
 11
13.08102578352178
 21
6.835784109274364
 31
0.0
  0
LINE
  5
57FF
330
1F
100
AcDbEntity
  8
0
100
AcDbLine
 10
13.08102578352178
 20
6.835784109274364
 30
0.0
 11
13.08231106050168
 21
6.835503340284327
 31
0.0
  0
LINE
  5
5800
330
1F
100
AcDbEntity
  8
0
100
AcDbLine
 10
13.08231106050168
 20
6.835503340284327
 30
0.0
 11
13.08354350854857
 21
6.835041741807594
 31
0.0
  0
LINE
  5
5801
330
1F
100
AcDbEntity
  8
0
100
AcDbLine
 10
13.08354350854857
 20
6.835041741807594
 30
0.0
 11
13.0846980591591
 21
6.834408702948231
 31
0.0
  0
LINE
  5
5802
330
1F
100
AcDbEntity
  8
0
100
AcDbLine
 10
13.0846980591591
 20
6.834408702948231
 30
0.0
 11
13.085751228296
 21
6.833617099978646
 31
0.0
  0
LINE
  5
5803
330
1F
100
AcDbEntity
  8
0
100
AcDbLine
 10
13.085751228296
 20
6.833617099978646
 30
0.0
 11
13.08668159406314
 21
6.832683034430851
 31
0.0
  0
LINE
  5
5804
330
1F
100
AcDbEntity
  8
0
100
AcDbLine
 10
13.08668159406314
 20
6.832683034430851
 30
0.0
 11
13.08747023243578
 21
6.831625505584676
 31
0.0
  0
LINE
  5
5805
330
1F
100
AcDbEntity
  8
0
100
AcDbLine
 10
13.08747023243578
 20
6.831625505584676
 30
0.0
 11
13.088101102183
 21
6.830466024014548
 31
0.0
  0
LINE
  5
5806
330
1F
100
AcDbEntity
  8
0
100
AcDbLine
 10
13.088101102183
 20
6.830466024014548
 30
0.0
 11
13.08856137115306
 21
6.829228174055466
 31
0.0
  0
LINE
  5
5807
330
1F
100
AcDbEntity
  8
0
100
AcDbLine
 10
13.08856137115306
 20
6.829228174055466
 30
0.0
 11
13.08884167728461
 21
6.827937134087926
 31
0.0
  0
LINE
  5
5808
330
1F
100
AcDbEntity
  8
0
100
AcDbLine
 10
13.08884167728461
 20
6.827937134087926
 30
0.0
 11
13.08893631903492
 21
6.826619164399198
 31
0.0
  0
LINE
  5
5809
330
1F
100
AcDbEntity
  8
0
100
AcDbLine
 10
13.08868958273755
 20
6.823138465027676
 30
0.0
 11
13.08884102378945
 21
6.820975689820607
 31
0.0
  0
LINE
  5
580A
330
1F
100
AcDbEntity
  8
0
100
AcDbLine
 10
13.08884102378945
 20
6.820975689820607
 30
0.0
 11
13.08929466523227
 21
6.818856009405032
 31
0.0
  0
LINE
  5
580B
330
1F
100
AcDbEntity
  8
0
100
AcDbLine
 10
13.08929466523227
 20
6.818856009405032
 30
0.0
 11
13.09004143287716
 21
6.816821823743986
 31
0.0
  0
LINE
  5
580C
330
1F
100
AcDbEntity
  8
0
100
AcDbLine
 10
13.09004143287716
 20
6.816821823743986
 30
0.0
 11
13.09106638913244
 21
6.814913822649068
 31
0.0
  0
LINE
  5
580D
330
1F
100
AcDbEntity
  8
0
100
AcDbLine
 10
13.09106638913244
 20
6.814913822649068
 30
0.0
 11
13.09234903180024
 21
6.81317017186229
 31
0.0
  0
LINE
  5
580E
330
1F
100
AcDbEntity
  8
0
100
AcDbLine
 10
13.09234903180024
 20
6.81317017186229
 30
0.0
 11
13.0938637041819
 21
6.811625749626778
 31
0.0
  0
LINE
  5
580F
330
1F
100
AcDbEntity
  8
0
100
AcDbLine
 10
13.0938637041819
 20
6.811625749626778
 30
0.0
 11
13.09558010828886
 21
6.810311449017341
 31
0.0
  0
LINE
  5
5810
330
1F
100
AcDbEntity
  8
0
100
AcDbLine
 10
13.09558010828886
 20
6.810311449017341
 30
0.0
 11
13.09746391089327
 21
6.809253559986395
 31
0.0
  0
LINE
  5
5811
330
1F
100
AcDbEntity
  8
0
100
AcDbLine
 10
13.09746391089327
 20
6.809253559986395
 30
0.0
 11
13.0994774302955
 21
6.808473243486042
 31
0.0
  0
LINE
  5
5812
330
1F
100
AcDbEntity
  8
0
100
AcDbLine
 10
13.0994774302955
 20
6.808473243486042
 30
0.0
 11
13.10158039007106
 21
6.807986108185681
 31
0.0
  0
LINE
  5
5813
330
1F
100
AcDbEntity
  8
0
100
AcDbLine
 10
13.10158039007106
 20
6.807986108185681
 30
0.0
 11
13.10373072471986
 21
6.80780189825169
 31
0.0
  0
LINE
  5
5814
330
1F
100
AcDbEntity
  8
0
100
AcDbLine
 10
13.27692966323575
 20
6.80780189825169
 30
0.0
 11
13.27833979229684
 21
6.808453231065294
 31
0.0
  0
LINE
  5
5815
330
1F
100
AcDbEntity
  8
0
100
AcDbLine
 10
13.27833979229684
 20
6.808453231065294
 30
0.0
 11
13.27967884440627
 21
6.809241551780382
 31
0.0
  0
LINE
  5
5816
330
1F
100
AcDbEntity
  8
0
100
AcDbLine
 10
13.27967884440627
 20
6.809241551780382
 30
0.0
 11
13.28093367518598
 21
6.810159122098064
 31
0.0
  0
LINE
  5
5817
330
1F
100
AcDbEntity
  8
0
100
AcDbLine
 10
13.28093367518598
 20
6.810159122098064
 30
0.0
 11
13.28209196698978
 21
6.811196934981915
 31
0.0
  0
LINE
  5
5818
330
1F
100
AcDbEntity
  8
0
100
AcDbLine
 10
13.28209196698978
 20
6.811196934981915
 30
0.0
 11
13.28314234981554
 21
6.812344803072684
 31
0.0
  0
LINE
  5
5819
330
1F
100
AcDbEntity
  8
0
100
AcDbLine
 10
13.28314234981554
 20
6.812344803072684
 30
0.0
 11
13.28407451291519
 21
6.81359145868931
 31
0.0
  0
LINE
  5
581A
330
1F
100
AcDbEntity
  8
0
100
AcDbLine
 10
13.28407451291519
 20
6.81359145868931
 30
0.0
 11
13.28487930600693
 21
6.81492466443445
 31
0.0
  0
LINE
  5
581B
330
1F
100
AcDbEntity
  8
0
100
AcDbLine
 10
13.28487930600693
 20
6.81492466443445
 30
0.0
 11
13.28554882909601
 21
6.816331333319078
 31
0.0
  0
LINE
  5
581C
330
1F
100
AcDbEntity
  8
0
100
AcDbLine
 10
13.28554882909601
 20
6.816331333319078
 30
0.0
 11
13.28607651002251
 21
6.817797657226628
 31
0.0
  0
LINE
  5
581D
330
1F
100
AcDbEntity
  8
0
100
AcDbLine
 10
13.28607651002251
 20
6.817797657226628
 30
0.0
 11
13.28645716897489
 21
6.819309242456051
 31
0.0
  0
LINE
  5
581E
330
1F
100
AcDbEntity
  8
0
100
AcDbLine
 10
13.28645716897489
 20
6.819309242456051
 30
0.0
 11
13.28668706933594
 21
6.820851251012975
 31
0.0
  0
LINE
  5
581F
330
1F
100
AcDbEntity
  8
0
100
AcDbLine
 10
13.28668706933594
 20
6.820851251012975
 30
0.0
 11
13.28676395436207
 21
6.822408546262104
 31
0.0
  0
LINE
  5
5820
330
1F
100
AcDbEntity
  8
0
100
AcDbLine
 10
13.28848917790743
 20
6.991408546262115
 30
0.0
 11
13.28676395436207
 21
6.991408546262115
 31
0.0
  0
LINE
  5
5821
330
1F
100
AcDbEntity
  8
0
100
AcDbLine
 10
13.28848917790743
 20
6.822408546262104
 30
0.0
 11
13.28676395436207
 21
6.822408546262104
 31
0.0
  0
LINE
  5
5822
330
1F
100
AcDbEntity
  8
0
100
AcDbLine
 10
13.27469229944725
 20
7.004652607896425
 30
0.0
 11
13.27296707590189
 21
7.004652607896425
 31
0.0
  0
LINE
  5
5823
330
1F
100
AcDbEntity
  8
0
100
AcDbLine
 10
12.85715063883065
 20
7.073184904204787
 30
0.0
 11
12.85308233902297
 21
7.067596739716187
 31
0.0
  0
LINE
  5
5824
330
1F
100
AcDbEntity
  8
0
100
AcDbLine
 10
12.85308233902297
 20
7.067596739716187
 30
0.0
 11
12.85196084787456
 21
7.064801184758459
 31
0.0
  0
LINE
  5
5825
330
1F
100
AcDbEntity
  8
0
100
AcDbLine
 10
12.85715063883065
 20
7.073184904204787
 30
0.0
 11
12.85904888274406
 21
7.075670185579022
 31
0.0
  0
LINE
  5
5826
330
1F
100
AcDbEntity
  8
0
100
AcDbLine
 10
12.85904888274406
 20
7.075670185579022
 30
0.0
 11
12.86152272237585
 21
7.077577209050198
 31
0.0
  0
LINE
  5
5827
330
1F
100
AcDbEntity
  8
0
100
AcDbLine
 10
12.86152272237585
 20
7.077577209050198
 30
0.0
 11
12.86440356964333
 21
7.078776014120259
 31
0.0
  0
LINE
  5
5828
330
1F
100
AcDbEntity
  8
0
100
AcDbLine
 10
12.86440356964333
 20
7.078776014120259
 30
0.0
 11
12.86749509956605
 21
7.079184904204788
 31
0.0
  0
LINE
  5
5829
330
1F
100
AcDbEntity
  8
0
100
AcDbLine
 10
12.86749509956605
 20
7.079184904204788
 30
0.0
 11
12.87058662948877
 21
7.078776014120259
 31
0.0
  0
LINE
  5
582A
330
1F
100
AcDbEntity
  8
0
100
AcDbLine
 10
12.87058662948877
 20
7.078776014120259
 30
0.0
 11
12.87346747675625
 21
7.077577209050198
 31
0.0
  0
LINE
  5
582B
330
1F
100
AcDbEntity
  8
0
100
AcDbLine
 10
12.87346747675625
 20
7.077577209050198
 30
0.0
 11
12.87594131638805
 21
7.075670185579022
 31
0.0
  0
LINE
  5
582C
330
1F
100
AcDbEntity
  8
0
100
AcDbLine
 10
12.87594131638805
 20
7.075670185579022
 30
0.0
 11
12.87783956030145
 21
7.073184904204787
 31
0.0
  0
LINE
  5
582D
330
1F
100
AcDbEntity
  8
0
100
AcDbLine
 10
12.87783956030145
 20
7.073184904204787
 30
0.0
 11
12.87903284631076
 21
7.07029073274601
 31
0.0
  0
LINE
  5
582E
330
1F
100
AcDbEntity
  8
0
100
AcDbLine
 10
12.87903284631076
 20
7.07029073274601
 30
0.0
 11
12.87943985394646
 21
7.067184904204787
 31
0.0
  0
LINE
  5
582F
330
1F
100
AcDbEntity
  8
0
100
AcDbLine
 10
12.87943985394646
 20
7.067184904204787
 30
0.0
 11
12.87903284631076
 21
7.06407907566355
 31
0.0
  0
LINE
  5
5830
330
1F
100
AcDbEntity
  8
0
100
AcDbLine
 10
12.87903284631076
 20
7.06407907566355
 30
0.0
 11
12.87783956030145
 21
7.061184904204787
 31
0.0
  0
LINE
  5
5831
330
1F
100
AcDbEntity
  8
0
100
AcDbLine
 10
12.87783956030145
 20
7.061184904204787
 30
0.0
 11
12.87476470128134
 21
7.05696131725302
 31
0.0
  0
LINE
  5
5832
330
1F
100
AcDbEntity
  8
0
100
AcDbLine
 10
12.85196084787456
 20
7.064801184758459
 30
0.0
 11
12.84823669813537
 21
7.048706644419234
 31
0.0
  0
LINE
  5
5833
330
1F
100
AcDbEntity
  8
0
100
AcDbLine
 10
12.84823669813537
 20
7.048706644419234
 30
0.0
 11
12.84503869825405
 21
7.023103928054958
 31
0.0
  0
LINE
  5
5834
330
1F
100
AcDbEntity
  8
0
100
AcDbLine
 10
12.84503869825405
 20
7.023103928054958
 30
0.0
 11
12.84484218249996
 21
7.02090777563226
 31
0.0
  0
LINE
  5
5835
330
1F
100
AcDbEntity
  8
0
100
AcDbLine
 10
12.87160987209853
 20
7.043327191586223
 30
0.0
 11
12.86862028946966
 21
7.019393033069953
 31
0.0
  0
LINE
  5
5836
330
1F
100
AcDbEntity
  8
0
100
AcDbLine
 10
12.84484218249996
 20
7.02090777563226
 30
0.0
 11
12.84243557785432
 21
6.988184904204779
 31
0.0
  0
LINE
  5
5837
330
1F
100
AcDbEntity
  8
0
100
AcDbLine
 10
12.84092272292914
 20
6.950078313330984
 30
0.0
 11
12.84040671628745
 21
6.909184904204786
 31
0.0
  0
LINE
  5
5838
330
1F
100
AcDbEntity
  8
0
100
AcDbLine
 10
12.86481223168995
 20
6.950078313330984
 30
0.0
 11
12.86429622504826
 21
6.909184904204786
 31
0.0
  0
LINE
  5
5839
330
1F
100
AcDbEntity
  8
0
100
AcDbLine
 10
12.84243557785432
 20
6.830184904204778
 30
0.0
 11
12.84484218249996
 21
6.797462032777311
 31
0.0
  0
LINE
  5
583A
330
1F
100
AcDbEntity
  8
0
100
AcDbLine
 10
12.84503869825405
 20
6.795265880354599
 30
0.0
 11
12.84484218249996
 21
6.797462032777311
 31
0.0
  0
LINE
  5
583B
330
1F
100
AcDbEntity
  8
0
100
AcDbLine
 10
12.84503869825405
 20
6.795265880354599
 30
0.0
 11
12.84823669813537
 21
6.769663163990338
 31
0.0
  0
LINE
  5
583C
330
1F
100
AcDbEntity
  8
0
100
AcDbLine
 10
12.88675350099673
 20
6.769663163990338
 30
0.0
 11
12.88995150087805
 21
6.795265880354599
 31
0.0
  0
LINE
  5
583D
330
1F
100
AcDbEntity
  8
0
100
AcDbLine
 10
12.89014801663215
 20
6.797462032777311
 30
0.0
 11
12.88995150087805
 21
6.795265880354599
 31
0.0
  0
LINE
  5
583E
330
1F
100
AcDbEntity
  8
0
100
AcDbLine
 10
12.86862028946966
 20
6.798976775339604
 30
0.0
 11
12.87160987209853
 21
6.775042616823349
 31
0.0
  0
LINE
  5
583F
330
1F
100
AcDbEntity
  8
0
100
AcDbLine
 10
12.84823669813537
 20
6.769663163990338
 30
0.0
 11
12.85196084787456
 21
6.753568623651113
 31
0.0
  0
LINE
  5
5840
330
1F
100
AcDbEntity
  8
0
100
AcDbLine
 10
12.85308233902297
 20
6.75077306869337
 30
0.0
 11
12.85196084787456
 21
6.753568623651113
 31
0.0
  0
LINE
  5
5841
330
1F
100
AcDbEntity
  8
0
100
AcDbLine
 10
12.89255462127778
 20
6.830184904204778
 30
0.0
 11
12.89320632417182
 21
6.84660034176013
 31
0.0
  0
LINE
  5
5842
330
1F
100
AcDbEntity
  8
0
100
AcDbLine
 10
12.85308233902297
 20
6.75077306869337
 30
0.0
 11
12.85715063883065
 21
6.745184904204784
 31
0.0
  0
LINE
  5
5843
330
1F
100
AcDbEntity
  8
0
100
AcDbLine
 10
12.85904888274406
 20
6.74269962283055
 30
0.0
 11
12.85715063883065
 21
6.745184904204784
 31
0.0
  0
LINE
  5
5844
330
1F
100
AcDbEntity
  8
0
100
AcDbLine
 10
12.86152272237585
 20
6.740792599359374
 30
0.0
 11
12.85904888274406
 21
6.74269962283055
 31
0.0
  0
LINE
  5
5845
330
1F
100
AcDbEntity
  8
0
100
AcDbLine
 10
12.86440356964333
 20
6.739593794289313
 30
0.0
 11
12.86152272237585
 21
6.740792599359374
 31
0.0
  0
LINE
  5
5846
330
1F
100
AcDbEntity
  8
0
100
AcDbLine
 10
12.86749509956605
 20
6.739184904204784
 30
0.0
 11
12.86440356964333
 21
6.739593794289313
 31
0.0
  0
LINE
  5
5847
330
1F
100
AcDbEntity
  8
0
100
AcDbLine
 10
12.87058662948877
 20
6.739593794289313
 30
0.0
 11
12.86749509956605
 21
6.739184904204784
 31
0.0
  0
LINE
  5
5848
330
1F
100
AcDbEntity
  8
0
100
AcDbLine
 10
12.87346747675625
 20
6.740792599359374
 30
0.0
 11
12.87058662948877
 21
6.739593794289313
 31
0.0
  0
LINE
  5
5849
330
1F
100
AcDbEntity
  8
0
100
AcDbLine
 10
12.87594131638805
 20
6.742699622830536
 30
0.0
 11
12.87346747675625
 21
6.740792599359374
 31
0.0
  0
LINE
  5
584A
330
1F
100
AcDbEntity
  8
0
100
AcDbLine
 10
12.87783956030145
 20
6.745184904204784
 30
0.0
 11
12.87594131638805
 21
6.742699622830536
 31
0.0
  0
LINE
  5
584B
330
1F
100
AcDbEntity
  8
0
100
AcDbLine
 10
12.87476470128134
 20
6.761408491156552
 30
0.0
 11
12.87783956030145
 21
6.757184904204785
 31
0.0
  0
LINE
  5
584C
330
1F
100
AcDbEntity
  8
0
100
AcDbLine
 10
12.87783956030145
 20
6.745184904204784
 30
0.0
 11
12.88190786010914
 21
6.75077306869337
 31
0.0
  0
LINE
  5
584D
330
1F
100
AcDbEntity
  8
0
100
AcDbLine
 10
12.88302935125754
 20
6.753568623651113
 30
0.0
 11
12.88190786010914
 21
6.75077306869337
 31
0.0
  0
LINE
  5
584E
330
1F
100
AcDbEntity
  8
0
100
AcDbLine
 10
12.88302935125754
 20
6.753568623651113
 30
0.0
 11
12.88675350099673
 21
6.769663163990338
 31
0.0
  0
LINE
  5
584F
330
1F
100
AcDbEntity
  8
0
100
AcDbLine
 10
12.86749509956605
 20
6.814276107788765
 30
0.0
 11
12.86866511251697
 21
6.830184904204778
 31
0.0
  0
LINE
  5
5850
330
1F
100
AcDbEntity
  8
0
100
AcDbLine
 10
12.89014801663215
 20
6.797462032777311
 30
0.0
 11
12.89255462127778
 21
6.830184904204778
 31
0.0
  0
LINE
  5
5851
330
1F
100
AcDbEntity
  8
0
100
AcDbLine
 10
12.86866511251697
 20
6.830184904204778
 30
0.0
 11
12.86931681541101
 21
6.84660034176013
 31
0.0
  0
LINE
  5
5852
330
1F
100
AcDbEntity
  8
0
100
AcDbLine
 10
12.86948969750629
 20
6.9674148208968
 30
0.0
 11
12.86866511251697
 21
6.988184904204779
 31
0.0
  0
LINE
  5
5853
330
1F
100
AcDbEntity
  8
0
100
AcDbLine
 10
12.89337920626711
 20
6.9674148208968
 30
0.0
 11
12.89255462127778
 21
6.988184904204779
 31
0.0
  0
LINE
  5
5854
330
1F
100
AcDbEntity
  8
0
100
AcDbLine
 10
12.86866511251697
 20
6.988184904204779
 30
0.0
 11
12.86749509956605
 21
7.004093700620807
 31
0.0
  0
LINE
  5
5855
330
1F
100
AcDbEntity
  8
0
100
AcDbLine
 10
12.89255462127778
 20
6.988184904204779
 30
0.0
 11
12.89014801663215
 21
7.02090777563226
 31
0.0
  0
LINE
  5
5856
330
1F
100
AcDbEntity
  8
0
100
AcDbLine
 10
12.89014801663215
 20
7.02090777563226
 30
0.0
 11
12.88995150087805
 21
7.023103928054958
 31
0.0
  0
LINE
  5
5857
330
1F
100
AcDbEntity
  8
0
100
AcDbLine
 10
12.88995150087805
 20
7.023103928054958
 30
0.0
 11
12.88675350099673
 21
7.048706644419234
 31
0.0
  0
LINE
  5
5858
330
1F
100
AcDbEntity
  8
0
100
AcDbLine
 10
12.88675350099673
 20
7.048706644419234
 30
0.0
 11
12.88302935125754
 21
7.064801184758459
 31
0.0
  0
LINE
  5
5859
330
1F
100
AcDbEntity
  8
0
100
AcDbLine
 10
12.88302935125754
 20
7.064801184758459
 30
0.0
 11
12.88190786010914
 21
7.067596739716187
 31
0.0
  0
LINE
  5
585A
330
1F
100
AcDbEntity
  8
0
100
AcDbLine
 10
12.88190786010914
 20
7.067596739716187
 30
0.0
 11
12.87783956030145
 21
7.073184904204787
 31
0.0
  0
LINE
  5
585B
330
1F
100
AcDbEntity
  8
0
100
AcDbLine
 10
12.91049157675735
 20
6.964414820896799
 30
0.0
 11
12.86538139979404
 21
6.964414820896799
 31
0.0
  0
LINE
  5
585C
330
1F
100
AcDbEntity
  8
0
100
AcDbLine
 10
12.91062935909677
 20
6.964414820896799
 30
0.0
 11
12.91049157675735
 21
6.964414820896799
 31
0.0
  0
LINE
  5
585D
330
1F
100
AcDbEntity
  8
0
100
AcDbLine
 10
12.86550050162581
 20
6.9674148208968
 30
0.0
 11
12.86948969750629
 21
6.9674148208968
 31
0.0
  0
LINE
  5
585E
330
1F
100
AcDbEntity
  8
0
100
AcDbLine
 10
12.91317525782792
 20
6.9674148208968
 30
0.0
 11
12.91049157675735
 21
6.9674148208968
 31
0.0
  0
LINE
  5
585F
330
1F
100
AcDbEntity
  8
0
100
AcDbLine
 10
12.91049157675735
 20
6.964414820896799
 30
0.0
 11
12.91049157675735
 21
6.9674148208968
 31
0.0
  0
LINE
  5
5860
330
1F
100
AcDbEntity
  8
0
100
AcDbLine
 10
12.91317525782792
 20
6.966908546262112
 30
0.0
 11
12.91317525782792
 21
6.9674148208968
 31
0.0
  0
LINE
  5
5861
330
1F
100
AcDbEntity
  8
0
100
AcDbLine
 10
12.91317525782792
 20
6.84660034176013
 30
0.0
 11
12.91317525782792
 21
6.846908546262107
 31
0.0
  0
LINE
  5
5862
330
1F
100
AcDbEntity
  8
0
100
AcDbLine
 10
12.91058352722972
 20
6.84960034176013
 30
0.0
 11
12.91049157675735
 21
6.84960034176013
 31
0.0
  0
LINE
  5
5863
330
1F
100
AcDbEntity
  8
0
100
AcDbLine
 10
12.91049157675735
 20
6.84660034176013
 30
0.0
 11
12.91049157675735
 21
6.84960034176013
 31
0.0
  0
LINE
  5
5864
330
1F
100
AcDbEntity
  8
0
100
AcDbLine
 10
12.86567338372109
 20
6.84660034176013
 30
0.0
 11
12.86931681541101
 21
6.84660034176013
 31
0.0
  0
LINE
  5
5865
330
1F
100
AcDbEntity
  8
0
100
AcDbLine
 10
12.91317525782792
 20
6.84660034176013
 30
0.0
 11
12.91049157675735
 21
6.84660034176013
 31
0.0
  0
LINE
  5
5866
330
1F
100
AcDbEntity
  8
0
100
AcDbLine
 10
10.6281927586943
 20
6.838155169287994
 30
0.0
 11
10.62647171073507
 21
6.837345922702945
 31
0.0
  0
LINE
  5
5867
330
1F
100
AcDbEntity
  8
0
100
AcDbLine
 10
10.62095621720307
 20
6.835971154795836
 30
0.0
 11
10.61905823557305
 21
6.835878337820241
 31
0.0
  0
LINE
  5
5868
330
1F
100
AcDbEntity
  8
0
100
AcDbLine
 10
10.6362007106204
 20
6.846085662726118
 30
0.0
 11
10.6352085096594
 21
6.844457547767285
 31
0.0
  0
LINE
  5
5869
330
1F
100
AcDbEntity
  8
0
100
AcDbLine
 10
10.62283625203775
 20
6.836248728070636
 30
0.0
 11
10.62095621720307
 21
6.835971154795836
 31
0.0
  0
LINE
  5
586A
330
1F
100
AcDbEntity
  8
0
100
AcDbLine
 10
10.61750268338472
 20
6.97762602083305
 30
0.0
 11
10.61949643597542
 21
6.977535430022649
 31
0.0
  0
LINE
  5
586B
330
1F
100
AcDbEntity
  8
0
100
AcDbLine
 10
10.62147390830029
 20
6.977264397323389
 30
0.0
 11
10.62341895303225
 21
6.976815135890711
 31
0.0
  0
LINE
  5
586C
330
1F
100
AcDbEntity
  8
0
100
AcDbLine
 10
10.62341895303225
 20
6.976815135890711
 30
0.0
 11
10.6253156876363
 21
6.976191314231734
 31
0.0
  0
LINE
  5
586D
330
1F
100
AcDbEntity
  8
0
100
AcDbLine
 10
10.6253156876363
 20
6.976191314231734
 30
0.0
 11
10.62714862406055
 21
6.975398026249529
 31
0.0
  0
LINE
  5
586E
330
1F
100
AcDbEntity
  8
0
100
AcDbLine
 10
10.62714862406055
 20
6.975398026249529
 30
0.0
 11
10.62890279520607
 21
6.974441749648144
 31
0.0
  0
LINE
  5
586F
330
1F
100
AcDbEntity
  8
0
100
AcDbLine
 10
10.62890279520607
 20
6.974441749648144
 30
0.0
 11
10.63056387714283
 21
6.973330293038011
 31
0.0
  0
LINE
  5
5870
330
1F
100
AcDbEntity
  8
0
100
AcDbLine
 10
10.63056387714283
 20
6.973330293038011
 30
0.0
 11
10.63211830607378
 21
6.972072732173679
 31
0.0
  0
LINE
  5
5871
330
1F
100
AcDbEntity
  8
0
100
AcDbLine
 10
10.63211830607378
 20
6.972072732173679
 30
0.0
 11
10.63355338909191
 21
6.970679335844374
 31
0.0
  0
LINE
  5
5872
330
1F
100
AcDbEntity
  8
0
100
AcDbLine
 10
10.63355338909191
 20
6.970679335844374
 30
0.0
 11
10.63485740782597
 21
6.969161482022891
 31
0.0
  0
LINE
  5
5873
330
1F
100
AcDbEntity
  8
0
100
AcDbLine
 10
10.63485740782597
 20
6.969161482022891
 30
0.0
 11
10.63601971412845
 21
6.967531564957035
 31
0.0
  0
LINE
  5
5874
330
1F
100
AcDbEntity
  8
0
100
AcDbLine
 10
10.50900449776269
 20
6.97762602083305
 30
0.0
 11
10.50761012084526
 21
6.977722872899456
 31
0.0
  0
LINE
  5
5875
330
1F
100
AcDbEntity
  8
0
100
AcDbLine
 10
10.50761012084526
 20
6.977722872899456
 30
0.0
 11
10.50624227888923
 21
6.978011586005998
 31
0.0
  0
LINE
  5
5876
330
1F
100
AcDbEntity
  8
0
100
AcDbLine
 10
10.49890983118158
 20
6.988678301650559
 30
0.0
 11
10.49895769573216
 21
6.990457804016082
 31
0.0
  0
LINE
  5
5877
330
1F
100
AcDbEntity
  8
0
100
AcDbLine
 10
10.50624227888923
 20
6.978011586005998
 30
0.0
 11
10.50492700189628
 21
6.978486665948786
 31
0.0
  0
LINE
  5
5878
330
1F
100
AcDbEntity
  8
0
100
AcDbLine
 10
10.50492700189628
 20
6.978486665948786
 30
0.0
 11
10.503689319558
 21
6.979139071967161
 31
0.0
  0
LINE
  5
5879
330
1F
100
AcDbEntity
  8
0
100
AcDbLine
 10
10.503689319558
 20
6.979139071967161
 30
0.0
 11
10.50255278494149
 21
6.979956388789269
 31
0.0
  0
LINE
  5
587A
330
1F
100
AcDbEntity
  8
0
100
AcDbLine
 10
10.62468056298175
 20
6.836708432987671
 30
0.0
 11
10.62283625203775
 21
6.836248728070636
 31
0.0
  0
LINE
  5
587B
330
1F
100
AcDbEntity
  8
0
100
AcDbLine
 10
10.61949643597542
 20
6.977535430022649
 30
0.0
 11
10.62147390830029
 21
6.977264397323389
 31
0.0
  0
LINE
  5
587C
330
1F
100
AcDbEntity
  8
0
100
AcDbLine
 10
10.6313602769195
 20
6.840256773279087
 30
0.0
 11
10.62982743310052
 21
6.839128520728402
 31
0.0
  0
LINE
  5
587D
330
1F
100
AcDbEntity
  8
0
100
AcDbLine
 10
10.63406359612255
 20
6.842933944096153
 30
0.0
 11
10.63277679599921
 21
6.841529258492422
 31
0.0
  0
LINE
  5
587E
330
1F
100
AcDbEntity
  8
0
100
AcDbLine
 10
10.63277679599921
 20
6.841529258492422
 30
0.0
 11
10.6313602769195
 21
6.840256773279087
 31
0.0
  0
LINE
  5
587F
330
1F
100
AcDbEntity
  8
0
100
AcDbLine
 10
10.62647171073507
 20
6.837345922702945
 30
0.0
 11
10.62468056298175
 21
6.836708432987671
 31
0.0
  0
LINE
  5
5880
330
1F
100
AcDbEntity
  8
0
100
AcDbLine
 10
10.6352085096594
 20
6.844457547767285
 30
0.0
 11
10.63406359612255
 21
6.842933944096153
 31
0.0
  0
LINE
  5
5881
330
1F
100
AcDbEntity
  8
0
100
AcDbLine
 10
10.62982743310052
 20
6.839128520728402
 30
0.0
 11
10.6281927586943
 21
6.838155169287994
 31
0.0
  0
LINE
  5
5882
330
1F
100
AcDbEntity
  8
0
100
AcDbLine
 10
10.49995430046411
 20
6.983228407613133
 30
0.0
 11
10.4994134906164
 21
6.984523207568678
 31
0.0
  0
LINE
  5
5883
330
1F
100
AcDbEntity
  8
0
100
AcDbLine
 10
10.4896888767529
 20
6.807986108185681
 30
0.0
 11
10.48753854210411
 21
6.80780189825169
 31
0.0
  0
LINE
  5
5884
330
1F
100
AcDbEntity
  8
0
100
AcDbLine
 10
10.50379903438819
 20
6.831625505584676
 30
0.0
 11
10.50316816464097
 21
6.830466024014548
 31
0.0
  0
LINE
  5
5885
330
1F
100
AcDbEntity
  8
0
100
AcDbLine
 10
10.49084822666197
 20
7.003397109554961
 30
0.0
 11
10.48923022728321
 21
7.004122882701701
 31
0.0
  0
LINE
  5
5886
330
1F
100
AcDbEntity
  8
0
100
AcDbLine
 10
10.49895769573216
 20
6.990457804016082
 30
0.0
 11
10.49879707259287
 21
6.992230627167935
 31
0.0
  0
LINE
  5
5887
330
1F
100
AcDbEntity
  8
0
100
AcDbLine
 10
10.49237011823257
 20
7.002485346118398
 30
0.0
 11
10.49084822666197
 21
7.003397109554961
 31
0.0
  0
LINE
  5
5888
330
1F
100
AcDbEntity
  8
0
100
AcDbLine
 10
10.50551803852797
 20
6.833617099978646
 30
0.0
 11
10.50458767276083
 21
6.832683034430851
 31
0.0
  0
LINE
  5
5889
330
1F
100
AcDbEntity
  8
0
100
AcDbLine
 10
10.49179183652846
 20
6.808473243486042
 30
0.0
 11
10.4896888767529
 21
6.807986108185681
 31
0.0
  0
LINE
  5
588A
330
1F
100
AcDbEntity
  8
0
100
AcDbLine
 10
10.50020287769152
 20
6.814913822649068
 30
0.0
 11
10.49892023502372
 21
6.81317017186229
 31
0.0
  0
LINE
  5
588B
330
1F
100
AcDbEntity
  8
0
100
AcDbLine
 10
10.50066733536299
 20
6.982020698495909
 30
0.0
 11
10.49995430046411
 21
6.983228407613133
 31
0.0
  0
LINE
  5
588C
330
1F
100
AcDbEntity
  8
0
100
AcDbLine
 10
10.50242589547234
 20
6.825301073038212
 30
0.0
 11
10.50257968408642
 21
6.823138465027676
 31
0.0
  0
LINE
  5
588D
330
1F
100
AcDbEntity
  8
0
100
AcDbLine
 10
10.49879707259287
 20
6.992230627167935
 30
0.0
 11
10.49843018765658
 21
6.99397220357222
 31
0.0
  0
LINE
  5
588E
330
1F
100
AcDbEntity
  8
0
100
AcDbLine
 10
10.50242824303452
 20
6.820975689820607
 30
0.0
 11
10.5019746015917
 21
6.818856009405032
 31
0.0
  0
LINE
  5
588F
330
1F
100
AcDbEntity
  8
0
100
AcDbLine
 10
10.4994134906164
 20
6.984523207568678
 30
0.0
 11
10.49905519741908
 21
6.985880458348455
 31
0.0
  0
LINE
  5
5890
330
1F
100
AcDbEntity
  8
0
100
AcDbLine
 10
10.49905519741908
 20
6.985880458348455
 30
0.0
 11
10.49888623918367
 21
6.987274331500679
 31
0.0
  0
LINE
  5
5891
330
1F
100
AcDbEntity
  8
0
100
AcDbLine
 10
10.49892023502372
 20
6.81317017186229
 30
0.0
 11
10.49740556264206
 21
6.811625749626778
 31
0.0
  0
LINE
  5
5892
330
1F
100
AcDbEntity
  8
0
100
AcDbLine
 10
10.49568915853511
 20
6.810311449017341
 30
0.0
 11
10.49380535593069
 21
6.809253559986395
 31
0.0
  0
LINE
  5
5893
330
1F
100
AcDbEntity
  8
0
100
AcDbLine
 10
10.50772575827539
 20
6.835041741807594
 30
0.0
 11
10.50657120766487
 21
6.834408702948231
 31
0.0
  0
LINE
  5
5894
330
1F
100
AcDbEntity
  8
0
100
AcDbLine
 10
10.49786212516314
 20
6.995658398708095
 30
0.0
 11
10.49710075724267
 21
6.997265845520552
 31
0.0
  0
LINE
  5
5895
330
1F
100
AcDbEntity
  8
0
100
AcDbLine
 10
10.49740556264206
 20
6.811625749626778
 30
0.0
 11
10.49568915853511
 21
6.810311449017341
 31
0.0
  0
LINE
  5
5896
330
1F
100
AcDbEntity
  8
0
100
AcDbLine
 10
10.5115554461494
 20
6.835878337820241
 30
0.0
 11
10.51024348330219
 21
6.835784109274364
 31
0.0
  0
LINE
  5
5897
330
1F
100
AcDbEntity
  8
0
100
AcDbLine
 10
10.50233294778904
 20
6.826619164399198
 30
0.0
 11
10.50242589547234
 21
6.825301073038212
 31
0.0
  0
LINE
  5
5898
330
1F
100
AcDbEntity
  8
0
100
AcDbLine
 10
10.50257968408642
 20
6.823138465027676
 30
0.0
 11
10.50242824303452
 21
6.820975689820607
 31
0.0
  0
LINE
  5
5899
330
1F
100
AcDbEntity
  8
0
100
AcDbLine
 10
10.50895820632228
 20
6.835503340284327
 30
0.0
 11
10.50772575827539
 21
6.835041741807594
 31
0.0
  0
LINE
  5
589A
330
1F
100
AcDbEntity
  8
0
100
AcDbLine
 10
10.51024348330219
 20
6.835784109274364
 30
0.0
 11
10.50895820632228
 21
6.835503340284327
 31
0.0
  0
LINE
  5
589B
330
1F
100
AcDbEntity
  8
0
100
AcDbLine
 10
10.49710075724267
 20
6.997265845520552
 30
0.0
 11
10.49615663482473
 21
6.998772268237765
 31
0.0
  0
LINE
  5
589C
330
1F
100
AcDbEntity
  8
0
100
AcDbLine
 10
10.49615663482473
 20
6.998772268237765
 30
0.0
 11
10.49504284142498
 21
7.0001567910656
 31
0.0
  0
LINE
  5
589D
330
1F
100
AcDbEntity
  8
0
100
AcDbLine
 10
10.49380535593069
 20
6.809253559986395
 30
0.0
 11
10.49179183652846
 21
6.808473243486042
 31
0.0
  0
LINE
  5
589E
330
1F
100
AcDbEntity
  8
0
100
AcDbLine
 10
10.50122783394681
 20
6.816821823743986
 30
0.0
 11
10.50020287769152
 21
6.814913822649068
 31
0.0
  0
LINE
  5
589F
330
1F
100
AcDbEntity
  8
0
100
AcDbLine
 10
10.5027078956709
 20
6.829228174055466
 30
0.0
 11
10.50242758953935
 21
6.827937134087926
 31
0.0
  0
LINE
  5
58A0
330
1F
100
AcDbEntity
  8
0
100
AcDbLine
 10
10.50657120766487
 20
6.834408702948231
 30
0.0
 11
10.50551803852797
 21
6.833617099978646
 31
0.0
  0
LINE
  5
58A1
330
1F
100
AcDbEntity
  8
0
100
AcDbLine
 10
10.49843018765658
 20
6.99397220357222
 30
0.0
 11
10.49786212516314
 21
6.995658398708095
 31
0.0
  0
LINE
  5
58A2
330
1F
100
AcDbEntity
  8
0
100
AcDbLine
 10
10.50458767276083
 20
6.832683034430851
 30
0.0
 11
10.50379903438819
 21
6.831625505584676
 31
0.0
  0
LINE
  5
58A3
330
1F
100
AcDbEntity
  8
0
100
AcDbLine
 10
10.50316816464097
 20
6.830466024014548
 30
0.0
 11
10.5027078956709
 21
6.829228174055466
 31
0.0
  0
LINE
  5
58A4
330
1F
100
AcDbEntity
  8
0
100
AcDbLine
 10
10.50242758953935
 20
6.827937134087926
 30
0.0
 11
10.50233294778904
 21
6.826619164399198
 31
0.0
  0
LINE
  5
58A5
330
1F
100
AcDbEntity
  8
0
100
AcDbLine
 10
10.48923022728321
 20
7.004122882701701
 30
0.0
 11
10.48753854210411
 21
7.004652607896425
 31
0.0
  0
LINE
  5
58A6
330
1F
100
AcDbEntity
  8
0
100
AcDbLine
 10
10.4937748118357
 20
7.001400227481462
 30
0.0
 11
10.49237011823257
 21
7.002485346118398
 31
0.0
  0
LINE
  5
58A7
330
1F
100
AcDbEntity
  8
0
100
AcDbLine
 10
10.49504284142498
 20
7.0001567910656
 30
0.0
 11
10.4937748118357
 21
7.001400227481462
 31
0.0
  0
LINE
  5
58A8
330
1F
100
AcDbEntity
  8
0
100
AcDbLine
 10
10.49888623918367
 20
6.987274331500679
 30
0.0
 11
10.49890983118158
 21
6.988678301650559
 31
0.0
  0
LINE
  5
58A9
330
1F
100
AcDbEntity
  8
0
100
AcDbLine
 10
10.50153902627494
 20
6.980923062894341
 30
0.0
 11
10.50066733536299
 21
6.982020698495909
 31
0.0
  0
LINE
  5
58AA
330
1F
100
AcDbEntity
  8
0
100
AcDbLine
 10
10.50255278494149
 20
6.979956388789269
 30
0.0
 11
10.50153902627494
 21
6.980923062894341
 31
0.0
  0
LINE
  5
58AB
330
1F
100
AcDbEntity
  8
0
100
AcDbLine
 10
10.5019746015917
 20
6.818856009405032
 30
0.0
 11
10.50122783394681
 21
6.816821823743986
 31
0.0
  0
LINE
  5
58AC
330
1F
100
AcDbEntity
  8
0
100
AcDbLine
 10
10.30297101387279
 20
6.993160529952654
 30
0.0
 11
10.30278008891653
 21
6.991408546262115
 31
0.0
  0
LINE
  5
58AD
330
1F
100
AcDbEntity
  8
0
100
AcDbLine
 10
10.30338146928869
 20
6.994874064748395
 30
0.0
 11
10.30297101387279
 21
6.993160529952654
 31
0.0
  0
LINE
  5
58AE
330
1F
100
AcDbEntity
  8
0
100
AcDbLine
 10
10.30400483251438
 20
6.996521502966907
 30
0.0
 11
10.30338146928869
 21
6.994874064748395
 31
0.0
  0
LINE
  5
58AF
330
1F
100
AcDbEntity
  8
0
100
AcDbLine
 10
10.30483104565751
 20
6.998076263386274
 30
0.0
 11
10.30400483251438
 21
6.996521502966907
 31
0.0
  0
LINE
  5
58B0
330
1F
100
AcDbEntity
  8
0
100
AcDbLine
 10
10.30584677786619
 20
6.999513260130009
 30
0.0
 11
10.30483104565751
 21
6.998076263386274
 31
0.0
  0
LINE
  5
58B1
330
1F
100
AcDbEntity
  8
0
100
AcDbLine
 10
10.30703564042069
 20
7.000809307424625
 30
0.0
 11
10.30584677786619
 21
6.999513260130009
 31
0.0
  0
LINE
  5
58B2
330
1F
100
AcDbEntity
  8
0
100
AcDbLine
 10
10.30837845116352
 20
7.001943493699465
 30
0.0
 11
10.30703564042069
 21
7.000809307424625
 31
0.0
  0
LINE
  5
58B3
330
1F
100
AcDbEntity
  8
0
100
AcDbLine
 10
10.30985354400124
 20
7.002897518992363
 30
0.0
 11
10.30837845116352
 21
7.001943493699465
 31
0.0
  0
LINE
  5
58B4
330
1F
100
AcDbEntity
  8
0
100
AcDbLine
 10
10.31143711848441
 20
7.003655990217418
 30
0.0
 11
10.30985354400124
 21
7.002897518992363
 31
0.0
  0
LINE
  5
58B5
330
1F
100
AcDbEntity
  8
0
100
AcDbLine
 10
10.31310362382499
 20
7.004206669530611
 30
0.0
 11
10.31143711848441
 21
7.003655990217418
 31
0.0
  0
LINE
  5
58B6
330
1F
100
AcDbEntity
  8
0
100
AcDbLine
 10
10.31482617115529
 20
7.004540671785982
 30
0.0
 11
10.31310362382499
 21
7.004206669530611
 31
0.0
  0
LINE
  5
58B7
330
1F
100
AcDbEntity
  8
0
100
AcDbLine
 10
10.31657696737671
 20
7.004652607896425
 30
0.0
 11
10.31482617115529
 21
7.004540671785982
 31
0.0
  0
LINE
  5
58B8
330
1F
100
AcDbEntity
  8
0
100
AcDbLine
 10
10.48750500373785
 20
7.004122882701701
 30
0.0
 11
10.48581331855874
 21
7.004652607896425
 31
0.0
  0
LINE
  5
58B9
330
1F
100
AcDbEntity
  8
0
100
AcDbLine
 10
10.48912300311661
 20
7.003397109554961
 30
0.0
 11
10.48750500373785
 21
7.004122882701701
 31
0.0
  0
LINE
  5
58BA
330
1F
100
AcDbEntity
  8
0
100
AcDbLine
 10
10.49064489468721
 20
7.002485346118398
 30
0.0
 11
10.48912300311661
 21
7.003397109554961
 31
0.0
  0
LINE
  5
58BB
330
1F
100
AcDbEntity
  8
0
100
AcDbLine
 10
10.49204958829034
 20
7.001400227481462
 30
0.0
 11
10.49064489468721
 21
7.002485346118398
 31
0.0
  0
LINE
  5
58BC
330
1F
100
AcDbEntity
  8
0
100
AcDbLine
 10
10.49331761787962
 20
7.0001567910656
 30
0.0
 11
10.49204958829034
 21
7.001400227481462
 31
0.0
  0
LINE
  5
58BD
330
1F
100
AcDbEntity
  8
0
100
AcDbLine
 10
10.49443141127937
 20
6.998772268237765
 30
0.0
 11
10.49331761787962
 21
7.0001567910656
 31
0.0
  0
LINE
  5
58BE
330
1F
100
AcDbEntity
  8
0
100
AcDbLine
 10
10.49537553369731
 20
6.997265845520552
 30
0.0
 11
10.49443141127937
 21
6.998772268237765
 31
0.0
  0
LINE
  5
58BF
330
1F
100
AcDbEntity
  8
0
100
AcDbLine
 10
10.49613690161778
 20
6.995658398708095
 30
0.0
 11
10.49537553369731
 21
6.997265845520552
 31
0.0
  0
LINE
  5
58C0
330
1F
100
AcDbEntity
  8
0
100
AcDbLine
 10
10.49670496411122
 20
6.99397220357222
 30
0.0
 11
10.49613690161778
 21
6.995658398708095
 31
0.0
  0
LINE
  5
58C1
330
1F
100
AcDbEntity
  8
0
100
AcDbLine
 10
10.4970718490475
 20
6.992230627167935
 30
0.0
 11
10.49670496411122
 21
6.99397220357222
 31
0.0
  0
LINE
  5
58C2
330
1F
100
AcDbEntity
  8
0
100
AcDbLine
 10
10.4972324721868
 20
6.990457804016082
 30
0.0
 11
10.4970718490475
 21
6.992230627167935
 31
0.0
  0
LINE
  5
58C3
330
1F
100
AcDbEntity
  8
0
100
AcDbLine
 10
10.49718460763622
 20
6.988678301650559
 30
0.0
 11
10.4972324721868
 21
6.990457804016082
 31
0.0
  0
LINE
  5
58C4
330
1F
100
AcDbEntity
  8
0
100
AcDbLine
 10
10.49716101563831
 20
6.987274331500679
 30
0.0
 11
10.49718460763622
 21
6.988678301650559
 31
0.0
  0
LINE
  5
58C5
330
1F
100
AcDbEntity
  8
0
100
AcDbLine
 10
10.49732997387372
 20
6.985880458348455
 30
0.0
 11
10.49716101563831
 21
6.987274331500679
 31
0.0
  0
LINE
  5
58C6
330
1F
100
AcDbEntity
  8
0
100
AcDbLine
 10
10.49768826707103
 20
6.984523207568678
 30
0.0
 11
10.49732997387372
 21
6.985880458348455
 31
0.0
  0
LINE
  5
58C7
330
1F
100
AcDbEntity
  8
0
100
AcDbLine
 10
10.49822907691875
 20
6.983228407613133
 30
0.0
 11
10.49768826707103
 21
6.984523207568678
 31
0.0
  0
LINE
  5
58C8
330
1F
100
AcDbEntity
  8
0
100
AcDbLine
 10
10.49894211181763
 20
6.982020698495909
 30
0.0
 11
10.49822907691875
 21
6.983228407613133
 31
0.0
  0
LINE
  5
58C9
330
1F
100
AcDbEntity
  8
0
100
AcDbLine
 10
10.49981380272958
 20
6.980923062894341
 30
0.0
 11
10.49894211181763
 21
6.982020698495909
 31
0.0
  0
LINE
  5
58CA
330
1F
100
AcDbEntity
  8
0
100
AcDbLine
 10
10.50082756139612
 20
6.979956388789269
 30
0.0
 11
10.49981380272958
 21
6.980923062894341
 31
0.0
  0
LINE
  5
58CB
330
1F
100
AcDbEntity
  8
0
100
AcDbLine
 10
10.50196409601264
 20
6.979139071967161
 30
0.0
 11
10.50082756139612
 21
6.979956388789269
 31
0.0
  0
LINE
  5
58CC
330
1F
100
AcDbEntity
  8
0
100
AcDbLine
 10
10.50320177835091
 20
6.978486665948786
 30
0.0
 11
10.50196409601264
 21
6.979139071967161
 31
0.0
  0
LINE
  5
58CD
330
1F
100
AcDbEntity
  8
0
100
AcDbLine
 10
10.50451705534387
 20
6.978011586005998
 30
0.0
 11
10.50320177835091
 21
6.978486665948786
 31
0.0
  0
LINE
  5
58CE
330
1F
100
AcDbEntity
  8
0
100
AcDbLine
 10
10.5058848972999
 20
6.977722872899456
 30
0.0
 11
10.50451705534387
 21
6.978011586005998
 31
0.0
  0
LINE
  5
58CF
330
1F
100
AcDbEntity
  8
0
100
AcDbLine
 10
10.50727927421733
 20
6.97762602083305
 30
0.0
 11
10.5058848972999
 21
6.977722872899456
 31
0.0
  0
LINE
  5
58D0
330
1F
100
AcDbEntity
  8
0
100
AcDbLine
 10
10.61577745983935
 20
6.97762602083305
 30
0.0
 11
10.61777121243006
 21
6.977535430022649
 31
0.0
  0
LINE
  5
58D1
330
1F
100
AcDbEntity
  8
0
100
AcDbLine
 10
10.61777121243006
 20
6.977535430022649
 30
0.0
 11
10.61974868475493
 21
6.977264397323389
 31
0.0
  0
LINE
  5
58D2
330
1F
100
AcDbEntity
  8
0
100
AcDbLine
 10
10.61974868475493
 20
6.977264397323389
 30
0.0
 11
10.62169372948689
 21
6.976815135890711
 31
0.0
  0
LINE
  5
58D3
330
1F
100
AcDbEntity
  8
0
100
AcDbLine
 10
10.62169372948689
 20
6.976815135890711
 30
0.0
 11
10.62359046409094
 21
6.976191314231734
 31
0.0
  0
LINE
  5
58D4
330
1F
100
AcDbEntity
  8
0
100
AcDbLine
 10
10.62359046409094
 20
6.976191314231734
 30
0.0
 11
10.62542340051519
 21
6.975398026249529
 31
0.0
  0
LINE
  5
58D5
330
1F
100
AcDbEntity
  8
0
100
AcDbLine
 10
10.62542340051519
 20
6.975398026249529
 30
0.0
 11
10.6271775716607
 21
6.974441749648144
 31
0.0
  0
LINE
  5
58D6
330
1F
100
AcDbEntity
  8
0
100
AcDbLine
 10
10.6271775716607
 20
6.974441749648144
 30
0.0
 11
10.62883865359747
 21
6.973330293038011
 31
0.0
  0
LINE
  5
58D7
330
1F
100
AcDbEntity
  8
0
100
AcDbLine
 10
10.62883865359747
 20
6.973330293038011
 30
0.0
 11
10.63039308252841
 21
6.972072732173679
 31
0.0
  0
LINE
  5
58D8
330
1F
100
AcDbEntity
  8
0
100
AcDbLine
 10
10.63039308252841
 20
6.972072732173679
 30
0.0
 11
10.63182816554655
 21
6.970679335844374
 31
0.0
  0
LINE
  5
58D9
330
1F
100
AcDbEntity
  8
0
100
AcDbLine
 10
10.63182816554655
 20
6.970679335844374
 30
0.0
 11
10.6331321842806
 21
6.969161482022891
 31
0.0
  0
LINE
  5
58DA
330
1F
100
AcDbEntity
  8
0
100
AcDbLine
 10
10.6331321842806
 20
6.969161482022891
 30
0.0
 11
10.63429449058309
 21
6.967531564957035
 31
0.0
  0
LINE
  5
58DB
330
1F
100
AcDbEntity
  8
0
100
AcDbLine
 10
10.63429449058309
 20
6.967531564957035
 30
0.0
 11
10.6353055934792
 21
6.965802893962753
 31
0.0
  0
LINE
  5
58DC
330
1F
100
AcDbEntity
  8
0
100
AcDbLine
 10
10.6353055934792
 20
6.847802893962758
 30
0.0
 11
10.6353055934792
 21
6.965802893962753
 31
0.0
  0
LINE
  5
58DD
330
1F
100
AcDbEntity
  8
0
100
AcDbLine
 10
10.6353055934792
 20
6.847802893962758
 30
0.0
 11
10.63447548707504
 21
6.846085662726118
 31
0.0
  0
LINE
  5
58DE
330
1F
100
AcDbEntity
  8
0
100
AcDbLine
 10
10.63447548707504
 20
6.846085662726118
 30
0.0
 11
10.63348328611404
 21
6.844457547767285
 31
0.0
  0
LINE
  5
58DF
330
1F
100
AcDbEntity
  8
0
100
AcDbLine
 10
10.63348328611404
 20
6.844457547767285
 30
0.0
 11
10.63233837257719
 21
6.842933944096153
 31
0.0
  0
LINE
  5
58E0
330
1F
100
AcDbEntity
  8
0
100
AcDbLine
 10
10.63233837257719
 20
6.842933944096153
 30
0.0
 11
10.63105157245385
 21
6.841529258492422
 31
0.0
  0
LINE
  5
58E1
330
1F
100
AcDbEntity
  8
0
100
AcDbLine
 10
10.63105157245385
 20
6.841529258492422
 30
0.0
 11
10.62963505337414
 21
6.840256773279087
 31
0.0
  0
LINE
  5
58E2
330
1F
100
AcDbEntity
  8
0
100
AcDbLine
 10
10.62963505337414
 20
6.840256773279087
 30
0.0
 11
10.62810220955515
 21
6.839128520728402
 31
0.0
  0
LINE
  5
58E3
330
1F
100
AcDbEntity
  8
0
100
AcDbLine
 10
10.62810220955515
 20
6.839128520728402
 30
0.0
 11
10.62646753514894
 21
6.838155169287994
 31
0.0
  0
LINE
  5
58E4
330
1F
100
AcDbEntity
  8
0
100
AcDbLine
 10
10.62646753514894
 20
6.838155169287994
 30
0.0
 11
10.62474648718971
 21
6.837345922702945
 31
0.0
  0
LINE
  5
58E5
330
1F
100
AcDbEntity
  8
0
100
AcDbLine
 10
10.62474648718971
 20
6.837345922702945
 30
0.0
 11
10.62295533943639
 21
6.836708432987671
 31
0.0
  0
LINE
  5
58E6
330
1F
100
AcDbEntity
  8
0
100
AcDbLine
 10
10.62295533943639
 20
6.836708432987671
 30
0.0
 11
10.62111102849239
 21
6.836248728070636
 31
0.0
  0
LINE
  5
58E7
330
1F
100
AcDbEntity
  8
0
100
AcDbLine
 10
10.62111102849239
 20
6.836248728070636
 30
0.0
 11
10.6192309936577
 21
6.835971154795836
 31
0.0
  0
LINE
  5
58E8
330
1F
100
AcDbEntity
  8
0
100
AcDbLine
 10
10.6192309936577
 20
6.835971154795836
 30
0.0
 11
10.61733301202769
 21
6.835878337820241
 31
0.0
  0
LINE
  5
58E9
330
1F
100
AcDbEntity
  8
0
100
AcDbLine
 10
10.50983022260403
 20
6.835878337820241
 30
0.0
 11
10.50851825975682
 21
6.835784109274364
 31
0.0
  0
LINE
  5
58EA
330
1F
100
AcDbEntity
  8
0
100
AcDbLine
 10
10.50851825975682
 20
6.835784109274364
 30
0.0
 11
10.50723298277692
 21
6.835503340284327
 31
0.0
  0
LINE
  5
58EB
330
1F
100
AcDbEntity
  8
0
100
AcDbLine
 10
10.50723298277692
 20
6.835503340284327
 30
0.0
 11
10.50600053473003
 21
6.835041741807594
 31
0.0
  0
LINE
  5
58EC
330
1F
100
AcDbEntity
  8
0
100
AcDbLine
 10
10.50600053473003
 20
6.835041741807594
 30
0.0
 11
10.5048459841195
 21
6.834408702948231
 31
0.0
  0
LINE
  5
58ED
330
1F
100
AcDbEntity
  8
0
100
AcDbLine
 10
10.5048459841195
 20
6.834408702948231
 30
0.0
 11
10.5037928149826
 21
6.833617099978646
 31
0.0
  0
LINE
  5
58EE
330
1F
100
AcDbEntity
  8
0
100
AcDbLine
 10
10.5037928149826
 20
6.833617099978646
 30
0.0
 11
10.50286244921546
 21
6.832683034430851
 31
0.0
  0
LINE
  5
58EF
330
1F
100
AcDbEntity
  8
0
100
AcDbLine
 10
10.50286244921546
 20
6.832683034430851
 30
0.0
 11
10.50207381084282
 21
6.831625505584676
 31
0.0
  0
LINE
  5
58F0
330
1F
100
AcDbEntity
  8
0
100
AcDbLine
 10
10.50207381084282
 20
6.831625505584676
 30
0.0
 11
10.5014429410956
 21
6.830466024014548
 31
0.0
  0
LINE
  5
58F1
330
1F
100
AcDbEntity
  8
0
100
AcDbLine
 10
10.5014429410956
 20
6.830466024014548
 30
0.0
 11
10.50098267212554
 21
6.829228174055466
 31
0.0
  0
LINE
  5
58F2
330
1F
100
AcDbEntity
  8
0
100
AcDbLine
 10
10.50098267212554
 20
6.829228174055466
 30
0.0
 11
10.50070236599399
 21
6.827937134087926
 31
0.0
  0
LINE
  5
58F3
330
1F
100
AcDbEntity
  8
0
100
AcDbLine
 10
10.50070236599399
 20
6.827937134087926
 30
0.0
 11
10.50060772424368
 21
6.826619164399198
 31
0.0
  0
LINE
  5
58F4
330
1F
100
AcDbEntity
  8
0
100
AcDbLine
 10
10.50060772424368
 20
6.826619164399198
 30
0.0
 11
10.50070067192698
 21
6.825301073038212
 31
0.0
  0
LINE
  5
58F5
330
1F
100
AcDbEntity
  8
0
100
AcDbLine
 10
10.50070067192698
 20
6.825301073038212
 30
0.0
 11
10.50085446054105
 21
6.823138465027676
 31
0.0
  0
LINE
  5
58F6
330
1F
100
AcDbEntity
  8
0
100
AcDbLine
 10
10.50085446054105
 20
6.823138465027676
 30
0.0
 11
10.50070301948915
 21
6.820975689820607
 31
0.0
  0
LINE
  5
58F7
330
1F
100
AcDbEntity
  8
0
100
AcDbLine
 10
10.50070301948915
 20
6.820975689820607
 30
0.0
 11
10.50024937804633
 21
6.818856009405032
 31
0.0
  0
LINE
  5
58F8
330
1F
100
AcDbEntity
  8
0
100
AcDbLine
 10
10.50024937804633
 20
6.818856009405032
 30
0.0
 11
10.49950261040144
 21
6.816821823743986
 31
0.0
  0
LINE
  5
58F9
330
1F
100
AcDbEntity
  8
0
100
AcDbLine
 10
10.49950261040144
 20
6.816821823743986
 30
0.0
 11
10.49847765414616
 21
6.814913822649068
 31
0.0
  0
LINE
  5
58FA
330
1F
100
AcDbEntity
  8
0
100
AcDbLine
 10
10.49847765414616
 20
6.814913822649068
 30
0.0
 11
10.49719501147836
 21
6.81317017186229
 31
0.0
  0
LINE
  5
58FB
330
1F
100
AcDbEntity
  8
0
100
AcDbLine
 10
10.49719501147836
 20
6.81317017186229
 30
0.0
 11
10.4956803390967
 21
6.811625749626778
 31
0.0
  0
LINE
  5
58FC
330
1F
100
AcDbEntity
  8
0
100
AcDbLine
 10
10.4956803390967
 20
6.811625749626778
 30
0.0
 11
10.49396393498974
 21
6.810311449017341
 31
0.0
  0
LINE
  5
58FD
330
1F
100
AcDbEntity
  8
0
100
AcDbLine
 10
10.49396393498974
 20
6.810311449017341
 30
0.0
 11
10.49208013238533
 21
6.809253559986395
 31
0.0
  0
LINE
  5
58FE
330
1F
100
AcDbEntity
  8
0
100
AcDbLine
 10
10.49208013238533
 20
6.809253559986395
 30
0.0
 11
10.4900666129831
 21
6.808473243486042
 31
0.0
  0
LINE
  5
58FF
330
1F
100
AcDbEntity
  8
0
100
AcDbLine
 10
10.4900666129831
 20
6.808473243486042
 30
0.0
 11
10.48796365320754
 21
6.807986108185681
 31
0.0
  0
LINE
  5
5900
330
1F
100
AcDbEntity
  8
0
100
AcDbLine
 10
10.48796365320754
 20
6.807986108185681
 30
0.0
 11
10.48581331855874
 21
6.80780189825169
 31
0.0
  0
LINE
  5
5901
330
1F
100
AcDbEntity
  8
0
100
AcDbLine
 10
10.31261438004285
 20
6.80780189825169
 30
0.0
 11
10.31120425098176
 21
6.808453231065294
 31
0.0
  0
LINE
  5
5902
330
1F
100
AcDbEntity
  8
0
100
AcDbLine
 10
10.31120425098176
 20
6.808453231065294
 30
0.0
 11
10.30986519887233
 21
6.809241551780382
 31
0.0
  0
LINE
  5
5903
330
1F
100
AcDbEntity
  8
0
100
AcDbLine
 10
10.30986519887233
 20
6.809241551780382
 30
0.0
 11
10.30861036809262
 21
6.810159122098064
 31
0.0
  0
LINE
  5
5904
330
1F
100
AcDbEntity
  8
0
100
AcDbLine
 10
10.30861036809262
 20
6.810159122098064
 30
0.0
 11
10.30745207628882
 21
6.811196934981915
 31
0.0
  0
LINE
  5
5905
330
1F
100
AcDbEntity
  8
0
100
AcDbLine
 10
10.30745207628882
 20
6.811196934981915
 30
0.0
 11
10.30640169346306
 21
6.812344803072684
 31
0.0
  0
LINE
  5
5906
330
1F
100
AcDbEntity
  8
0
100
AcDbLine
 10
10.30640169346306
 20
6.812344803072684
 30
0.0
 11
10.30546953036341
 21
6.81359145868931
 31
0.0
  0
LINE
  5
5907
330
1F
100
AcDbEntity
  8
0
100
AcDbLine
 10
10.30546953036341
 20
6.81359145868931
 30
0.0
 11
10.30466473727167
 21
6.81492466443445
 31
0.0
  0
LINE
  5
5908
330
1F
100
AcDbEntity
  8
0
100
AcDbLine
 10
10.30466473727167
 20
6.81492466443445
 30
0.0
 11
10.30399521418259
 21
6.816331333319078
 31
0.0
  0
LINE
  5
5909
330
1F
100
AcDbEntity
  8
0
100
AcDbLine
 10
10.30399521418259
 20
6.816331333319078
 30
0.0
 11
10.30346753325609
 21
6.817797657226628
 31
0.0
  0
LINE
  5
590A
330
1F
100
AcDbEntity
  8
0
100
AcDbLine
 10
10.30346753325609
 20
6.817797657226628
 30
0.0
 11
10.30308687430371
 21
6.819309242456051
 31
0.0
  0
LINE
  5
590B
330
1F
100
AcDbEntity
  8
0
100
AcDbLine
 10
10.30308687430371
 20
6.819309242456051
 30
0.0
 11
10.30285697394266
 21
6.820851251012975
 31
0.0
  0
LINE
  5
590C
330
1F
100
AcDbEntity
  8
0
100
AcDbLine
 10
10.30285697394266
 20
6.820851251012975
 30
0.0
 11
10.30278008891653
 21
6.822408546262104
 31
0.0
  0
LINE
  5
590D
330
1F
100
AcDbEntity
  8
0
100
AcDbLine
 10
10.48753854210411
 20
7.004652607896425
 30
0.0
 11
10.48581331855874
 21
7.004652607896425
 31
0.0
  0
LINE
  5
590E
330
1F
100
AcDbEntity
  8
0
100
AcDbLine
 10
10.49890983118158
 20
6.988678301650559
 30
0.0
 11
10.49718460763622
 21
6.988678301650559
 31
0.0
  0
LINE
  5
590F
330
1F
100
AcDbEntity
  8
0
100
AcDbLine
 10
10.61750268338472
 20
6.97762602083305
 30
0.0
 11
10.61577745983935
 21
6.97762602083305
 31
0.0
  0
LINE
  5
5910
330
1F
100
AcDbEntity
  8
0
100
AcDbLine
 10
10.63703081702457
 20
6.965802893962753
 30
0.0
 11
10.6353055934792
 21
6.965802893962753
 31
0.0
  0
LINE
  5
5911
330
1F
100
AcDbEntity
  8
0
100
AcDbLine
 10
10.63703081702457
 20
6.847802893962758
 30
0.0
 11
10.6353055934792
 21
6.847802893962758
 31
0.0
  0
LINE
  5
5912
330
1F
100
AcDbEntity
  8
0
100
AcDbLine
 10
10.61905823557305
 20
6.835878337820241
 30
0.0
 11
10.61733301202769
 21
6.835878337820241
 31
0.0
  0
LINE
  5
5913
330
1F
100
AcDbEntity
  8
0
100
AcDbLine
 10
10.5115554461494
 20
6.835878337820241
 30
0.0
 11
10.50983022260403
 21
6.835878337820241
 31
0.0
  0
LINE
  5
5914
330
1F
100
AcDbEntity
  8
0
100
AcDbLine
 10
10.50242589547234
 20
6.825301073038212
 30
0.0
 11
10.50070067192698
 21
6.825301073038212
 31
0.0
  0
LINE
  5
5915
330
1F
100
AcDbEntity
  8
0
100
AcDbLine
 10
10.48753854210411
 20
6.80780189825169
 30
0.0
 11
10.48581331855874
 21
6.80780189825169
 31
0.0
  0
LINE
  5
5916
330
1F
100
AcDbEntity
  8
0
100
AcDbLine
 10
11.84032013750653
 20
6.785478397964859
 30
0.0
 11
11.80044854200518
 21
6.785478397964859
 31
0.0
  0
LINE
  5
593D
330
1F
100
AcDbEntity
  8
0
100
AcDbLine
 10
13.29644465271464
 20
6.966908546262112
 30
0.0
 11
13.28848917790743
 21
6.966908546262112
 31
0.0
  0
LINE
  5
593E
330
1F
100
AcDbEntity
  8
0
100
AcDbLine
 10
10.68514441439441
 20
6.966908546262112
 30
0.0
 11
10.63638411892778
 21
6.966908546262112
 31
0.0
  0
LINE
  5
593F
330
1F
100
AcDbEntity
  8
0
100
AcDbLine
 10
13.29495625034598
 20
6.964864095839453
 30
0.0
 11
13.29644465271464
 21
6.966908546262112
 31
0.0
  0
LINE
  5
5940
330
1F
100
AcDbEntity
  8
0
100
AcDbLine
 10
13.29356928013904
 20
6.958870070489177
 30
0.0
 11
13.29495625034598
 21
6.964864095839453
 31
0.0
  0
LINE
  5
5941
330
1F
100
AcDbEntity
  8
0
100
AcDbLine
 10
13.29237826182134
 20
6.949334953133296
 30
0.0
 11
13.29356928013904
 21
6.958870070489177
 31
0.0
  0
LINE
  5
5942
330
1F
100
AcDbEntity
  8
0
100
AcDbLine
 10
13.291464361323
 20
6.93690854626211
 30
0.0
 11
13.29237826182134
 21
6.949334953133296
 31
0.0
  0
LINE
  5
5943
330
1F
100
AcDbEntity
  8
0
100
AcDbLine
 10
13.29088985945268
 20
6.922437688968266
 30
0.0
 11
13.291464361323
 21
6.93690854626211
 31
0.0
  0
LINE
  5
5944
330
1F
100
AcDbEntity
  8
0
100
AcDbLine
 10
10.29615185280307
 20
6.881908546262104
 30
0.0
 11
10.29567310124447
 21
6.893967594006988
 31
0.0
  0
LINE
  5
5945
330
1F
100
AcDbEntity
  8
0
100
AcDbLine
 10
10.29567310124447
 20
6.893967594006988
 30
0.0
 11
10.29550980800342
 21
6.906908546262109
 31
0.0
  0
LINE
  5
5946
330
1F
100
AcDbEntity
  8
0
100
AcDbLine
 10
10.29691343655169
 20
6.871553207202773
 30
0.0
 11
10.29615185280307
 21
6.881908546262104
 31
0.0
  0
LINE
  5
5947
330
1F
100
AcDbEntity
  8
0
100
AcDbLine
 10
13.29644465271464
 20
6.846908546262107
 30
0.0
 11
13.28848917790743
 21
6.846908546262107
 31
0.0
  0
LINE
  5
5948
330
1F
100
AcDbEntity
  8
0
100
AcDbLine
 10
10.72006977938381
 20
6.846908546262107
 30
0.0
 11
10.63659849099997
 21
6.846908546262107
 31
0.0
  0
LINE
  5
5949
330
1F
100
AcDbEntity
  8
0
100
AcDbLine
 10
13.29069390756343
 20
6.906908546262109
 30
0.0
 11
13.29088985945268
 21
6.922437688968266
 31
0.0
  0
LINE
  5
594A
330
1F
100
AcDbEntity
  8
0
100
AcDbLine
 10
13.29069390756343
 20
6.906908546262109
 30
0.0
 11
13.28848917790743
 21
6.906908546262109
 31
0.0
  0
LINE
  5
594B
330
1F
100
AcDbEntity
  8
0
100
AcDbLine
 10
13.29088985945268
 20
6.891379403555952
 30
0.0
 11
13.29069390756343
 21
6.906908546262109
 31
0.0
  0
LINE
  5
594C
330
1F
100
AcDbEntity
  8
0
100
AcDbLine
 10
13.291464361323
 20
6.876908546262108
 30
0.0
 11
13.29088985945268
 21
6.891379403555952
 31
0.0
  0
LINE
  5
594D
330
1F
100
AcDbEntity
  8
0
100
AcDbLine
 10
13.29237826182134
 20
6.864482139390909
 30
0.0
 11
13.291464361323
 21
6.876908546262108
 31
0.0
  0
LINE
  5
594E
330
1F
100
AcDbEntity
  8
0
100
AcDbLine
 10
13.29356928013904
 20
6.854947022035042
 30
0.0
 11
13.29237826182134
 21
6.864482139390909
 31
0.0
  0
LINE
  5
594F
330
1F
100
AcDbEntity
  8
0
100
AcDbLine
 10
13.29495625034598
 20
6.848952996684766
 30
0.0
 11
13.29356928013904
 21
6.854947022035042
 31
0.0
  0
LINE
  5
5950
330
1F
100
AcDbEntity
  8
0
100
AcDbLine
 10
13.29644465271464
 20
6.846908546262107
 30
0.0
 11
13.29495625034598
 21
6.848952996684766
 31
0.0
  0
LINE
  5
5951
330
1F
100
AcDbEntity
  8
0
100
AcDbLine
 10
13.30176962031335
 20
6.919849498517231
 30
0.0
 11
13.30160632707231
 21
6.906908546262109
 31
0.0
  0
LINE
  5
5952
330
1F
100
AcDbEntity
  8
0
100
AcDbLine
 10
10.29790595181643
 20
6.863607276072891
 30
0.0
 11
10.29691343655169
 21
6.871553207202773
 31
0.0
  0
LINE
  5
5953
330
1F
100
AcDbEntity
  8
0
100
AcDbLine
 10
10.29936601089285
 20
6.857457560693043
 30
0.0
 11
10.29906176032222
 21
6.858612254947652
 31
0.0
  0
LINE
  5
5954
330
1F
100
AcDbEntity
  8
0
100
AcDbLine
 10
10.29906176032222
 20
6.858612254947652
 30
0.0
 11
10.29790595181643
 21
6.863607276072891
 31
0.0
  0
LINE
  5
5955
330
1F
100
AcDbEntity
  8
0
100
AcDbLine
 10
10.29978029142193
 20
6.856337971975357
 30
0.0
 11
10.29936601089285
 21
6.857457560693043
 31
0.0
  0
LINE
  5
5956
330
1F
100
AcDbEntity
  8
0
100
AcDbLine
 10
10.30030101685304
 20
6.855263177371321
 30
0.0
 11
10.29978029142193
 21
6.856337971975357
 31
0.0
  0
LINE
  5
5957
330
1F
100
AcDbEntity
  8
0
100
AcDbLine
 10
10.30092368098831
 20
6.854242477823214
 30
0.0
 11
10.30030101685304
 21
6.855263177371321
 31
0.0
  0
LINE
  5
5958
330
1F
100
AcDbEntity
  8
0
100
AcDbLine
 10
10.30278008891653
 20
6.85171295082089
 30
0.0
 11
10.30227624000266
 21
6.852384620091478
 31
0.0
  0
LINE
  5
5959
330
1F
100
AcDbEntity
  8
0
100
AcDbLine
 10
10.30278008891653
 20
6.962104141703329
 30
0.0
 11
10.30227624000266
 21
6.961432472432741
 31
0.0
  0
LINE
  5
595A
330
1F
100
AcDbEntity
  8
0
100
AcDbLine
 10
10.29790595181643
 20
6.950209816451327
 30
0.0
 11
10.29906176032222
 21
6.955204837576567
 31
0.0
  0
LINE
  5
595B
330
1F
100
AcDbEntity
  8
0
100
AcDbLine
 10
10.29550980800342
 20
6.906908546262109
 30
0.0
 11
10.29567310124447
 21
6.919849498517231
 31
0.0
  0
LINE
  5
595C
330
1F
100
AcDbEntity
  8
0
100
AcDbLine
 10
10.29567310124447
 20
6.919849498517231
 30
0.0
 11
10.29615185280307
 21
6.931908546262115
 31
0.0
  0
LINE
  5
595D
330
1F
100
AcDbEntity
  8
0
100
AcDbLine
 10
10.29615185280307
 20
6.931908546262115
 30
0.0
 11
10.29691343655169
 21
6.942263885321431
 31
0.0
  0
LINE
  5
595E
330
1F
100
AcDbEntity
  8
0
100
AcDbLine
 10
10.29691343655169
 20
6.942263885321431
 30
0.0
 11
10.29790595181643
 21
6.950209816451327
 31
0.0
  0
LINE
  5
595F
330
1F
100
AcDbEntity
  8
0
100
AcDbLine
 10
10.29936601089285
 20
6.956359531831162
 30
0.0
 11
10.29906176032222
 21
6.955204837576567
 31
0.0
  0
LINE
  5
5960
330
1F
100
AcDbEntity
  8
0
100
AcDbLine
 10
10.29978029142193
 20
6.957479120548861
 30
0.0
 11
10.29936601089285
 21
6.956359531831162
 31
0.0
  0
LINE
  5
5961
330
1F
100
AcDbEntity
  8
0
100
AcDbLine
 10
10.30030101685304
 20
6.958553915152898
 30
0.0
 11
10.29978029142193
 21
6.957479120548861
 31
0.0
  0
LINE
  5
5962
330
1F
100
AcDbEntity
  8
0
100
AcDbLine
 10
10.30092368098831
 20
6.959574614701005
 30
0.0
 11
10.30030101685304
 21
6.958553915152898
 31
0.0
  0
LINE
  5
5963
330
1F
100
AcDbEntity
  8
0
100
AcDbLine
 10
13.30224837187195
 20
6.931908546262115
 30
0.0
 11
13.30176962031335
 21
6.919849498517231
 31
0.0
  0
LINE
  5
5964
330
1F
100
AcDbEntity
  8
0
100
AcDbLine
 10
13.3073346994349
 20
6.956359531831176
 30
0.0
 11
13.30763895000554
 21
6.955204837576567
 31
0.0
  0
LINE
  5
5965
330
1F
100
AcDbEntity
  8
0
100
AcDbLine
 10
13.30763895000554
 20
6.955204837576567
 30
0.0
 11
13.30639861469832
 21
6.956908546262106
 31
0.0
  0
LINE
  5
5966
330
1F
100
AcDbEntity
  8
0
100
AcDbLine
 10
13.30300995562057
 20
6.942263885321431
 30
0.0
 11
13.30224837187195
 21
6.931908546262115
 31
0.0
  0
LINE
  5
5967
330
1F
100
AcDbEntity
  8
0
100
AcDbLine
 10
13.30639861469832
 20
6.956908546262106
 30
0.0
 11
13.3051582793911
 21
6.955204837576567
 31
0.0
  0
LINE
  5
5968
330
1F
100
AcDbEntity
  8
0
100
AcDbLine
 10
13.30368065853693
 20
6.962424030630949
 30
0.0
 11
13.30442447032509
 21
6.961432472432741
 31
0.0
  0
LINE
  5
5969
330
1F
100
AcDbEntity
  8
0
100
AcDbLine
 10
13.30284834920801
 20
6.963341860457881
 30
0.0
 11
13.30368065853693
 21
6.962424030630949
 31
0.0
  0
LINE
  5
596A
330
1F
100
AcDbEntity
  8
0
100
AcDbLine
 10
13.30193474488754
 20
6.964178019296221
 30
0.0
 11
13.30284834920801
 21
6.963341860457881
 31
0.0
  0
LINE
  5
596B
330
1F
100
AcDbEntity
  8
0
100
AcDbLine
 10
13.30094775162659
 20
6.964925271284294
 30
0.0
 11
13.30193474488754
 21
6.964178019296221
 31
0.0
  0
LINE
  5
596C
330
1F
100
AcDbEntity
  8
0
100
AcDbLine
 10
13.30692041890582
 20
6.957479120548861
 30
0.0
 11
13.3073346994349
 21
6.956359531831176
 31
0.0
  0
LINE
  5
596D
330
1F
100
AcDbEntity
  8
0
100
AcDbLine
 10
13.30639969347471
 20
6.958553915152898
 30
0.0
 11
13.30692041890582
 21
6.957479120548861
 31
0.0
  0
LINE
  5
596E
330
1F
100
AcDbEntity
  8
0
100
AcDbLine
 10
13.30442447032509
 20
6.961432472432741
 30
0.0
 11
13.30577702933944
 21
6.959574614701005
 31
0.0
  0
LINE
  5
596F
330
1F
100
AcDbEntity
  8
0
100
AcDbLine
 10
13.30577702933944
 20
6.959574614701005
 30
0.0
 11
13.30639969347471
 21
6.958553915152898
 31
0.0
  0
LINE
  5
5970
330
1F
100
AcDbEntity
  8
0
100
AcDbLine
 10
13.29989591056156
 20
6.965577149933033
 30
0.0
 11
13.30094775162659
 21
6.964925271284294
 31
0.0
  0
LINE
  5
5971
330
1F
100
AcDbEntity
  8
0
100
AcDbLine
 10
13.29878832400184
 20
6.966128014084866
 30
0.0
 11
13.29989591056156
 21
6.965577149933033
 31
0.0
  0
LINE
  5
5972
330
1F
100
AcDbEntity
  8
0
100
AcDbLine
 10
13.29763457666121
 20
6.96657309673072
 30
0.0
 11
13.29878832400184
 21
6.966128014084866
 31
0.0
  0
LINE
  5
5973
330
1F
100
AcDbEntity
  8
0
100
AcDbLine
 10
13.29644465271464
 20
6.966908546262112
 30
0.0
 11
13.29763457666121
 21
6.96657309673072
 31
0.0
  0
LINE
  5
5974
330
1F
100
AcDbEntity
  8
0
100
AcDbLine
 10
13.30879475851132
 20
6.950209816451327
 30
0.0
 11
13.30763895000554
 21
6.955204837576567
 31
0.0
  0
LINE
  5
5975
330
1F
100
AcDbEntity
  8
0
100
AcDbLine
 10
13.30400247088531
 20
6.863607276072891
 30
0.0
 11
13.3051582793911
 21
6.858612254947652
 31
0.0
  0
LINE
  5
5976
330
1F
100
AcDbEntity
  8
0
100
AcDbLine
 10
13.3051582793911
 20
6.858612254947652
 30
0.0
 11
13.30639861469832
 21
6.856908546262112
 31
0.0
  0
LINE
  5
5977
330
1F
100
AcDbEntity
  8
0
100
AcDbLine
 10
13.30639861469832
 20
6.856908546262112
 30
0.0
 11
13.30763895000554
 21
6.858612254947652
 31
0.0
  0
LINE
  5
5978
330
1F
100
AcDbEntity
  8
0
100
AcDbLine
 10
13.30763895000554
 20
6.858612254947652
 30
0.0
 11
13.30879475851132
 21
6.863607276072891
 31
0.0
  0
LINE
  5
5979
330
1F
100
AcDbEntity
  8
0
100
AcDbLine
 10
13.30879475851132
 20
6.863607276072891
 30
0.0
 11
13.30978727377607
 21
6.871553207202773
 31
0.0
  0
LINE
  5
597A
330
1F
100
AcDbEntity
  8
0
100
AcDbLine
 10
13.30978727377607
 20
6.871553207202773
 30
0.0
 11
13.31054885752468
 21
6.881908546262104
 31
0.0
  0
LINE
  5
597B
330
1F
100
AcDbEntity
  8
0
100
AcDbLine
 10
13.31054885752468
 20
6.881908546262104
 30
0.0
 11
13.31102760908329
 21
6.893967594006988
 31
0.0
  0
LINE
  5
597C
330
1F
100
AcDbEntity
  8
0
100
AcDbLine
 10
13.31102760908329
 20
6.893967594006988
 30
0.0
 11
13.31119090232433
 21
6.906908546262109
 31
0.0
  0
LINE
  5
597D
330
1F
100
AcDbEntity
  8
0
100
AcDbLine
 10
13.31119090232433
 20
6.906908546262109
 30
0.0
 11
13.31102760908329
 21
6.919849498517231
 31
0.0
  0
LINE
  5
597E
330
1F
100
AcDbEntity
  8
0
100
AcDbLine
 10
13.31102760908329
 20
6.919849498517231
 30
0.0
 11
13.31054885752468
 21
6.931908546262115
 31
0.0
  0
LINE
  5
597F
330
1F
100
AcDbEntity
  8
0
100
AcDbLine
 10
13.31054885752468
 20
6.931908546262115
 30
0.0
 11
13.30978727377607
 21
6.942263885321431
 31
0.0
  0
LINE
  5
5980
330
1F
100
AcDbEntity
  8
0
100
AcDbLine
 10
13.30978727377607
 20
6.942263885321431
 30
0.0
 11
13.30879475851132
 21
6.950209816451327
 31
0.0
  0
LINE
  5
5981
330
1F
100
AcDbEntity
  8
0
100
AcDbLine
 10
13.3051582793911
 20
6.955204837576567
 30
0.0
 11
13.30400247088531
 21
6.950209816451327
 31
0.0
  0
LINE
  5
5982
330
1F
100
AcDbEntity
  8
0
100
AcDbLine
 10
13.30400247088531
 20
6.950209816451327
 30
0.0
 11
13.30300995562057
 21
6.942263885321431
 31
0.0
  0
LINE
  5
5983
330
1F
100
AcDbEntity
  8
0
100
AcDbLine
 10
13.30160632707231
 20
6.906908546262109
 30
0.0
 11
13.30176962031335
 21
6.893967594006988
 31
0.0
  0
LINE
  5
5984
330
1F
100
AcDbEntity
  8
0
100
AcDbLine
 10
13.30176962031335
 20
6.893967594006988
 30
0.0
 11
13.30224837187195
 21
6.881908546262104
 31
0.0
  0
LINE
  5
5985
330
1F
100
AcDbEntity
  8
0
100
AcDbLine
 10
13.30224837187195
 20
6.881908546262104
 30
0.0
 11
13.30300995562057
 21
6.871553207202773
 31
0.0
  0
LINE
  5
5986
330
1F
100
AcDbEntity
  8
0
100
AcDbLine
 10
13.30300995562057
 20
6.871553207202773
 30
0.0
 11
13.30400247088531
 21
6.863607276072891
 31
0.0
  0
LINE
  5
5987
330
1F
100
AcDbEntity
  8
0
100
AcDbLine
 10
13.3073346994349
 20
6.857457560693043
 30
0.0
 11
13.30763895000554
 21
6.858612254947652
 31
0.0
  0
LINE
  5
5988
330
1F
100
AcDbEntity
  8
0
100
AcDbLine
 10
13.30692041890582
 20
6.856337971975357
 30
0.0
 11
13.3073346994349
 21
6.857457560693043
 31
0.0
  0
LINE
  5
5989
330
1F
100
AcDbEntity
  8
0
100
AcDbLine
 10
13.30639969347471
 20
6.855263177371321
 30
0.0
 11
13.30692041890582
 21
6.856337971975357
 31
0.0
  0
LINE
  5
598A
330
1F
100
AcDbEntity
  8
0
100
AcDbLine
 10
13.30577702933944
 20
6.854242477823214
 30
0.0
 11
13.30442447032509
 21
6.852384620091478
 31
0.0
  0
LINE
  5
598B
330
1F
100
AcDbEntity
  8
0
100
AcDbLine
 10
13.30577702933944
 20
6.854242477823214
 30
0.0
 11
13.30639969347471
 21
6.855263177371321
 31
0.0
  0
LINE
  5
598C
330
1F
100
AcDbEntity
  8
0
100
AcDbLine
 10
13.30368065853693
 20
6.851393061893269
 30
0.0
 11
13.30442447032509
 21
6.852384620091478
 31
0.0
  0
LINE
  5
598D
330
1F
100
AcDbEntity
  8
0
100
AcDbLine
 10
13.30284834920801
 20
6.850475232066338
 30
0.0
 11
13.30368065853693
 21
6.851393061893269
 31
0.0
  0
LINE
  5
598E
330
1F
100
AcDbEntity
  8
0
100
AcDbLine
 10
13.30193474488754
 20
6.849639073227998
 30
0.0
 11
13.30284834920801
 21
6.850475232066338
 31
0.0
  0
LINE
  5
598F
330
1F
100
AcDbEntity
  8
0
100
AcDbLine
 10
13.30094775162659
 20
6.84889182123991
 30
0.0
 11
13.30193474488754
 21
6.849639073227998
 31
0.0
  0
LINE
  5
5990
330
1F
100
AcDbEntity
  8
0
100
AcDbLine
 10
13.29989591056156
 20
6.848239942591185
 30
0.0
 11
13.30094775162659
 21
6.84889182123991
 31
0.0
  0
LINE
  5
5991
330
1F
100
AcDbEntity
  8
0
100
AcDbLine
 10
13.29878832400184
 20
6.847689078439352
 30
0.0
 11
13.29989591056156
 21
6.848239942591185
 31
0.0
  0
LINE
  5
5992
330
1F
100
AcDbEntity
  8
0
100
AcDbLine
 10
13.29763457666121
 20
6.847243995793498
 30
0.0
 11
13.29878832400184
 21
6.847689078439352
 31
0.0
  0
LINE
  5
5993
330
1F
100
AcDbEntity
  8
0
100
AcDbLine
 10
13.29644465271464
 20
6.846908546262107
 30
0.0
 11
13.29763457666121
 21
6.847243995793498
 31
0.0
  0
LINE
  5
5994
330
1F
100
AcDbEntity
  8
0
100
AcDbLine
 10
10.71688364886379
 20
7.061493108706764
 30
0.0
 11
10.7199585078839
 21
7.057269521754997
 31
0.0
  0
LINE
  5
5995
330
1F
100
AcDbEntity
  8
0
100
AcDbLine
 10
10.71688364886379
 20
7.061493108706764
 30
0.0
 11
10.71569036285447
 21
7.064387280165527
 31
0.0
  0
LINE
  5
5996
330
1F
100
AcDbEntity
  8
0
100
AcDbLine
 10
10.71569036285447
 20
7.064387280165527
 30
0.0
 11
10.71528335521878
 21
7.067493108706764
 31
0.0
  0
LINE
  5
5997
330
1F
100
AcDbEntity
  8
0
100
AcDbLine
 10
10.71528335521878
 20
7.067493108706764
 30
0.0
 11
10.71569036285447
 21
7.070598937247987
 31
0.0
  0
LINE
  5
5998
330
1F
100
AcDbEntity
  8
0
100
AcDbLine
 10
10.71569036285447
 20
7.070598937247987
 30
0.0
 11
10.71688364886379
 21
7.073493108706764
 31
0.0
  0
LINE
  5
5999
330
1F
100
AcDbEntity
  8
0
100
AcDbLine
 10
10.71688364886379
 20
7.073493108706764
 30
0.0
 11
10.7187818927772
 21
7.075978390080998
 31
0.0
  0
LINE
  5
599A
330
1F
100
AcDbEntity
  8
0
100
AcDbLine
 10
10.7187818927772
 20
7.075978390080998
 30
0.0
 11
10.72125573240899
 21
7.077885413552174
 31
0.0
  0
LINE
  5
599B
330
1F
100
AcDbEntity
  8
0
100
AcDbLine
 10
10.72125573240899
 20
7.077885413552174
 30
0.0
 11
10.72413657967647
 21
7.079084218622235
 31
0.0
  0
LINE
  5
599C
330
1F
100
AcDbEntity
  8
0
100
AcDbLine
 10
10.72413657967647
 20
7.079084218622235
 30
0.0
 11
10.72722810959919
 21
7.079493108706764
 31
0.0
  0
LINE
  5
599D
330
1F
100
AcDbEntity
  8
0
100
AcDbLine
 10
10.72722810959919
 20
7.079493108706764
 30
0.0
 11
10.73031963952191
 21
7.079084218622235
 31
0.0
  0
LINE
  5
599E
330
1F
100
AcDbEntity
  8
0
100
AcDbLine
 10
10.73031963952191
 20
7.079084218622235
 30
0.0
 11
10.73320048678939
 21
7.077885413552174
 31
0.0
  0
LINE
  5
599F
330
1F
100
AcDbEntity
  8
0
100
AcDbLine
 10
10.73320048678939
 20
7.077885413552174
 30
0.0
 11
10.73567432642118
 21
7.075978390080998
 31
0.0
  0
LINE
  5
59A0
330
1F
100
AcDbEntity
  8
0
100
AcDbLine
 10
10.73567432642118
 20
7.075978390080998
 30
0.0
 11
10.73757257033459
 21
7.073493108706764
 31
0.0
  0
LINE
  5
59A1
330
1F
100
AcDbEntity
  8
0
100
AcDbLine
 10
10.73757257033459
 20
7.073493108706764
 30
0.0
 11
10.74164087014227
 21
7.067904944218164
 31
0.0
  0
LINE
  5
59A2
330
1F
100
AcDbEntity
  8
0
100
AcDbLine
 10
10.74276236129068
 20
7.065109389260435
 30
0.0
 11
10.74164087014227
 21
7.067904944218164
 31
0.0
  0
LINE
  5
59A3
330
1F
100
AcDbEntity
  8
0
100
AcDbLine
 10
10.74276236129068
 20
7.065109389260435
 30
0.0
 11
10.74648651102987
 21
7.049014848921211
 31
0.0
  0
LINE
  5
59A4
330
1F
100
AcDbEntity
  8
0
100
AcDbLine
 10
10.74648651102987
 20
7.049014848921211
 30
0.0
 11
10.7496845109112
 21
7.023412132556935
 31
0.0
  0
LINE
  5
59A5
330
1F
100
AcDbEntity
  8
0
100
AcDbLine
 10
10.72311333706671
 20
7.043635396088199
 30
0.0
 11
10.72610291969559
 21
7.01970123757193
 31
0.0
  0
LINE
  5
59A6
330
1F
100
AcDbEntity
  8
0
100
AcDbLine
 10
10.74988102666529
 20
7.021215980134237
 30
0.0
 11
10.7496845109112
 21
7.023412132556935
 31
0.0
  0
LINE
  5
59A7
330
1F
100
AcDbEntity
  8
0
100
AcDbLine
 10
10.74988102666529
 20
7.021215980134237
 30
0.0
 11
10.75228763131092
 21
6.988493108706756
 31
0.0
  0
LINE
  5
59A8
330
1F
100
AcDbEntity
  8
0
100
AcDbLine
 10
10.72991097747529
 20
6.950386517832961
 30
0.0
 11
10.73042698411698
 21
6.909493108706763
 31
0.0
  0
LINE
  5
59A9
330
1F
100
AcDbEntity
  8
0
100
AcDbLine
 10
10.7538004862361
 20
6.950386517832961
 30
0.0
 11
10.7543164928778
 21
6.909493108706763
 31
0.0
  0
LINE
  5
59AA
330
1F
100
AcDbEntity
  8
0
100
AcDbLine
 10
10.7496845109112
 20
6.795574084856576
 30
0.0
 11
10.74648651102987
 21
6.769971368492314
 31
0.0
  0
LINE
  5
59AB
330
1F
100
AcDbEntity
  8
0
100
AcDbLine
 10
10.74988102666529
 20
6.797770237279288
 30
0.0
 11
10.7496845109112
 21
6.795574084856576
 31
0.0
  0
LINE
  5
59AC
330
1F
100
AcDbEntity
  8
0
100
AcDbLine
 10
10.7199585078839
 20
6.761716695658528
 30
0.0
 11
10.71688364886379
 21
6.757493108706762
 31
0.0
  0
LINE
  5
59AD
330
1F
100
AcDbEntity
  8
0
100
AcDbLine
 10
10.75228763131092
 20
6.830493108706755
 30
0.0
 11
10.74988102666529
 21
6.797770237279288
 31
0.0
  0
LINE
  5
59AE
330
1F
100
AcDbEntity
  8
0
100
AcDbLine
 10
10.72610291969559
 20
6.799284979841595
 30
0.0
 11
10.72311333706671
 21
6.775350821325326
 31
0.0
  0
LINE
  5
59AF
330
1F
100
AcDbEntity
  8
0
100
AcDbLine
 10
10.74648651102987
 20
6.769971368492314
 30
0.0
 11
10.74276236129068
 21
6.75387682815309
 31
0.0
  0
LINE
  5
59B0
330
1F
100
AcDbEntity
  8
0
100
AcDbLine
 10
10.74276236129068
 20
6.75387682815309
 30
0.0
 11
10.74164087014227
 21
6.751081273195347
 31
0.0
  0
LINE
  5
59B1
330
1F
100
AcDbEntity
  8
0
100
AcDbLine
 10
10.72605809664828
 20
6.830493108706755
 30
0.0
 11
10.72540639375423
 21
6.846908546262107
 31
0.0
  0
LINE
  5
59B2
330
1F
100
AcDbEntity
  8
0
100
AcDbLine
 10
10.7187818927772
 20
6.743007827332527
 30
0.0
 11
10.71688364886379
 21
6.745493108706761
 31
0.0
  0
LINE
  5
59B3
330
1F
100
AcDbEntity
  8
0
100
AcDbLine
 10
10.72125573240899
 20
6.741100803861351
 30
0.0
 11
10.7187818927772
 21
6.743007827332527
 31
0.0
  0
LINE
  5
59B4
330
1F
100
AcDbEntity
  8
0
100
AcDbLine
 10
10.72413657967647
 20
6.73990199879129
 30
0.0
 11
10.72125573240899
 21
6.741100803861351
 31
0.0
  0
LINE
  5
59B5
330
1F
100
AcDbEntity
  8
0
100
AcDbLine
 10
10.72722810959919
 20
6.739493108706761
 30
0.0
 11
10.72413657967647
 21
6.73990199879129
 31
0.0
  0
LINE
  5
59B6
330
1F
100
AcDbEntity
  8
0
100
AcDbLine
 10
10.73031963952191
 20
6.73990199879129
 30
0.0
 11
10.72722810959919
 21
6.739493108706761
 31
0.0
  0
LINE
  5
59B7
330
1F
100
AcDbEntity
  8
0
100
AcDbLine
 10
10.73320048678939
 20
6.741100803861351
 30
0.0
 11
10.73031963952191
 21
6.73990199879129
 31
0.0
  0
LINE
  5
59B8
330
1F
100
AcDbEntity
  8
0
100
AcDbLine
 10
10.73567432642118
 20
6.743007827332513
 30
0.0
 11
10.73320048678939
 21
6.741100803861351
 31
0.0
  0
LINE
  5
59B9
330
1F
100
AcDbEntity
  8
0
100
AcDbLine
 10
10.74164087014227
 20
6.751081273195347
 30
0.0
 11
10.73757257033459
 21
6.745493108706761
 31
0.0
  0
LINE
  5
59BA
330
1F
100
AcDbEntity
  8
0
100
AcDbLine
 10
10.73757257033459
 20
6.745493108706761
 30
0.0
 11
10.73567432642118
 21
6.743007827332513
 31
0.0
  0
LINE
  5
59BB
330
1F
100
AcDbEntity
  8
0
100
AcDbLine
 10
10.71688364886379
 20
6.745493108706761
 30
0.0
 11
10.71281534905611
 21
6.751081273195347
 31
0.0
  0
LINE
  5
59BC
330
1F
100
AcDbEntity
  8
0
100
AcDbLine
 10
10.71281534905611
 20
6.751081273195347
 30
0.0
 11
10.71169385790771
 21
6.75387682815309
 31
0.0
  0
LINE
  5
59BD
330
1F
100
AcDbEntity
  8
0
100
AcDbLine
 10
10.71169385790771
 20
6.75387682815309
 30
0.0
 11
10.70796970816851
 21
6.769971368492314
 31
0.0
  0
LINE
  5
59BE
330
1F
100
AcDbEntity
  8
0
100
AcDbLine
 10
10.70796970816851
 20
6.769971368492314
 30
0.0
 11
10.70477170828719
 21
6.795574084856576
 31
0.0
  0
LINE
  5
59BF
330
1F
100
AcDbEntity
  8
0
100
AcDbLine
 10
10.70477170828719
 20
6.795574084856576
 30
0.0
 11
10.7045751925331
 21
6.797770237279288
 31
0.0
  0
LINE
  5
59C0
330
1F
100
AcDbEntity
  8
0
100
AcDbLine
 10
10.70796970816851
 20
7.049014848921211
 30
0.0
 11
10.71169385790771
 21
7.065109389260435
 31
0.0
  0
LINE
  5
59C1
330
1F
100
AcDbEntity
  8
0
100
AcDbLine
 10
10.7045751925331
 20
6.797770237279288
 30
0.0
 11
10.70216858788747
 21
6.830493108706755
 31
0.0
  0
LINE
  5
59C2
330
1F
100
AcDbEntity
  8
0
100
AcDbLine
 10
10.72722810959919
 20
6.814584312290727
 30
0.0
 11
10.72605809664828
 21
6.830493108706755
 31
0.0
  0
LINE
  5
59C3
330
1F
100
AcDbEntity
  8
0
100
AcDbLine
 10
10.70216858788747
 20
6.830493108706755
 30
0.0
 11
10.70151688499342
 21
6.846908546262107
 31
0.0
  0
LINE
  5
59C4
330
1F
100
AcDbEntity
  8
0
100
AcDbLine
 10
10.70134400289814
 20
6.967723025398776
 30
0.0
 11
10.70216858788747
 21
6.988493108706756
 31
0.0
  0
LINE
  5
59C5
330
1F
100
AcDbEntity
  8
0
100
AcDbLine
 10
10.72523351165895
 20
6.967723025398776
 30
0.0
 11
10.72605809664828
 21
6.988493108706756
 31
0.0
  0
LINE
  5
59C6
330
1F
100
AcDbEntity
  8
0
100
AcDbLine
 10
10.70216858788747
 20
6.988493108706756
 30
0.0
 11
10.7045751925331
 21
7.021215980134237
 31
0.0
  0
LINE
  5
59C7
330
1F
100
AcDbEntity
  8
0
100
AcDbLine
 10
10.70477170828719
 20
7.023412132556935
 30
0.0
 11
10.7045751925331
 21
7.021215980134237
 31
0.0
  0
LINE
  5
59C8
330
1F
100
AcDbEntity
  8
0
100
AcDbLine
 10
10.72605809664828
 20
6.988493108706756
 30
0.0
 11
10.72722810959919
 21
7.004401905122798
 31
0.0
  0
LINE
  5
59C9
330
1F
100
AcDbEntity
  8
0
100
AcDbLine
 10
10.70477170828719
 20
7.023412132556935
 30
0.0
 11
10.70796970816851
 21
7.049014848921211
 31
0.0
  0
LINE
  5
59CA
330
1F
100
AcDbEntity
  8
0
100
AcDbLine
 10
10.71281534905611
 20
7.067904944218164
 30
0.0
 11
10.71169385790771
 21
7.065109389260435
 31
0.0
  0
LINE
  5
59CB
330
1F
100
AcDbEntity
  8
0
100
AcDbLine
 10
10.71281534905611
 20
7.067904944218164
 30
0.0
 11
10.71688364886379
 21
7.073493108706764
 31
0.0
  0
LINE
  5
59CC
330
1F
100
AcDbEntity
  8
0
100
AcDbLine
 10
10.7293418093712
 20
6.964723025398776
 30
0.0
 11
10.68514441439441
 21
6.964723025398776
 31
0.0
  0
LINE
  5
59CD
330
1F
100
AcDbEntity
  8
0
100
AcDbLine
 10
10.72523351165895
 20
6.967723025398776
 30
0.0
 11
10.72922270753944
 21
6.967723025398776
 31
0.0
  0
LINE
  5
59CE
330
1F
100
AcDbEntity
  8
0
100
AcDbLine
 10
10.68514441439441
 20
6.964723025398776
 30
0.0
 11
10.68514441439441
 21
6.967723025398776
 31
0.0
  0
LINE
  5
59CF
330
1F
100
AcDbEntity
  8
0
100
AcDbLine
 10
10.68514441439441
 20
6.846908546262107
 30
0.0
 11
10.68514441439441
 21
6.849908546262107
 31
0.0
  0
LINE
  5
59D0
330
1F
100
AcDbEntity
  8
0
100
AcDbLine
 10
10.72540639375423
 20
6.846908546262107
 30
0.0
 11
10.72904982544415
 21
6.846908546262107
 31
0.0
  0
LINE
  5
59F7
330
1F
100
AcDbEntity
  8
0
100
AcDbLine
 10
13.28848917790743
 20
6.966908546262112
 30
0.0
 11
13.28848917790743
 21
6.991408546262115
 31
0.0
  0
LINE
  5
59F8
330
1F
100
AcDbEntity
  8
0
100
AcDbLine
 10
12.95524955269551
 20
6.967531564957035
 30
0.0
 11
12.95488514789619
 21
6.966908546262112
 31
0.0
  0
LINE
  5
59F9
330
1F
100
AcDbEntity
  8
0
100
AcDbLine
 10
12.95488514789619
 20
6.966908546262112
 30
0.0
 11
12.9542384497994
 21
6.965802893962753
 31
0.0
  0
LINE
  5
59FA
330
1F
100
AcDbEntity
  8
0
100
AcDbLine
 10
12.9542384497994
 20
6.847802893962758
 30
0.0
 11
12.9542384497994
 21
6.906908546262109
 31
0.0
  0
LINE
  5
59FB
330
1F
100
AcDbEntity
  8
0
100
AcDbLine
 10
12.9542384497994
 20
6.906908546262109
 30
0.0
 11
12.9542384497994
 21
6.965802893962753
 31
0.0
  0
LINE
  5
59FC
330
1F
100
AcDbEntity
  8
0
100
AcDbLine
 10
12.9542384497994
 20
6.847802893962758
 30
0.0
 11
12.954670775824
 21
6.846908546262107
 31
0.0
  0
LINE
  5
59FD
330
1F
100
AcDbEntity
  8
0
100
AcDbLine
 10
12.954670775824
 20
6.846908546262107
 30
0.0
 11
12.95506855620356
 21
6.846085662726118
 31
0.0
  0
LINE
  5
59FE
330
1F
100
AcDbEntity
  8
0
100
AcDbLine
 10
12.8751904321159
 20
7.058801184758459
 30
0.0
 11
12.87476470128134
 21
7.05696131725302
 31
0.0
  0
LINE
  5
59FF
330
1F
100
AcDbEntity
  8
0
100
AcDbLine
 10
12.86873169126077
 20
7.02090777563226
 30
0.0
 11
12.86862028946966
 21
7.019393033069953
 31
0.0
  0
LINE
  5
5A00
330
1F
100
AcDbEntity
  8
0
100
AcDbLine
 10
12.84243557785432
 20
6.988184904204779
 30
0.0
 11
12.84159089345288
 21
6.966908546262112
 31
0.0
  0
LINE
  5
5A01
330
1F
100
AcDbEntity
  8
0
100
AcDbLine
 10
12.84159089345288
 20
6.966908546262112
 30
0.0
 11
12.84092272292914
 21
6.950078313330984
 31
0.0
  0
LINE
  5
5A02
330
1F
100
AcDbEntity
  8
0
100
AcDbLine
 10
12.86632508661514
 20
6.988184904204779
 30
0.0
 11
12.86550050162581
 21
6.9674148208968
 31
0.0
  0
LINE
  5
5A03
330
1F
100
AcDbEntity
  8
0
100
AcDbLine
 10
12.84040671628745
 20
6.909184904204786
 30
0.0
 11
12.84043544012932
 21
6.906908546262109
 31
0.0
  0
LINE
  5
5A04
330
1F
100
AcDbEntity
  8
0
100
AcDbLine
 10
12.84043544012932
 20
6.906908546262109
 30
0.0
 11
12.84092272292914
 21
6.868291495078588
 31
0.0
  0
LINE
  5
5A05
330
1F
100
AcDbEntity
  8
0
100
AcDbLine
 10
12.86429622504826
 20
6.909184904204786
 30
0.0
 11
12.86432494889014
 21
6.906908546262109
 31
0.0
  0
LINE
  5
5A06
330
1F
100
AcDbEntity
  8
0
100
AcDbLine
 10
12.86432494889014
 20
6.906908546262109
 30
0.0
 11
12.86481223168995
 21
6.868291495078588
 31
0.0
  0
LINE
  5
5A07
330
1F
100
AcDbEntity
  8
0
100
AcDbLine
 10
12.84092272292914
 20
6.868291495078588
 30
0.0
 11
12.84177163905336
 21
6.846908546262107
 31
0.0
  0
LINE
  5
5A08
330
1F
100
AcDbEntity
  8
0
100
AcDbLine
 10
12.84177163905336
 20
6.846908546262107
 30
0.0
 11
12.84243557785432
 21
6.830184904204778
 31
0.0
  0
LINE
  5
5A09
330
1F
100
AcDbEntity
  8
0
100
AcDbLine
 10
12.86481223168995
 20
6.868291495078588
 30
0.0
 11
12.86555428188933
 21
6.84960034176013
 31
0.0
  0
LINE
  5
5A0A
330
1F
100
AcDbEntity
  8
0
100
AcDbLine
 10
12.86862028946966
 20
6.798976775339604
 30
0.0
 11
12.86873169126077
 21
6.797462032777311
 31
0.0
  0
LINE
  5
5A0B
330
1F
100
AcDbEntity
  8
0
100
AcDbLine
 10
12.87160987209853
 20
6.775042616823349
 30
0.0
 11
12.87215969784005
 21
6.772666452276802
 31
0.0
  0
LINE
  5
5A0C
330
1F
100
AcDbEntity
  8
0
100
AcDbLine
 10
11.80044854200518
 20
6.785478397964859
 30
0.0
 11
11.80044854200518
 21
6.809454509052494
 31
0.0
  0
LINE
  5
5A0D
330
1F
100
AcDbEntity
  8
0
100
AcDbLine
 10
11.80044854200517
 20
7.009454509052496
 30
0.0
 11
11.80044854200518
 21
7.032318195887122
 31
0.0
  0
LINE
  5
5A0E
330
1F
100
AcDbEntity
  8
0
100
AcDbLine
 10
12.89320632417182
 20
6.84660034176013
 30
0.0
 11
12.91049157675735
 21
6.84660034176013
 31
0.0
  0
LINE
  5
5A0F
330
1F
100
AcDbEntity
  8
0
100
AcDbLine
 10
12.89320632417182
 20
6.84660034176013
 30
0.0
 11
12.8656733837211
 21
6.846600341760131
 31
0.0
  0
LINE
  5
5A10
330
1F
100
AcDbEntity
  8
0
100
AcDbLine
 10
12.87465342978143
 20
6.84660034176013
 30
0.0
 11
12.86931681541101
 21
6.84660034176013
 31
0.0
  0
LINE
  5
5A11
330
1F
100
AcDbEntity
  8
0
100
AcDbLine
 10
12.88515075833139
 20
6.84960034176013
 30
0.0
 11
12.88214996773112
 21
6.84960034176013
 31
0.0
  0
LINE
  5
5A12
330
1F
100
AcDbEntity
  8
0
100
AcDbLine
 10
12.87819663189502
 20
6.84960034176013
 30
0.0
 11
12.87537974223949
 21
6.84960034176013
 31
0.0
  0
LINE
  5
5A13
330
1F
100
AcDbEntity
  8
0
100
AcDbLine
 10
12.87537974223949
 20
6.84960034176013
 30
0.0
 11
12.86555428188933
 21
6.84960034176013
 31
0.0
  0
LINE
  5
5A14
330
1F
100
AcDbEntity
  8
0
100
AcDbLine
 10
10.63703081702457
 20
6.847802893962758
 30
0.0
 11
10.63659849099997
 21
6.846908546262107
 31
0.0
  0
LINE
  5
5A15
330
1F
100
AcDbEntity
  8
0
100
AcDbLine
 10
10.63659849099997
 20
6.846908546262107
 30
0.0
 11
10.6362007106204
 21
6.846085662726118
 31
0.0
  0
LINE
  5
5A16
330
1F
100
AcDbEntity
  8
0
100
AcDbLine
 10
10.63601971412845
 20
6.967531564957035
 30
0.0
 11
10.63638411892778
 21
6.966908546262112
 31
0.0
  0
LINE
  5
5A17
330
1F
100
AcDbEntity
  8
0
100
AcDbLine
 10
10.63638411892778
 20
6.966908546262112
 30
0.0
 11
10.63703081702457
 21
6.965802893962753
 31
0.0
  0
LINE
  5
5A18
330
1F
100
AcDbEntity
  8
0
100
AcDbLine
 10
10.61733301202769
 20
6.835878337820241
 30
0.0
 11
10.5115554461494
 21
6.835878337820241
 31
0.0
  0
LINE
  5
5A19
330
1F
100
AcDbEntity
  8
0
100
AcDbLine
 10
10.50900449776269
 20
6.97762602083305
 30
0.0
 11
10.61577745983935
 21
6.97762602083305
 31
0.0
  0
LINE
  5
5A1A
330
1F
100
AcDbEntity
  8
0
100
AcDbLine
 10
10.63703081702457
 20
6.847802893962758
 30
0.0
 11
10.63703081702457
 21
6.906908546262109
 31
0.0
  0
LINE
  5
5A1B
330
1F
100
AcDbEntity
  8
0
100
AcDbLine
 10
10.63703081702457
 20
6.906908546262109
 30
0.0
 11
10.63703081702457
 21
6.965802893962753
 31
0.0
  0
LINE
  5
5A1C
330
1F
100
AcDbEntity
  8
0
100
AcDbLine
 10
10.30278008891653
 20
6.962104141703329
 30
0.0
 11
10.30278008891653
 21
6.991408546262115
 31
0.0
  0
LINE
  5
5A1D
330
1F
100
AcDbEntity
  8
0
100
AcDbLine
 10
10.50727927421733
 20
6.97762602083305
 30
0.0
 11
10.50900449776269
 21
6.97762602083305
 31
0.0
  0
LINE
  5
5A1E
330
1F
100
AcDbEntity
  8
0
100
AcDbLine
 10
11.80044854200518
 20
7.032318195887122
 30
0.0
 11
11.82038433975585
 21
7.032318195887122
 31
0.0
  0
LINE
  5
5A1F
330
1F
100
AcDbEntity
  8
0
100
AcDbLine
 10
11.82038433975585
 20
7.032318195887122
 30
0.0
 11
11.84032013750653
 21
7.032318195887122
 31
0.0
  0
LINE
  5
5A20
330
1F
100
AcDbEntity
  8
0
100
AcDbLine
 10
11.84032013750653
 20
7.032318195887122
 30
0.0
 11
11.84032013750653
 21
7.009454509052511
 31
0.0
  0
LINE
  5
5A21
330
1F
100
AcDbEntity
  8
0
100
AcDbLine
 10
11.84032013750653
 20
6.809454509052494
 30
0.0
 11
11.84032013750653
 21
6.785478397964859
 31
0.0
  0
LINE
  5
5A22
330
1F
100
AcDbEntity
  8
0
100
AcDbLine
 10
13.30160632707231
 20
6.906908546262109
 30
0.0
 11
13.29069390756343
 21
6.906908546262109
 31
0.0
  0
LINE
  5
5A23
330
1F
100
AcDbEntity
  8
0
100
AcDbLine
 10
12.95488514789619
 20
6.966908546262112
 30
0.0
 11
12.91317525782792
 21
6.966908546262112
 31
0.0
  0
LINE
  5
5A24
330
1F
100
AcDbEntity
  8
0
100
AcDbLine
 10
12.91317525782792
 20
6.966908546262112
 30
0.0
 11
12.91222172014491
 21
6.966908546262112
 31
0.0
  0
LINE
  5
5A25
330
1F
100
AcDbEntity
  8
0
100
AcDbLine
 10
12.954670775824
 20
6.846908546262107
 30
0.0
 11
12.91317525782792
 21
6.846908546262107
 31
0.0
  0
LINE
  5
5A26
330
1F
100
AcDbEntity
  8
0
100
AcDbLine
 10
12.91317525782792
 20
6.846908546262107
 30
0.0
 11
12.91222172014491
 21
6.846908546262107
 31
0.0
  0
LINE
  5
5A27
330
1F
100
AcDbEntity
  8
0
100
AcDbLine
 10
10.71953277704934
 20
7.059109389260435
 30
0.0
 11
10.7199585078839
 21
7.057269521754997
 31
0.0
  0
LINE
  5
5A28
330
1F
100
AcDbEntity
  8
0
100
AcDbLine
 10
10.72599151790447
 20
7.021215980134237
 30
0.0
 11
10.72610291969559
 21
7.01970123757193
 31
0.0
  0
LINE
  5
5A29
330
1F
100
AcDbEntity
  8
0
100
AcDbLine
 10
10.72839812255011
 20
6.988493108706756
 30
0.0
 11
10.72922270753944
 21
6.967723025398776
 31
0.0
  0
LINE
  5
5A2A
330
1F
100
AcDbEntity
  8
0
100
AcDbLine
 10
10.75228763131092
 20
6.988493108706756
 30
0.0
 11
10.75313231571237
 21
6.967216750764088
 31
0.0
  0
LINE
  5
5A2B
330
1F
100
AcDbEntity
  8
0
100
AcDbLine
 10
10.75313231571237
 20
6.967216750764088
 30
0.0
 11
10.7538004862361
 21
6.950386517832961
 31
0.0
  0
LINE
  5
5A2C
330
1F
100
AcDbEntity
  8
0
100
AcDbLine
 10
10.73042698411698
 20
6.909493108706763
 30
0.0
 11
10.73039826027511
 21
6.907216750764086
 31
0.0
  0
LINE
  5
5A2D
330
1F
100
AcDbEntity
  8
0
100
AcDbLine
 10
10.73039826027511
 20
6.907216750764086
 30
0.0
 11
10.72991097747529
 21
6.868599699580564
 31
0.0
  0
LINE
  5
5A2E
330
1F
100
AcDbEntity
  8
0
100
AcDbLine
 10
10.7543164928778
 20
6.909493108706763
 30
0.0
 11
10.75428776903592
 21
6.907216750764086
 31
0.0
  0
LINE
  5
5A2F
330
1F
100
AcDbEntity
  8
0
100
AcDbLine
 10
10.75428776903592
 20
6.907216750764086
 30
0.0
 11
10.7538004862361
 21
6.868599699580564
 31
0.0
  0
LINE
  5
5A30
330
1F
100
AcDbEntity
  8
0
100
AcDbLine
 10
10.72991097747529
 20
6.868599699580564
 30
0.0
 11
10.72916892727592
 21
6.849908546262107
 31
0.0
  0
LINE
  5
5A31
330
1F
100
AcDbEntity
  8
0
100
AcDbLine
 10
10.7538004862361
 20
6.868599699580564
 30
0.0
 11
10.75295157011188
 21
6.847216750764084
 31
0.0
  0
LINE
  5
5A32
330
1F
100
AcDbEntity
  8
0
100
AcDbLine
 10
10.75295157011188
 20
6.847216750764084
 30
0.0
 11
10.75228763131092
 21
6.830493108706755
 31
0.0
  0
LINE
  5
5A33
330
1F
100
AcDbEntity
  8
0
100
AcDbLine
 10
10.72610291969559
 20
6.799284979841595
 30
0.0
 11
10.72599151790447
 21
6.797770237279288
 31
0.0
  0
LINE
  5
5A34
330
1F
100
AcDbEntity
  8
0
100
AcDbLine
 10
10.72311333706671
 20
6.775350821325326
 30
0.0
 11
10.7225635113252
 21
6.772974656778779
 31
0.0
  0
LINE
  5
5A35
330
1F
100
AcDbEntity
  8
0
100
AcDbLine
 10
10.68514441439441
 20
6.967723025398776
 30
0.0
 11
10.70134400289814
 21
6.967723025398776
 31
0.0
  0
LINE
  5
5A36
330
1F
100
AcDbEntity
  8
0
100
AcDbLine
 10
10.68514441439441
 20
6.846908546262107
 30
0.0
 11
10.70151688499342
 21
6.846908546262107
 31
0.0
  0
LINE
  5
5A37
330
1F
100
AcDbEntity
  8
0
100
AcDbLine
 10
10.72540639375423
 20
6.846908546262107
 30
0.0
 11
10.72006977938381
 21
6.846908546262107
 31
0.0
  0
LINE
  5
5A38
330
1F
100
AcDbEntity
  8
0
100
AcDbLine
 10
10.70903003932052
 20
6.846908546262107
 30
0.0
 11
10.70151688499342
 21
6.846908546262107
 31
0.0
  0
LINE
  5
5A39
330
1F
100
AcDbEntity
  8
0
100
AcDbLine
 10
10.72916892727592
 20
6.849908546262107
 30
0.0
 11
10.71934346692576
 21
6.849908546262107
 31
0.0
  0
LINE
  5
5A3A
330
1F
100
AcDbEntity
  8
0
100
AcDbLine
 10
10.71934346692576
 20
6.849908546262107
 30
0.0
 11
10.71652657727022
 21
6.849908546262107
 31
0.0
  0
LINE
  5
5A3B
330
1F
100
AcDbEntity
  8
0
100
AcDbLine
 10
10.71652657727022
 20
6.849908546262107
 30
0.0
 11
10.70957245083384
 21
6.849908546262107
 31
0.0
  0
LINE
  5
5A3C
330
1F
100
AcDbEntity
  8
0
100
AcDbLine
 10
10.70957245083384
 20
6.849908546262107
 30
0.0
 11
10.68514441439441
 21
6.849908546262107
 31
0.0
  0
LINE
  5
5A3D
330
1F
100
AcDbEntity
  8
0
100
AcDbLine
 10
13.28848917790743
 20
6.906908546262109
 30
0.0
 11
13.28848917790743
 21
6.966908546262112
 31
0.0
  0
LINE
  5
5A3E
330
1F
100
AcDbEntity
  8
0
100
AcDbLine
 10
12.87476470128134
 20
7.05696131725302
 30
0.0
 11
12.87215969784005
 21
7.045703356132769
 31
0.0
  0
LINE
  5
5A3F
330
1F
100
AcDbEntity
  8
0
100
AcDbLine
 10
12.87215969784005
 20
7.045703356132769
 30
0.0
 11
12.87160987209853
 21
7.043327191586223
 31
0.0
  0
LINE
  5
5A40
330
1F
100
AcDbEntity
  8
0
100
AcDbLine
 10
12.86862028946966
 20
7.019393033069953
 30
0.0
 11
12.86749509956605
 21
7.004093700620807
 31
0.0
  0
LINE
  5
5A41
330
1F
100
AcDbEntity
  8
0
100
AcDbLine
 10
12.86749509956605
 20
7.004093700620807
 30
0.0
 11
12.86632508661514
 21
6.988184904204779
 31
0.0
  0
LINE
  5
5A42
330
1F
100
AcDbEntity
  8
0
100
AcDbLine
 10
12.86550050162581
 20
6.9674148208968
 30
0.0
 11
12.86538139979404
 21
6.964414820896799
 31
0.0
  0
LINE
  5
5A43
330
1F
100
AcDbEntity
  8
0
100
AcDbLine
 10
12.86538139979404
 20
6.964414820896799
 30
0.0
 11
12.86481223168995
 21
6.950078313330984
 31
0.0
  0
LINE
  5
5A44
330
1F
100
AcDbEntity
  8
0
100
AcDbLine
 10
12.86555428188933
 20
6.84960034176013
 30
0.0
 11
12.86567338372109
 21
6.84660034176013
 31
0.0
  0
LINE
  5
5A45
330
1F
100
AcDbEntity
  8
0
100
AcDbLine
 10
12.8656733837211
 20
6.846600341760131
 30
0.0
 11
12.86632508661514
 21
6.830184904204778
 31
0.0
  0
LINE
  5
5A46
330
1F
100
AcDbEntity
  8
0
100
AcDbLine
 10
12.86632508661514
 20
6.830184904204778
 30
0.0
 11
12.86749509956605
 21
6.814276107788765
 31
0.0
  0
LINE
  5
5A47
330
1F
100
AcDbEntity
  8
0
100
AcDbLine
 10
12.86749509956605
 20
6.814276107788765
 30
0.0
 11
12.86862028946966
 21
6.798976775339604
 31
0.0
  0
LINE
  5
5A48
330
1F
100
AcDbEntity
  8
0
100
AcDbLine
 10
12.87215969784005
 20
6.772666452276802
 30
0.0
 11
12.87476470128134
 21
6.761408491156552
 31
0.0
  0
LINE
  5
5A49
330
1F
100
AcDbEntity
  8
0
100
AcDbLine
 10
12.87476470128134
 20
6.761408491156552
 30
0.0
 11
12.8751904321159
 21
6.759568623651113
 31
0.0
  0
LINE
  5
5A4A
330
1F
100
AcDbEntity
  8
0
100
AcDbLine
 10
12.88020018994483
 20
6.9674148208968
 30
0.0
 11
12.86948969750629
 21
6.9674148208968
 31
0.0
  0
LINE
  5
5A4B
330
1F
100
AcDbEntity
  8
0
100
AcDbLine
 10
10.30278008891653
 20
6.822408546262104
 30
0.0
 11
10.30278008891653
 21
6.85171295082089
 31
0.0
  0
LINE
  5
5A4C
330
1F
100
AcDbEntity
  8
0
100
AcDbLine
 10
10.30278008891653
 20
6.85171295082089
 30
0.0
 11
10.30278008891653
 21
6.962104141703329
 31
0.0
  0
LINE
  5
5A4D
330
1F
100
AcDbEntity
  8
0
100
AcDbLine
 10
11.84032013750653
 20
6.966908546262112
 30
0.0
 11
11.80044854200517
 21
6.966908546262112
 31
0.0
  0
LINE
  5
5A4E
330
1F
100
AcDbEntity
  8
0
100
AcDbLine
 10
11.84032013750653
 20
6.846908546262107
 30
0.0
 11
11.80044854200517
 21
6.846908546262107
 31
0.0
  0
LINE
  5
5A4F
330
1F
100
AcDbEntity
  8
0
100
AcDbLine
 10
11.80044854200517
 20
6.846908546262107
 30
0.0
 11
11.79877312935375
 21
6.846908546262107
 31
0.0
  0
LINE
  5
5A50
330
1F
100
AcDbEntity
  8
0
100
AcDbLine
 10
10.7199585078839
 20
7.057269521754997
 30
0.0
 11
10.7225635113252
 21
7.046011560634746
 31
0.0
  0
LINE
  5
5A51
330
1F
100
AcDbEntity
  8
0
100
AcDbLine
 10
10.7225635113252
 20
7.046011560634746
 30
0.0
 11
10.72311333706671
 21
7.043635396088199
 31
0.0
  0
LINE
  5
5A52
330
1F
100
AcDbEntity
  8
0
100
AcDbLine
 10
10.72610291969559
 20
7.01970123757193
 30
0.0
 11
10.72722810959919
 21
7.004401905122798
 31
0.0
  0
LINE
  5
5A53
330
1F
100
AcDbEntity
  8
0
100
AcDbLine
 10
10.72722810959919
 20
7.004401905122798
 30
0.0
 11
10.72839812255011
 21
6.988493108706756
 31
0.0
  0
LINE
  5
5A54
330
1F
100
AcDbEntity
  8
0
100
AcDbLine
 10
10.72922270753944
 20
6.967723025398776
 30
0.0
 11
10.7293418093712
 21
6.964723025398776
 31
0.0
  0
LINE
  5
5A55
330
1F
100
AcDbEntity
  8
0
100
AcDbLine
 10
10.7293418093712
 20
6.964723025398776
 30
0.0
 11
10.72991097747529
 21
6.950386517832961
 31
0.0
  0
LINE
  5
5A56
330
1F
100
AcDbEntity
  8
0
100
AcDbLine
 10
10.72916892727592
 20
6.849908546262107
 30
0.0
 11
10.72904982544415
 21
6.846908546262107
 31
0.0
  0
LINE
  5
5A57
330
1F
100
AcDbEntity
  8
0
100
AcDbLine
 10
10.72904982544415
 20
6.846908546262107
 30
0.0
 11
10.72839812255011
 21
6.830493108706755
 31
0.0
  0
LINE
  5
5A58
330
1F
100
AcDbEntity
  8
0
100
AcDbLine
 10
10.72839812255011
 20
6.830493108706755
 30
0.0
 11
10.72722810959919
 21
6.814584312290727
 31
0.0
  0
LINE
  5
5A59
330
1F
100
AcDbEntity
  8
0
100
AcDbLine
 10
10.72722810959919
 20
6.814584312290727
 30
0.0
 11
10.72610291969559
 21
6.799284979841595
 31
0.0
  0
LINE
  5
5A5A
330
1F
100
AcDbEntity
  8
0
100
AcDbLine
 10
10.7225635113252
 20
6.772974656778779
 30
0.0
 11
10.7199585078839
 21
6.761716695658528
 31
0.0
  0
LINE
  5
5A5B
330
1F
100
AcDbEntity
  8
0
100
AcDbLine
 10
10.7199585078839
 20
6.761716695658528
 30
0.0
 11
10.71953277704934
 21
6.75987682815309
 31
0.0
  0
LINE
  5
5A5C
330
1F
100
AcDbEntity
  8
0
100
AcDbLine
 10
13.28848917790743
 20
6.822408546262104
 30
0.0
 11
13.28848917790743
 21
6.846908546262107
 31
0.0
  0
LINE
  5
5A5D
330
1F
100
AcDbEntity
  8
0
100
AcDbLine
 10
13.28848917790743
 20
6.846908546262107
 30
0.0
 11
13.28848917790743
 21
6.906908546262109
 31
0.0
  0
LINE
  5
5A5E
330
1F
100
AcDbEntity
  8
0
100
AcDbLine
 10
12.89337920626711
 20
6.9674148208968
 30
0.0
 11
12.88020018994483
 21
6.9674148208968
 31
0.0
  0
LINE
  5
5A5F
330
1F
100
AcDbEntity
  8
0
100
AcDbLine
 10
11.84263512002414
 20
6.966908546262112
 30
0.0
 11
11.84032013750653
 21
6.966908546262112
 31
0.0
  0
LINE
  5
5A60
330
1F
100
AcDbEntity
  8
0
100
AcDbLine
 10
11.77947059904284
 20
6.966908546262112
 30
0.0
 11
11.31961077069611
 21
6.966908546262112
 31
0.0
  0
LINE
  5
5A61
330
1F
100
AcDbEntity
  8
0
100
AcDbLine
 10
11.29572126193529
 20
6.966908546262112
 30
0.0
 11
11.20112511445924
 21
6.966908546262112
 31
0.0
  0
LINE
  5
5A62
330
1F
100
AcDbEntity
  8
0
100
AcDbLine
 10
10.86924630799335
 20
6.966908546262112
 30
0.0
 11
10.75295157011188
 21
6.966908546262112
 31
0.0
  0
LINE
  5
5A63
330
1F
100
AcDbEntity
  8
0
100
AcDbLine
 10
12.84177163905336
 20
6.846908546262107
 30
0.0
 11
12.77152237151836
 21
6.846908546262107
 31
0.0
  0
LINE
  5
5A64
330
1F
100
AcDbEntity
  8
0
100
AcDbLine
 10
12.43942919298028
 20
6.846908546262107
 30
0.0
 11
12.34525263499073
 21
6.846908546262108
 31
0.0
  0
LINE
  5
5A65
330
1F
100
AcDbEntity
  8
0
100
AcDbLine
 10
12.32136312622992
 20
6.846908546262107
 30
0.0
 11
11.86092150767551
 21
6.846908546262107
 31
0.0
  0
LINE
  5
5A66
330
1F
100
AcDbEntity
  8
0
100
AcDbLine
 10
11.79877312935375
 20
6.846908546262107
 30
0.0
 11
11.7798471718362
 21
6.846908546262107
 31
0.0
  0
LINE
  5
5A67
330
1F
100
AcDbEntity
  8
0
100
AcDbLine
 10
10.72523351165895
 20
6.967723025398776
 30
0.0
 11
10.71452301922041
 21
6.967723025398776
 31
0.0
  0
LINE
  5
5A68
330
1F
100
AcDbEntity
  8
0
100
AcDbLine
 10
10.71452301922041
 20
6.967723025398776
 30
0.0
 11
10.70134400289814
 21
6.967723025398776
 31
0.0
  0
LINE
  5
5A69
330
1F
100
AcDbEntity
  8
0
100
AcDbLine
 10
12.84159089345288
 20
6.966908546262112
 30
0.0
 11
12.77152237151836
 21
6.966908546262112
 31
0.0
  0
LINE
  5
5A6A
330
1F
100
AcDbEntity
  8
0
100
AcDbLine
 10
12.43964356505247
 20
6.966908546262112
 30
0.0
 11
12.34504741757641
 21
6.966908546262112
 31
0.0
  0
LINE
  5
5A6B
330
1F
100
AcDbEntity
  8
0
100
AcDbLine
 10
12.3211579088156
 20
6.966908546262112
 30
0.0
 11
11.86129808046886
 21
6.966908546262112
 31
0.0
  0
LINE
  5
5A6C
330
1F
100
AcDbEntity
  8
0
100
AcDbLine
 10
11.86129808046886
 20
6.966908546262112
 30
0.0
 11
11.84263512002414
 21
6.966908546262112
 31
0.0
  0
LINE
  5
5A6D
330
1F
100
AcDbEntity
  8
0
100
AcDbLine
 10
11.80044854200517
 20
6.966908546262112
 30
0.0
 11
11.79813355948756
 21
6.966908546262112
 31
0.0
  0
LINE
  5
5A6E
330
1F
100
AcDbEntity
  8
0
100
AcDbLine
 10
11.79813355948756
 20
6.966908546262112
 30
0.0
 11
11.77947059904284
 21
6.966908546262112
 31
0.0
  0
LINE
  5
5A6F
330
1F
100
AcDbEntity
  8
0
100
AcDbLine
 10
11.86092150767551
 20
6.846908546262107
 30
0.0
 11
11.84199555015796
 21
6.846908546262107
 31
0.0
  0
LINE
  5
5A70
330
1F
100
AcDbEntity
  8
0
100
AcDbLine
 10
11.84199555015796
 20
6.846908546262107
 30
0.0
 11
11.84032013750653
 21
6.846908546262107
 31
0.0
  0
LINE
  5
5A71
330
1F
100
AcDbEntity
  8
0
100
AcDbLine
 10
11.7798471718362
 20
6.846908546262107
 30
0.0
 11
11.31940555328179
 21
6.846908546262106
 31
0.0
  0
LINE
  5
5A72
330
1F
100
AcDbEntity
  8
0
100
AcDbLine
 10
11.29551604452097
 20
6.846908546262107
 30
0.0
 11
11.20133948653142
 21
6.846908546262106
 31
0.0
  0
LINE
  5
5A73
330
1F
100
AcDbEntity
  8
0
100
AcDbLine
 10
10.86924630799335
 20
6.846908546262108
 30
0.0
 11
10.75295157011188
 21
6.846908546262107
 31
0.0
  0
LINE
  5
5A74
330
1F
100
AcDbEntity
  8
0
100
AcDbLine
 10
13.10373072471986
 20
7.004652607896425
 30
0.0
 11
13.27296707590189
 21
7.004652607896425
 31
0.0
  0
LINE
  5
5A75
330
1F
100
AcDbEntity
  8
0
100
AcDbLine
 10
13.08893631903492
 20
6.826619164399198
 30
0.0
 11
13.08868958273755
 21
6.823138465027676
 31
0.0
  0
LINE
  5
5A76
330
1F
100
AcDbEntity
  8
0
100
AcDbLine
 10
12.97221103125092
 20
6.835878337820241
 30
0.0
 11
13.07971382067457
 21
6.835878337820241
 31
0.0
  0
LINE
  5
5A77
330
1F
100
AcDbEntity
  8
0
100
AcDbLine
 10
13.10373072471986
 20
6.80780189825169
 30
0.0
 11
13.27692966323575
 21
6.80780189825169
 31
0.0
  0
LINE
  5
5A78
330
1F
100
AcDbEntity
  8
0
100
AcDbLine
 10
11.84032013750653
 20
6.809454509052494
 30
0.0
 11
11.80044854200518
 21
6.809454509052494
 31
0.0
  0
LINE
  5
5A79
330
1F
100
AcDbEntity
  8
0
100
AcDbLine
 10
11.80044854200517
 20
7.009454509052496
 30
0.0
 11
11.84032013750653
 21
7.009454509052511
 31
0.0
  0
LINE
  5
5A7A
330
1F
100
AcDbEntity
  8
0
100
AcDbLine
 10
11.80044854200517
 20
6.846908546262107
 30
0.0
 11
11.80044854200518
 21
6.809454509052494
 31
0.0
  0
LINE
  5
5A7B
330
1F
100
AcDbEntity
  8
0
100
AcDbLine
 10
11.80044854200517
 20
7.009454509052496
 30
0.0
 11
11.80044854200517
 21
6.966908546262112
 31
0.0
  0
LINE
  5
5A7C
330
1F
100
AcDbEntity
  8
0
100
AcDbLine
 10
12.91049157675735
 20
6.9674148208968
 30
0.0
 11
12.89337920626711
 21
6.9674148208968
 31
0.0
  0
LINE
  5
5A7D
330
1F
100
AcDbEntity
  8
0
100
AcDbLine
 10
12.91049157675735
 20
6.84960034176013
 30
0.0
 11
12.86555428188933
 21
6.84960034176013
 31
0.0
  0
LINE
  5
5A7E
330
1F
100
AcDbEntity
  8
0
100
AcDbLine
 10
10.31261438004285
 20
6.80780189825169
 30
0.0
 11
10.48581331855874
 21
6.80780189825169
 31
0.0
  0
LINE
  5
5A7F
330
1F
100
AcDbEntity
  8
0
100
AcDbLine
 10
10.31657696737671
 20
7.004652607896425
 30
0.0
 11
10.48581331855874
 21
7.004652607896425
 31
0.0
  0
LINE
  5
5A80
330
1F
100
AcDbEntity
  8
0
100
AcDbLine
 10
11.84032013750653
 20
7.009454509052511
 30
0.0
 11
11.84032013750653
 21
6.966908546262112
 31
0.0
  0
LINE
  5
5A81
330
1F
100
AcDbEntity
  8
0
100
AcDbLine
 10
11.84032013750653
 20
6.846908546262107
 30
0.0
 11
11.84032013750653
 21
6.809454509052494
 31
0.0
  0
LINE
  5
5A82
330
1F
100
AcDbEntity
  8
0
100
AcDbLine
 10
11.19465897777112
 20
6.838155169287994
 30
0.0
 11
11.19293792981189
 21
6.837345922702945
 31
0.0
  0
LINE
  5
5A83
330
1F
100
AcDbEntity
  8
0
100
AcDbLine
 10
11.18742243627989
 20
6.835971154795836
 30
0.0
 11
11.18552445464987
 21
6.835878337820241
 31
0.0
  0
LINE
  5
5A84
330
1F
100
AcDbEntity
  8
0
100
AcDbLine
 10
11.20266692969722
 20
6.846085662726118
 30
0.0
 11
11.20167472873622
 21
6.844457547767285
 31
0.0
  0
LINE
  5
5A85
330
1F
100
AcDbEntity
  8
0
100
AcDbLine
 10
11.18930247111457
 20
6.836248728070636
 30
0.0
 11
11.18742243627989
 21
6.835971154795836
 31
0.0
  0
LINE
  5
5A86
330
1F
100
AcDbEntity
  8
0
100
AcDbLine
 10
11.18396890246154
 20
6.97762602083305
 30
0.0
 11
11.18596265505225
 21
6.977535430022649
 31
0.0
  0
LINE
  5
5A87
330
1F
100
AcDbEntity
  8
0
100
AcDbLine
 10
11.18794012737711
 20
6.977264397323389
 30
0.0
 11
11.18988517210907
 21
6.976815135890711
 31
0.0
  0
LINE
  5
5A88
330
1F
100
AcDbEntity
  8
0
100
AcDbLine
 10
11.18988517210907
 20
6.976815135890711
 30
0.0
 11
11.19178190671313
 21
6.976191314231734
 31
0.0
  0
LINE
  5
5A89
330
1F
100
AcDbEntity
  8
0
100
AcDbLine
 10
11.19178190671313
 20
6.976191314231734
 30
0.0
 11
11.19361484313738
 21
6.975398026249529
 31
0.0
  0
LINE
  5
5A8A
330
1F
100
AcDbEntity
  8
0
100
AcDbLine
 10
11.19361484313738
 20
6.975398026249529
 30
0.0
 11
11.19536901428289
 21
6.974441749648144
 31
0.0
  0
LINE
  5
5A8B
330
1F
100
AcDbEntity
  8
0
100
AcDbLine
 10
11.19536901428289
 20
6.974441749648144
 30
0.0
 11
11.19703009621965
 21
6.973330293038011
 31
0.0
  0
LINE
  5
5A8C
330
1F
100
AcDbEntity
  8
0
100
AcDbLine
 10
11.19703009621965
 20
6.973330293038011
 30
0.0
 11
11.1985845251506
 21
6.972072732173679
 31
0.0
  0
LINE
  5
5A8D
330
1F
100
AcDbEntity
  8
0
100
AcDbLine
 10
11.1985845251506
 20
6.972072732173679
 30
0.0
 11
11.20001960816874
 21
6.970679335844374
 31
0.0
  0
LINE
  5
5A8E
330
1F
100
AcDbEntity
  8
0
100
AcDbLine
 10
11.20001960816874
 20
6.970679335844374
 30
0.0
 11
11.20132362690279
 21
6.969161482022891
 31
0.0
  0
LINE
  5
5A8F
330
1F
100
AcDbEntity
  8
0
100
AcDbLine
 10
11.20132362690279
 20
6.969161482022891
 30
0.0
 11
11.20248593320527
 21
6.967531564957035
 31
0.0
  0
LINE
  5
5A90
330
1F
100
AcDbEntity
  8
0
100
AcDbLine
 10
11.07547071683952
 20
6.97762602083305
 30
0.0
 11
11.07407633992209
 21
6.977722872899456
 31
0.0
  0
LINE
  5
5A91
330
1F
100
AcDbEntity
  8
0
100
AcDbLine
 10
11.07407633992209
 20
6.977722872899456
 30
0.0
 11
11.07270849796606
 21
6.978011586005998
 31
0.0
  0
LINE
  5
5A92
330
1F
100
AcDbEntity
  8
0
100
AcDbLine
 10
11.06537605025841
 20
6.988678301650559
 30
0.0
 11
11.06542391480898
 21
6.990457804016082
 31
0.0
  0
LINE
  5
5A93
330
1F
100
AcDbEntity
  8
0
100
AcDbLine
 10
11.07270849796606
 20
6.978011586005998
 30
0.0
 11
11.0713932209731
 21
6.978486665948786
 31
0.0
  0
LINE
  5
5A94
330
1F
100
AcDbEntity
  8
0
100
AcDbLine
 10
11.0713932209731
 20
6.978486665948786
 30
0.0
 11
11.07015553863482
 21
6.979139071967161
 31
0.0
  0
LINE
  5
5A95
330
1F
100
AcDbEntity
  8
0
100
AcDbLine
 10
11.07015553863482
 20
6.979139071967161
 30
0.0
 11
11.06901900401831
 21
6.979956388789269
 31
0.0
  0
LINE
  5
5A96
330
1F
100
AcDbEntity
  8
0
100
AcDbLine
 10
11.19114678205858
 20
6.836708432987671
 30
0.0
 11
11.18930247111457
 21
6.836248728070636
 31
0.0
  0
LINE
  5
5A97
330
1F
100
AcDbEntity
  8
0
100
AcDbLine
 10
11.18596265505225
 20
6.977535430022649
 30
0.0
 11
11.18794012737711
 21
6.977264397323389
 31
0.0
  0
LINE
  5
5A98
330
1F
100
AcDbEntity
  8
0
100
AcDbLine
 10
11.19782649599632
 20
6.840256773279087
 30
0.0
 11
11.19629365217734
 21
6.839128520728402
 31
0.0
  0
LINE
  5
5A99
330
1F
100
AcDbEntity
  8
0
100
AcDbLine
 10
11.20052981519937
 20
6.842933944096153
 30
0.0
 11
11.19924301507603
 21
6.841529258492422
 31
0.0
  0
LINE
  5
5A9A
330
1F
100
AcDbEntity
  8
0
100
AcDbLine
 10
11.19924301507603
 20
6.841529258492422
 30
0.0
 11
11.19782649599632
 21
6.840256773279087
 31
0.0
  0
LINE
  5
5A9B
330
1F
100
AcDbEntity
  8
0
100
AcDbLine
 10
11.19293792981189
 20
6.837345922702945
 30
0.0
 11
11.19114678205858
 21
6.836708432987671
 31
0.0
  0
LINE
  5
5A9C
330
1F
100
AcDbEntity
  8
0
100
AcDbLine
 10
11.20167472873622
 20
6.844457547767285
 30
0.0
 11
11.20052981519937
 21
6.842933944096153
 31
0.0
  0
LINE
  5
5A9D
330
1F
100
AcDbEntity
  8
0
100
AcDbLine
 10
11.19629365217734
 20
6.839128520728402
 30
0.0
 11
11.19465897777112
 21
6.838155169287994
 31
0.0
  0
LINE
  5
5A9E
330
1F
100
AcDbEntity
  8
0
100
AcDbLine
 10
11.06642051954094
 20
6.983228407613133
 30
0.0
 11
11.06587970969322
 21
6.984523207568678
 31
0.0
  0
LINE
  5
5A9F
330
1F
100
AcDbEntity
  8
0
100
AcDbLine
 10
11.05615509582972
 20
6.807986108185681
 30
0.0
 11
11.05400476118093
 21
6.80780189825169
 31
0.0
  0
LINE
  5
5AA0
330
1F
100
AcDbEntity
  8
0
100
AcDbLine
 10
11.07026525346501
 20
6.831625505584676
 30
0.0
 11
11.06963438371779
 21
6.830466024014548
 31
0.0
  0
LINE
  5
5AA1
330
1F
100
AcDbEntity
  8
0
100
AcDbLine
 10
11.05731444573879
 20
7.003397109554961
 30
0.0
 11
11.05569644636004
 21
7.004122882701701
 31
0.0
  0
LINE
  5
5AA2
330
1F
100
AcDbEntity
  8
0
100
AcDbLine
 10
11.06542391480898
 20
6.990457804016082
 30
0.0
 11
11.06526329166969
 21
6.992230627167935
 31
0.0
  0
LINE
  5
5AA3
330
1F
100
AcDbEntity
  8
0
100
AcDbLine
 10
11.0588363373094
 20
7.002485346118398
 30
0.0
 11
11.05731444573879
 21
7.003397109554961
 31
0.0
  0
LINE
  5
5AA4
330
1F
100
AcDbEntity
  8
0
100
AcDbLine
 10
11.07198425760479
 20
6.833617099978646
 30
0.0
 11
11.07105389183765
 21
6.832683034430851
 31
0.0
  0
LINE
  5
5AA5
330
1F
100
AcDbEntity
  8
0
100
AcDbLine
 10
11.05825805560528
 20
6.808473243486042
 30
0.0
 11
11.05615509582972
 21
6.807986108185681
 31
0.0
  0
LINE
  5
5AA6
330
1F
100
AcDbEntity
  8
0
100
AcDbLine
 10
11.06666909676834
 20
6.814913822649068
 30
0.0
 11
11.06538645410054
 21
6.81317017186229
 31
0.0
  0
LINE
  5
5AA7
330
1F
100
AcDbEntity
  8
0
100
AcDbLine
 10
11.06713355443981
 20
6.982020698495909
 30
0.0
 11
11.06642051954094
 21
6.983228407613133
 31
0.0
  0
LINE
  5
5AA8
330
1F
100
AcDbEntity
  8
0
100
AcDbLine
 10
11.06889211454916
 20
6.825301073038212
 30
0.0
 11
11.06904590316324
 21
6.823138465027676
 31
0.0
  0
LINE
  5
5AA9
330
1F
100
AcDbEntity
  8
0
100
AcDbLine
 10
11.06526329166969
 20
6.992230627167935
 30
0.0
 11
11.0648964067334
 21
6.99397220357222
 31
0.0
  0
LINE
  5
5AAA
330
1F
100
AcDbEntity
  8
0
100
AcDbLine
 10
11.06889446211134
 20
6.820975689820607
 30
0.0
 11
11.06844082066852
 21
6.818856009405032
 31
0.0
  0
LINE
  5
5AAB
330
1F
100
AcDbEntity
  8
0
100
AcDbLine
 10
11.06587970969322
 20
6.984523207568678
 30
0.0
 11
11.06552141649591
 21
6.985880458348455
 31
0.0
  0
LINE
  5
5AAC
330
1F
100
AcDbEntity
  8
0
100
AcDbLine
 10
11.06552141649591
 20
6.985880458348455
 30
0.0
 11
11.0653524582605
 21
6.987274331500679
 31
0.0
  0
LINE
  5
5AAD
330
1F
100
AcDbEntity
  8
0
100
AcDbLine
 10
11.06538645410054
 20
6.81317017186229
 30
0.0
 11
11.06387178171889
 21
6.811625749626778
 31
0.0
  0
LINE
  5
5AAE
330
1F
100
AcDbEntity
  8
0
100
AcDbLine
 10
11.06215537761193
 20
6.810311449017341
 30
0.0
 11
11.06027157500752
 21
6.809253559986395
 31
0.0
  0
LINE
  5
5AAF
330
1F
100
AcDbEntity
  8
0
100
AcDbLine
 10
11.07419197735221
 20
6.835041741807594
 30
0.0
 11
11.07303742674169
 21
6.834408702948231
 31
0.0
  0
LINE
  5
5AB0
330
1F
100
AcDbEntity
  8
0
100
AcDbLine
 10
11.06432834423996
 20
6.995658398708095
 30
0.0
 11
11.06356697631949
 21
6.997265845520552
 31
0.0
  0
LINE
  5
5AB1
330
1F
100
AcDbEntity
  8
0
100
AcDbLine
 10
11.06387178171889
 20
6.811625749626778
 30
0.0
 11
11.06215537761193
 21
6.810311449017341
 31
0.0
  0
LINE
  5
5AB2
330
1F
100
AcDbEntity
  8
0
100
AcDbLine
 10
11.07802166522622
 20
6.835878337820241
 30
0.0
 11
11.07670970237901
 21
6.835784109274364
 31
0.0
  0
LINE
  5
5AB3
330
1F
100
AcDbEntity
  8
0
100
AcDbLine
 10
11.06879916686586
 20
6.826619164399198
 30
0.0
 11
11.06889211454916
 21
6.825301073038212
 31
0.0
  0
LINE
  5
5AB4
330
1F
100
AcDbEntity
  8
0
100
AcDbLine
 10
11.06904590316324
 20
6.823138465027676
 30
0.0
 11
11.06889446211134
 21
6.820975689820607
 31
0.0
  0
LINE
  5
5AB5
330
1F
100
AcDbEntity
  8
0
100
AcDbLine
 10
11.0754244253991
 20
6.835503340284327
 30
0.0
 11
11.07419197735221
 21
6.835041741807594
 31
0.0
  0
LINE
  5
5AB6
330
1F
100
AcDbEntity
  8
0
100
AcDbLine
 10
11.07670970237901
 20
6.835784109274364
 30
0.0
 11
11.0754244253991
 21
6.835503340284327
 31
0.0
  0
LINE
  5
5AB7
330
1F
100
AcDbEntity
  8
0
100
AcDbLine
 10
11.06356697631949
 20
6.997265845520552
 30
0.0
 11
11.06262285390155
 21
6.998772268237765
 31
0.0
  0
LINE
  5
5AB8
330
1F
100
AcDbEntity
  8
0
100
AcDbLine
 10
11.06262285390155
 20
6.998772268237765
 30
0.0
 11
11.0615090605018
 21
7.0001567910656
 31
0.0
  0
LINE
  5
5AB9
330
1F
100
AcDbEntity
  8
0
100
AcDbLine
 10
11.06027157500752
 20
6.809253559986395
 30
0.0
 11
11.05825805560528
 21
6.808473243486042
 31
0.0
  0
LINE
  5
5ABA
330
1F
100
AcDbEntity
  8
0
100
AcDbLine
 10
11.06769405302363
 20
6.816821823743986
 30
0.0
 11
11.06666909676834
 21
6.814913822649068
 31
0.0
  0
LINE
  5
5ABB
330
1F
100
AcDbEntity
  8
0
100
AcDbLine
 10
11.06917411474772
 20
6.829228174055466
 30
0.0
 11
11.06889380861617
 21
6.827937134087926
 31
0.0
  0
LINE
  5
5ABC
330
1F
100
AcDbEntity
  8
0
100
AcDbLine
 10
11.07303742674169
 20
6.834408702948231
 30
0.0
 11
11.07198425760479
 21
6.833617099978646
 31
0.0
  0
LINE
  5
5ABD
330
1F
100
AcDbEntity
  8
0
100
AcDbLine
 10
11.0648964067334
 20
6.99397220357222
 30
0.0
 11
11.06432834423996
 21
6.995658398708095
 31
0.0
  0
LINE
  5
5ABE
330
1F
100
AcDbEntity
  8
0
100
AcDbLine
 10
11.07105389183765
 20
6.832683034430851
 30
0.0
 11
11.07026525346501
 21
6.831625505584676
 31
0.0
  0
LINE
  5
5ABF
330
1F
100
AcDbEntity
  8
0
100
AcDbLine
 10
11.06963438371779
 20
6.830466024014548
 30
0.0
 11
11.06917411474772
 21
6.829228174055466
 31
0.0
  0
LINE
  5
5AC0
330
1F
100
AcDbEntity
  8
0
100
AcDbLine
 10
11.06889380861617
 20
6.827937134087926
 30
0.0
 11
11.06879916686586
 21
6.826619164399198
 31
0.0
  0
LINE
  5
5AC1
330
1F
100
AcDbEntity
  8
0
100
AcDbLine
 10
11.05569644636004
 20
7.004122882701701
 30
0.0
 11
11.05400476118093
 21
7.004652607896425
 31
0.0
  0
LINE
  5
5AC2
330
1F
100
AcDbEntity
  8
0
100
AcDbLine
 10
11.06024103091252
 20
7.001400227481462
 30
0.0
 11
11.0588363373094
 21
7.002485346118398
 31
0.0
  0
LINE
  5
5AC3
330
1F
100
AcDbEntity
  8
0
100
AcDbLine
 10
11.0615090605018
 20
7.0001567910656
 30
0.0
 11
11.06024103091252
 21
7.001400227481462
 31
0.0
  0
LINE
  5
5AC4
330
1F
100
AcDbEntity
  8
0
100
AcDbLine
 10
11.0653524582605
 20
6.987274331500679
 30
0.0
 11
11.06537605025841
 21
6.988678301650559
 31
0.0
  0
LINE
  5
5AC5
330
1F
100
AcDbEntity
  8
0
100
AcDbLine
 10
11.06800524535176
 20
6.980923062894341
 30
0.0
 11
11.06713355443981
 21
6.982020698495909
 31
0.0
  0
LINE
  5
5AC6
330
1F
100
AcDbEntity
  8
0
100
AcDbLine
 10
11.06901900401831
 20
6.979956388789269
 30
0.0
 11
11.06800524535176
 21
6.980923062894341
 31
0.0
  0
LINE
  5
5AC7
330
1F
100
AcDbEntity
  8
0
100
AcDbLine
 10
11.06844082066852
 20
6.818856009405032
 30
0.0
 11
11.06769405302363
 21
6.816821823743986
 31
0.0
  0
LINE
  5
5AC8
330
1F
100
AcDbEntity
  8
0
100
AcDbLine
 10
10.86943723294961
 20
6.993160529952654
 30
0.0
 11
10.86924630799335
 21
6.991408546262115
 31
0.0
  0
LINE
  5
5AC9
330
1F
100
AcDbEntity
  8
0
100
AcDbLine
 10
10.86984768836551
 20
6.994874064748395
 30
0.0
 11
10.86943723294961
 21
6.993160529952654
 31
0.0
  0
LINE
  5
5ACA
330
1F
100
AcDbEntity
  8
0
100
AcDbLine
 10
10.8704710515912
 20
6.996521502966907
 30
0.0
 11
10.86984768836551
 21
6.994874064748395
 31
0.0
  0
LINE
  5
5ACB
330
1F
100
AcDbEntity
  8
0
100
AcDbLine
 10
10.87129726473434
 20
6.998076263386274
 30
0.0
 11
10.8704710515912
 21
6.996521502966907
 31
0.0
  0
LINE
  5
5ACC
330
1F
100
AcDbEntity
  8
0
100
AcDbLine
 10
10.87231299694302
 20
6.999513260130009
 30
0.0
 11
10.87129726473434
 21
6.998076263386274
 31
0.0
  0
LINE
  5
5ACD
330
1F
100
AcDbEntity
  8
0
100
AcDbLine
 10
10.87350185949752
 20
7.000809307424625
 30
0.0
 11
10.87231299694302
 21
6.999513260130009
 31
0.0
  0
LINE
  5
5ACE
330
1F
100
AcDbEntity
  8
0
100
AcDbLine
 10
10.87484467024034
 20
7.001943493699465
 30
0.0
 11
10.87350185949752
 21
7.000809307424625
 31
0.0
  0
LINE
  5
5ACF
330
1F
100
AcDbEntity
  8
0
100
AcDbLine
 10
10.87631976307806
 20
7.002897518992363
 30
0.0
 11
10.87484467024034
 21
7.001943493699465
 31
0.0
  0
LINE
  5
5AD0
330
1F
100
AcDbEntity
  8
0
100
AcDbLine
 10
10.87790333756124
 20
7.003655990217418
 30
0.0
 11
10.87631976307806
 21
7.002897518992363
 31
0.0
  0
LINE
  5
5AD1
330
1F
100
AcDbEntity
  8
0
100
AcDbLine
 10
10.87956984290182
 20
7.004206669530611
 30
0.0
 11
10.87790333756124
 21
7.003655990217418
 31
0.0
  0
LINE
  5
5AD2
330
1F
100
AcDbEntity
  8
0
100
AcDbLine
 10
10.88129239023211
 20
7.004540671785982
 30
0.0
 11
10.87956984290182
 21
7.004206669530611
 31
0.0
  0
LINE
  5
5AD3
330
1F
100
AcDbEntity
  8
0
100
AcDbLine
 10
10.88304318645354
 20
7.004652607896425
 30
0.0
 11
10.88129239023211
 21
7.004540671785982
 31
0.0
  0
LINE
  5
5AD4
330
1F
100
AcDbEntity
  8
0
100
AcDbLine
 10
11.05397122281467
 20
7.004122882701701
 30
0.0
 11
11.05227953763556
 21
7.004652607896425
 31
0.0
  0
LINE
  5
5AD5
330
1F
100
AcDbEntity
  8
0
100
AcDbLine
 10
11.05558922219343
 20
7.003397109554961
 30
0.0
 11
11.05397122281467
 21
7.004122882701701
 31
0.0
  0
LINE
  5
5AD6
330
1F
100
AcDbEntity
  8
0
100
AcDbLine
 10
11.05711111376403
 20
7.002485346118398
 30
0.0
 11
11.05558922219343
 21
7.003397109554961
 31
0.0
  0
LINE
  5
5AD7
330
1F
100
AcDbEntity
  8
0
100
AcDbLine
 10
11.05851580736716
 20
7.001400227481462
 30
0.0
 11
11.05711111376403
 21
7.002485346118398
 31
0.0
  0
LINE
  5
5AD8
330
1F
100
AcDbEntity
  8
0
100
AcDbLine
 10
11.05978383695644
 20
7.0001567910656
 30
0.0
 11
11.05851580736716
 21
7.001400227481462
 31
0.0
  0
LINE
  5
5AD9
330
1F
100
AcDbEntity
  8
0
100
AcDbLine
 10
11.06089763035619
 20
6.998772268237765
 30
0.0
 11
11.05978383695644
 21
7.0001567910656
 31
0.0
  0
LINE
  5
5ADA
330
1F
100
AcDbEntity
  8
0
100
AcDbLine
 10
11.06184175277413
 20
6.997265845520552
 30
0.0
 11
11.06089763035619
 21
6.998772268237765
 31
0.0
  0
LINE
  5
5ADB
330
1F
100
AcDbEntity
  8
0
100
AcDbLine
 10
11.0626031206946
 20
6.995658398708095
 30
0.0
 11
11.06184175277413
 21
6.997265845520552
 31
0.0
  0
LINE
  5
5ADC
330
1F
100
AcDbEntity
  8
0
100
AcDbLine
 10
11.06317118318804
 20
6.99397220357222
 30
0.0
 11
11.0626031206946
 21
6.995658398708095
 31
0.0
  0
LINE
  5
5ADD
330
1F
100
AcDbEntity
  8
0
100
AcDbLine
 10
11.06353806812433
 20
6.992230627167935
 30
0.0
 11
11.06317118318804
 21
6.99397220357222
 31
0.0
  0
LINE
  5
5ADE
330
1F
100
AcDbEntity
  8
0
100
AcDbLine
 10
11.06369869126362
 20
6.990457804016082
 30
0.0
 11
11.06353806812433
 21
6.992230627167935
 31
0.0
  0
LINE
  5
5ADF
330
1F
100
AcDbEntity
  8
0
100
AcDbLine
 10
11.06365082671304
 20
6.988678301650559
 30
0.0
 11
11.06369869126362
 21
6.990457804016082
 31
0.0
  0
LINE
  5
5AE0
330
1F
100
AcDbEntity
  8
0
100
AcDbLine
 10
11.06362723471513
 20
6.987274331500679
 30
0.0
 11
11.06365082671304
 21
6.988678301650559
 31
0.0
  0
LINE
  5
5AE1
330
1F
100
AcDbEntity
  8
0
100
AcDbLine
 10
11.06379619295055
 20
6.985880458348455
 30
0.0
 11
11.06362723471513
 21
6.987274331500679
 31
0.0
  0
LINE
  5
5AE2
330
1F
100
AcDbEntity
  8
0
100
AcDbLine
 10
11.06415448614785
 20
6.984523207568678
 30
0.0
 11
11.06379619295055
 21
6.985880458348455
 31
0.0
  0
LINE
  5
5AE3
330
1F
100
AcDbEntity
  8
0
100
AcDbLine
 10
11.06469529599557
 20
6.983228407613133
 30
0.0
 11
11.06415448614785
 21
6.984523207568678
 31
0.0
  0
LINE
  5
5AE4
330
1F
100
AcDbEntity
  8
0
100
AcDbLine
 10
11.06540833089445
 20
6.982020698495909
 30
0.0
 11
11.06469529599557
 21
6.983228407613133
 31
0.0
  0
LINE
  5
5AE5
330
1F
100
AcDbEntity
  8
0
100
AcDbLine
 10
11.0662800218064
 20
6.980923062894341
 30
0.0
 11
11.06540833089445
 21
6.982020698495909
 31
0.0
  0
LINE
  5
5AE6
330
1F
100
AcDbEntity
  8
0
100
AcDbLine
 10
11.06729378047295
 20
6.979956388789269
 30
0.0
 11
11.0662800218064
 21
6.980923062894341
 31
0.0
  0
LINE
  5
5AE7
330
1F
100
AcDbEntity
  8
0
100
AcDbLine
 10
11.06843031508946
 20
6.979139071967161
 30
0.0
 11
11.06729378047295
 21
6.979956388789269
 31
0.0
  0
LINE
  5
5AE8
330
1F
100
AcDbEntity
  8
0
100
AcDbLine
 10
11.06966799742773
 20
6.978486665948786
 30
0.0
 11
11.06843031508946
 21
6.979139071967161
 31
0.0
  0
LINE
  5
5AE9
330
1F
100
AcDbEntity
  8
0
100
AcDbLine
 10
11.07098327442069
 20
6.978011586005998
 30
0.0
 11
11.06966799742773
 21
6.978486665948786
 31
0.0
  0
LINE
  5
5AEA
330
1F
100
AcDbEntity
  8
0
100
AcDbLine
 10
11.07235111637672
 20
6.977722872899456
 30
0.0
 11
11.07098327442069
 21
6.978011586005998
 31
0.0
  0
LINE
  5
5AEB
330
1F
100
AcDbEntity
  8
0
100
AcDbLine
 10
11.07374549329415
 20
6.97762602083305
 30
0.0
 11
11.07235111637672
 21
6.977722872899456
 31
0.0
  0
LINE
  5
5AEC
330
1F
100
AcDbEntity
  8
0
100
AcDbLine
 10
11.18224367891617
 20
6.97762602083305
 30
0.0
 11
11.18423743150688
 21
6.977535430022649
 31
0.0
  0
LINE
  5
5AED
330
1F
100
AcDbEntity
  8
0
100
AcDbLine
 10
11.18423743150688
 20
6.977535430022649
 30
0.0
 11
11.18621490383175
 21
6.977264397323389
 31
0.0
  0
LINE
  5
5AEE
330
1F
100
AcDbEntity
  8
0
100
AcDbLine
 10
11.18621490383175
 20
6.977264397323389
 30
0.0
 11
11.18815994856371
 21
6.976815135890711
 31
0.0
  0
LINE
  5
5AEF
330
1F
100
AcDbEntity
  8
0
100
AcDbLine
 10
11.18815994856371
 20
6.976815135890711
 30
0.0
 11
11.19005668316777
 21
6.976191314231734
 31
0.0
  0
LINE
  5
5AF0
330
1F
100
AcDbEntity
  8
0
100
AcDbLine
 10
11.19005668316777
 20
6.976191314231734
 30
0.0
 11
11.19188961959202
 21
6.975398026249529
 31
0.0
  0
LINE
  5
5AF1
330
1F
100
AcDbEntity
  8
0
100
AcDbLine
 10
11.19188961959202
 20
6.975398026249529
 30
0.0
 11
11.19364379073753
 21
6.974441749648144
 31
0.0
  0
LINE
  5
5AF2
330
1F
100
AcDbEntity
  8
0
100
AcDbLine
 10
11.19364379073753
 20
6.974441749648144
 30
0.0
 11
11.19530487267429
 21
6.973330293038011
 31
0.0
  0
LINE
  5
5AF3
330
1F
100
AcDbEntity
  8
0
100
AcDbLine
 10
11.19530487267429
 20
6.973330293038011
 30
0.0
 11
11.19685930160524
 21
6.972072732173679
 31
0.0
  0
LINE
  5
5AF4
330
1F
100
AcDbEntity
  8
0
100
AcDbLine
 10
11.19685930160524
 20
6.972072732173679
 30
0.0
 11
11.19829438462337
 21
6.970679335844374
 31
0.0
  0
LINE
  5
5AF5
330
1F
100
AcDbEntity
  8
0
100
AcDbLine
 10
11.19829438462337
 20
6.970679335844374
 30
0.0
 11
11.19959840335742
 21
6.969161482022891
 31
0.0
  0
LINE
  5
5AF6
330
1F
100
AcDbEntity
  8
0
100
AcDbLine
 10
11.19959840335742
 20
6.969161482022891
 30
0.0
 11
11.20076070965992
 21
6.967531564957035
 31
0.0
  0
LINE
  5
5AF7
330
1F
100
AcDbEntity
  8
0
100
AcDbLine
 10
11.20076070965992
 20
6.967531564957035
 30
0.0
 11
11.20177181255603
 21
6.965802893962753
 31
0.0
  0
LINE
  5
5AF8
330
1F
100
AcDbEntity
  8
0
100
AcDbLine
 10
11.20177181255603
 20
6.847802893962758
 30
0.0
 11
11.20177181255603
 21
6.965802893962753
 31
0.0
  0
LINE
  5
5AF9
330
1F
100
AcDbEntity
  8
0
100
AcDbLine
 10
11.20177181255603
 20
6.847802893962758
 30
0.0
 11
11.20094170615186
 21
6.846085662726118
 31
0.0
  0
LINE
  5
5AFA
330
1F
100
AcDbEntity
  8
0
100
AcDbLine
 10
11.20094170615186
 20
6.846085662726118
 30
0.0
 11
11.19994950519086
 21
6.844457547767285
 31
0.0
  0
LINE
  5
5AFB
330
1F
100
AcDbEntity
  8
0
100
AcDbLine
 10
11.19994950519086
 20
6.844457547767285
 30
0.0
 11
11.19880459165401
 21
6.842933944096153
 31
0.0
  0
LINE
  5
5AFC
330
1F
100
AcDbEntity
  8
0
100
AcDbLine
 10
11.19880459165401
 20
6.842933944096153
 30
0.0
 11
11.19751779153067
 21
6.841529258492422
 31
0.0
  0
LINE
  5
5AFD
330
1F
100
AcDbEntity
  8
0
100
AcDbLine
 10
11.19751779153067
 20
6.841529258492422
 30
0.0
 11
11.19610127245096
 21
6.840256773279087
 31
0.0
  0
LINE
  5
5AFE
330
1F
100
AcDbEntity
  8
0
100
AcDbLine
 10
11.19610127245096
 20
6.840256773279087
 30
0.0
 11
11.19456842863198
 21
6.839128520728402
 31
0.0
  0
LINE
  5
5AFF
330
1F
100
AcDbEntity
  8
0
100
AcDbLine
 10
11.19456842863198
 20
6.839128520728402
 30
0.0
 11
11.19293375422576
 21
6.838155169287994
 31
0.0
  0
LINE
  5
5B00
330
1F
100
AcDbEntity
  8
0
100
AcDbLine
 10
11.19293375422576
 20
6.838155169287994
 30
0.0
 11
11.19121270626653
 21
6.837345922702945
 31
0.0
  0
LINE
  5
5B01
330
1F
100
AcDbEntity
  8
0
100
AcDbLine
 10
11.19121270626653
 20
6.837345922702945
 30
0.0
 11
11.18942155851321
 21
6.836708432987671
 31
0.0
  0
LINE
  5
5B02
330
1F
100
AcDbEntity
  8
0
100
AcDbLine
 10
11.18942155851321
 20
6.836708432987671
 30
0.0
 11
11.18757724756921
 21
6.836248728070636
 31
0.0
  0
LINE
  5
5B03
330
1F
100
AcDbEntity
  8
0
100
AcDbLine
 10
11.18757724756921
 20
6.836248728070636
 30
0.0
 11
11.18569721273453
 21
6.835971154795836
 31
0.0
  0
LINE
  5
5B04
330
1F
100
AcDbEntity
  8
0
100
AcDbLine
 10
11.18569721273453
 20
6.835971154795836
 30
0.0
 11
11.18379923110451
 21
6.835878337820241
 31
0.0
  0
LINE
  5
5B05
330
1F
100
AcDbEntity
  8
0
100
AcDbLine
 10
11.07629644168085
 20
6.835878337820241
 30
0.0
 11
11.07498447883365
 21
6.835784109274364
 31
0.0
  0
LINE
  5
5B06
330
1F
100
AcDbEntity
  8
0
100
AcDbLine
 10
11.07498447883365
 20
6.835784109274364
 30
0.0
 11
11.07369920185374
 21
6.835503340284327
 31
0.0
  0
LINE
  5
5B07
330
1F
100
AcDbEntity
  8
0
100
AcDbLine
 10
11.07369920185374
 20
6.835503340284327
 30
0.0
 11
11.07246675380685
 21
6.835041741807594
 31
0.0
  0
LINE
  5
5B08
330
1F
100
AcDbEntity
  8
0
100
AcDbLine
 10
11.07246675380685
 20
6.835041741807594
 30
0.0
 11
11.07131220319633
 21
6.834408702948231
 31
0.0
  0
LINE
  5
5B09
330
1F
100
AcDbEntity
  8
0
100
AcDbLine
 10
11.07131220319633
 20
6.834408702948231
 30
0.0
 11
11.07025903405943
 21
6.833617099978646
 31
0.0
  0
LINE
  5
5B0A
330
1F
100
AcDbEntity
  8
0
100
AcDbLine
 10
11.07025903405943
 20
6.833617099978646
 30
0.0
 11
11.06932866829228
 21
6.832683034430851
 31
0.0
  0
LINE
  5
5B0B
330
1F
100
AcDbEntity
  8
0
100
AcDbLine
 10
11.06932866829228
 20
6.832683034430851
 30
0.0
 11
11.06854002991965
 21
6.831625505584676
 31
0.0
  0
LINE
  5
5B0C
330
1F
100
AcDbEntity
  8
0
100
AcDbLine
 10
11.06854002991965
 20
6.831625505584676
 30
0.0
 11
11.06790916017242
 21
6.830466024014548
 31
0.0
  0
LINE
  5
5B0D
330
1F
100
AcDbEntity
  8
0
100
AcDbLine
 10
11.06790916017242
 20
6.830466024014548
 30
0.0
 11
11.06744889120236
 21
6.829228174055466
 31
0.0
  0
LINE
  5
5B0E
330
1F
100
AcDbEntity
  8
0
100
AcDbLine
 10
11.06744889120236
 20
6.829228174055466
 30
0.0
 11
11.06716858507081
 21
6.827937134087926
 31
0.0
  0
LINE
  5
5B0F
330
1F
100
AcDbEntity
  8
0
100
AcDbLine
 10
11.06716858507081
 20
6.827937134087926
 30
0.0
 11
11.0670739433205
 21
6.826619164399198
 31
0.0
  0
LINE
  5
5B10
330
1F
100
AcDbEntity
  8
0
100
AcDbLine
 10
11.0670739433205
 20
6.826619164399198
 30
0.0
 11
11.0671668910038
 21
6.825301073038212
 31
0.0
  0
LINE
  5
5B11
330
1F
100
AcDbEntity
  8
0
100
AcDbLine
 10
11.0671668910038
 20
6.825301073038212
 30
0.0
 11
11.06732067961788
 21
6.823138465027676
 31
0.0
  0
LINE
  5
5B12
330
1F
100
AcDbEntity
  8
0
100
AcDbLine
 10
11.06732067961788
 20
6.823138465027676
 30
0.0
 11
11.06716923856597
 21
6.820975689820607
 31
0.0
  0
LINE
  5
5B13
330
1F
100
AcDbEntity
  8
0
100
AcDbLine
 10
11.06716923856597
 20
6.820975689820607
 30
0.0
 11
11.06671559712316
 21
6.818856009405032
 31
0.0
  0
LINE
  5
5B14
330
1F
100
AcDbEntity
  8
0
100
AcDbLine
 10
11.06671559712316
 20
6.818856009405032
 30
0.0
 11
11.06596882947826
 21
6.816821823743986
 31
0.0
  0
LINE
  5
5B15
330
1F
100
AcDbEntity
  8
0
100
AcDbLine
 10
11.06596882947826
 20
6.816821823743986
 30
0.0
 11
11.06494387322298
 21
6.814913822649068
 31
0.0
  0
LINE
  5
5B16
330
1F
100
AcDbEntity
  8
0
100
AcDbLine
 10
11.06494387322298
 20
6.814913822649068
 30
0.0
 11
11.06366123055518
 21
6.81317017186229
 31
0.0
  0
LINE
  5
5B17
330
1F
100
AcDbEntity
  8
0
100
AcDbLine
 10
11.06366123055518
 20
6.81317017186229
 30
0.0
 11
11.06214655817352
 21
6.811625749626778
 31
0.0
  0
LINE
  5
5B18
330
1F
100
AcDbEntity
  8
0
100
AcDbLine
 10
11.06214655817352
 20
6.811625749626778
 30
0.0
 11
11.06043015406657
 21
6.810311449017341
 31
0.0
  0
LINE
  5
5B19
330
1F
100
AcDbEntity
  8
0
100
AcDbLine
 10
11.06043015406657
 20
6.810311449017341
 30
0.0
 11
11.05854635146215
 21
6.809253559986395
 31
0.0
  0
LINE
  5
5B1A
330
1F
100
AcDbEntity
  8
0
100
AcDbLine
 10
11.05854635146215
 20
6.809253559986395
 30
0.0
 11
11.05653283205992
 21
6.808473243486042
 31
0.0
  0
LINE
  5
5B1B
330
1F
100
AcDbEntity
  8
0
100
AcDbLine
 10
11.05653283205992
 20
6.808473243486042
 30
0.0
 11
11.05442987228436
 21
6.807986108185681
 31
0.0
  0
LINE
  5
5B1C
330
1F
100
AcDbEntity
  8
0
100
AcDbLine
 10
11.05442987228436
 20
6.807986108185681
 30
0.0
 11
11.05227953763556
 21
6.80780189825169
 31
0.0
  0
LINE
  5
5B1D
330
1F
100
AcDbEntity
  8
0
100
AcDbLine
 10
10.87908059911968
 20
6.80780189825169
 30
0.0
 11
10.87767047005858
 21
6.808453231065294
 31
0.0
  0
LINE
  5
5B1E
330
1F
100
AcDbEntity
  8
0
100
AcDbLine
 10
10.87767047005858
 20
6.808453231065294
 30
0.0
 11
10.87633141794915
 21
6.809241551780382
 31
0.0
  0
LINE
  5
5B1F
330
1F
100
AcDbEntity
  8
0
100
AcDbLine
 10
10.87633141794915
 20
6.809241551780382
 30
0.0
 11
10.87507658716945
 21
6.810159122098064
 31
0.0
  0
LINE
  5
5B20
330
1F
100
AcDbEntity
  8
0
100
AcDbLine
 10
10.87507658716945
 20
6.810159122098064
 30
0.0
 11
10.87391829536564
 21
6.811196934981915
 31
0.0
  0
LINE
  5
5B21
330
1F
100
AcDbEntity
  8
0
100
AcDbLine
 10
10.87391829536564
 20
6.811196934981915
 30
0.0
 11
10.87286791253989
 21
6.812344803072684
 31
0.0
  0
LINE
  5
5B22
330
1F
100
AcDbEntity
  8
0
100
AcDbLine
 10
10.87286791253989
 20
6.812344803072684
 30
0.0
 11
10.87193574944023
 21
6.81359145868931
 31
0.0
  0
LINE
  5
5B23
330
1F
100
AcDbEntity
  8
0
100
AcDbLine
 10
10.87193574944023
 20
6.81359145868931
 30
0.0
 11
10.87113095634849
 21
6.81492466443445
 31
0.0
  0
LINE
  5
5B24
330
1F
100
AcDbEntity
  8
0
100
AcDbLine
 10
10.87113095634849
 20
6.81492466443445
 30
0.0
 11
10.87046143325942
 21
6.816331333319078
 31
0.0
  0
LINE
  5
5B25
330
1F
100
AcDbEntity
  8
0
100
AcDbLine
 10
10.87046143325942
 20
6.816331333319078
 30
0.0
 11
10.86993375233291
 21
6.817797657226628
 31
0.0
  0
LINE
  5
5B26
330
1F
100
AcDbEntity
  8
0
100
AcDbLine
 10
10.86993375233291
 20
6.817797657226628
 30
0.0
 11
10.86955309338053
 21
6.819309242456051
 31
0.0
  0
LINE
  5
5B27
330
1F
100
AcDbEntity
  8
0
100
AcDbLine
 10
10.86955309338053
 20
6.819309242456051
 30
0.0
 11
10.86932319301948
 21
6.820851251012975
 31
0.0
  0
LINE
  5
5B28
330
1F
100
AcDbEntity
  8
0
100
AcDbLine
 10
10.86932319301948
 20
6.820851251012975
 30
0.0
 11
10.86924630799335
 21
6.822408546262097
 31
0.0
  0
LINE
  5
5B29
330
1F
100
AcDbEntity
  8
0
100
AcDbLine
 10
11.05400476118093
 20
7.004652607896425
 30
0.0
 11
11.05227953763556
 21
7.004652607896425
 31
0.0
  0
LINE
  5
5B2A
330
1F
100
AcDbEntity
  8
0
100
AcDbLine
 10
11.06537605025841
 20
6.988678301650559
 30
0.0
 11
11.06365082671304
 21
6.988678301650559
 31
0.0
  0
LINE
  5
5B2B
330
1F
100
AcDbEntity
  8
0
100
AcDbLine
 10
11.18396890246154
 20
6.97762602083305
 30
0.0
 11
11.18224367891617
 21
6.97762602083305
 31
0.0
  0
LINE
  5
5B2C
330
1F
100
AcDbEntity
  8
0
100
AcDbLine
 10
11.20349703610139
 20
6.965802893962753
 30
0.0
 11
11.20177181255603
 21
6.965802893962753
 31
0.0
  0
LINE
  5
5B2D
330
1F
100
AcDbEntity
  8
0
100
AcDbLine
 10
11.20349703610139
 20
6.847802893962758
 30
0.0
 11
11.20177181255603
 21
6.847802893962758
 31
0.0
  0
LINE
  5
5B2E
330
1F
100
AcDbEntity
  8
0
100
AcDbLine
 10
11.18552445464987
 20
6.835878337820241
 30
0.0
 11
11.18379923110451
 21
6.835878337820241
 31
0.0
  0
LINE
  5
5B2F
330
1F
100
AcDbEntity
  8
0
100
AcDbLine
 10
11.07802166522622
 20
6.835878337820241
 30
0.0
 11
11.07629644168085
 21
6.835878337820241
 31
0.0
  0
LINE
  5
5B30
330
1F
100
AcDbEntity
  8
0
100
AcDbLine
 10
11.06889211454916
 20
6.825301073038212
 30
0.0
 11
11.0671668910038
 21
6.825301073038212
 31
0.0
  0
LINE
  5
5B31
330
1F
100
AcDbEntity
  8
0
100
AcDbLine
 10
11.05400476118093
 20
6.80780189825169
 30
0.0
 11
11.05227953763556
 21
6.80780189825169
 31
0.0
  0
LINE
  5
5B32
330
1F
100
AcDbEntity
  8
0
100
AcDbLine
 10
11.25161063347124
 20
6.966908546262112
 30
0.0
 11
11.2028503380046
 21
6.966908546262112
 31
0.0
  0
LINE
  5
5B33
330
1F
100
AcDbEntity
  8
0
100
AcDbLine
 10
11.28653599846063
 20
6.846908546262107
 30
0.0
 11
11.20306471007679
 21
6.846908546262107
 31
0.0
  0
LINE
  5
5B34
330
1F
100
AcDbEntity
  8
0
100
AcDbLine
 10
11.28334986794062
 20
7.061493108706764
 30
0.0
 11
11.28642472696072
 21
7.057269521754997
 31
0.0
  0
LINE
  5
5B35
330
1F
100
AcDbEntity
  8
0
100
AcDbLine
 10
11.28334986794062
 20
7.061493108706764
 30
0.0
 11
11.2821565819313
 21
7.064387280165527
 31
0.0
  0
LINE
  5
5B36
330
1F
100
AcDbEntity
  8
0
100
AcDbLine
 10
11.2821565819313
 20
7.064387280165527
 30
0.0
 11
11.28174957429561
 21
7.067493108706764
 31
0.0
  0
LINE
  5
5B37
330
1F
100
AcDbEntity
  8
0
100
AcDbLine
 10
11.28174957429561
 20
7.067493108706764
 30
0.0
 11
11.2821565819313
 21
7.070598937247987
 31
0.0
  0
LINE
  5
5B38
330
1F
100
AcDbEntity
  8
0
100
AcDbLine
 10
11.2821565819313
 20
7.070598937247987
 30
0.0
 11
11.28334986794062
 21
7.073493108706764
 31
0.0
  0
LINE
  5
5B39
330
1F
100
AcDbEntity
  8
0
100
AcDbLine
 10
11.28334986794062
 20
7.073493108706764
 30
0.0
 11
11.28524811185402
 21
7.075978390080998
 31
0.0
  0
LINE
  5
5B3A
330
1F
100
AcDbEntity
  8
0
100
AcDbLine
 10
11.28524811185402
 20
7.075978390080998
 30
0.0
 11
11.28772195148581
 21
7.077885413552174
 31
0.0
  0
LINE
  5
5B3B
330
1F
100
AcDbEntity
  8
0
100
AcDbLine
 10
11.28772195148581
 20
7.077885413552174
 30
0.0
 11
11.29060279875329
 21
7.079084218622235
 31
0.0
  0
LINE
  5
5B3C
330
1F
100
AcDbEntity
  8
0
100
AcDbLine
 10
11.29060279875329
 20
7.079084218622235
 30
0.0
 11
11.29369432867601
 21
7.079493108706764
 31
0.0
  0
LINE
  5
5B3D
330
1F
100
AcDbEntity
  8
0
100
AcDbLine
 10
11.29369432867601
 20
7.079493108706764
 30
0.0
 11
11.29678585859874
 21
7.079084218622235
 31
0.0
  0
LINE
  5
5B3E
330
1F
100
AcDbEntity
  8
0
100
AcDbLine
 10
11.29678585859874
 20
7.079084218622235
 30
0.0
 11
11.29966670586622
 21
7.077885413552174
 31
0.0
  0
LINE
  5
5B3F
330
1F
100
AcDbEntity
  8
0
100
AcDbLine
 10
11.29966670586622
 20
7.077885413552174
 30
0.0
 11
11.30214054549801
 21
7.075978390080998
 31
0.0
  0
LINE
  5
5B40
330
1F
100
AcDbEntity
  8
0
100
AcDbLine
 10
11.30214054549801
 20
7.075978390080998
 30
0.0
 11
11.30403878941141
 21
7.073493108706764
 31
0.0
  0
LINE
  5
5B41
330
1F
100
AcDbEntity
  8
0
100
AcDbLine
 10
11.30403878941141
 20
7.073493108706764
 30
0.0
 11
11.3081070892191
 21
7.067904944218164
 31
0.0
  0
LINE
  5
5B42
330
1F
100
AcDbEntity
  8
0
100
AcDbLine
 10
11.3092285803675
 20
7.065109389260435
 30
0.0
 11
11.3081070892191
 21
7.067904944218164
 31
0.0
  0
LINE
  5
5B43
330
1F
100
AcDbEntity
  8
0
100
AcDbLine
 10
11.3092285803675
 20
7.065109389260435
 30
0.0
 11
11.31295273010669
 21
7.049014848921211
 31
0.0
  0
LINE
  5
5B44
330
1F
100
AcDbEntity
  8
0
100
AcDbLine
 10
11.31295273010669
 20
7.049014848921211
 30
0.0
 11
11.31615072998802
 21
7.023412132556935
 31
0.0
  0
LINE
  5
5B45
330
1F
100
AcDbEntity
  8
0
100
AcDbLine
 10
11.28957955614353
 20
7.043635396088199
 30
0.0
 11
11.29256913877241
 21
7.01970123757193
 31
0.0
  0
LINE
  5
5B46
330
1F
100
AcDbEntity
  8
0
100
AcDbLine
 10
11.31634724574211
 20
7.021215980134237
 30
0.0
 11
11.31615072998802
 21
7.023412132556935
 31
0.0
  0
LINE
  5
5B47
330
1F
100
AcDbEntity
  8
0
100
AcDbLine
 10
11.31634724574211
 20
7.021215980134237
 30
0.0
 11
11.31875385038775
 21
6.988493108706756
 31
0.0
  0
LINE
  5
5B48
330
1F
100
AcDbEntity
  8
0
100
AcDbLine
 10
11.29637719655212
 20
6.950386517832961
 30
0.0
 11
11.2968932031938
 21
6.909493108706763
 31
0.0
  0
LINE
  5
5B49
330
1F
100
AcDbEntity
  8
0
100
AcDbLine
 10
11.32026670531293
 20
6.950386517832961
 30
0.0
 11
11.32078271195462
 21
6.909493108706763
 31
0.0
  0
LINE
  5
5B4A
330
1F
100
AcDbEntity
  8
0
100
AcDbLine
 10
11.31615072998802
 20
6.795574084856576
 30
0.0
 11
11.31295273010669
 21
6.769971368492314
 31
0.0
  0
LINE
  5
5B4B
330
1F
100
AcDbEntity
  8
0
100
AcDbLine
 10
11.31634724574211
 20
6.797770237279288
 30
0.0
 11
11.31615072998802
 21
6.795574084856576
 31
0.0
  0
LINE
  5
5B4C
330
1F
100
AcDbEntity
  8
0
100
AcDbLine
 10
11.28642472696073
 20
6.761716695658528
 30
0.0
 11
11.28334986794062
 21
6.757493108706762
 31
0.0
  0
LINE
  5
5B4D
330
1F
100
AcDbEntity
  8
0
100
AcDbLine
 10
11.31875385038775
 20
6.830493108706755
 30
0.0
 11
11.31634724574211
 21
6.797770237279288
 31
0.0
  0
LINE
  5
5B4E
330
1F
100
AcDbEntity
  8
0
100
AcDbLine
 10
11.29256913877241
 20
6.799284979841595
 30
0.0
 11
11.28957955614353
 21
6.775350821325326
 31
0.0
  0
LINE
  5
5B4F
330
1F
100
AcDbEntity
  8
0
100
AcDbLine
 10
11.31295273010669
 20
6.769971368492314
 30
0.0
 11
11.3092285803675
 21
6.75387682815309
 31
0.0
  0
LINE
  5
5B50
330
1F
100
AcDbEntity
  8
0
100
AcDbLine
 10
11.3092285803675
 20
6.75387682815309
 30
0.0
 11
11.3081070892191
 21
6.751081273195347
 31
0.0
  0
LINE
  5
5B51
330
1F
100
AcDbEntity
  8
0
100
AcDbLine
 10
11.2925243157251
 20
6.830493108706755
 30
0.0
 11
11.29187261283105
 21
6.846908546262107
 31
0.0
  0
LINE
  5
5B52
330
1F
100
AcDbEntity
  8
0
100
AcDbLine
 10
11.28524811185402
 20
6.743007827332527
 30
0.0
 11
11.28334986794062
 21
6.745493108706761
 31
0.0
  0
LINE
  5
5B53
330
1F
100
AcDbEntity
  8
0
100
AcDbLine
 10
11.28772195148581
 20
6.741100803861351
 30
0.0
 11
11.28524811185402
 21
6.743007827332527
 31
0.0
  0
LINE
  5
5B54
330
1F
100
AcDbEntity
  8
0
100
AcDbLine
 10
11.29060279875329
 20
6.73990199879129
 30
0.0
 11
11.28772195148581
 21
6.741100803861351
 31
0.0
  0
LINE
  5
5B55
330
1F
100
AcDbEntity
  8
0
100
AcDbLine
 10
11.29369432867601
 20
6.739493108706761
 30
0.0
 11
11.29060279875329
 21
6.73990199879129
 31
0.0
  0
LINE
  5
5B56
330
1F
100
AcDbEntity
  8
0
100
AcDbLine
 10
11.29678585859874
 20
6.73990199879129
 30
0.0
 11
11.29369432867601
 21
6.739493108706761
 31
0.0
  0
LINE
  5
5B57
330
1F
100
AcDbEntity
  8
0
100
AcDbLine
 10
11.29966670586622
 20
6.741100803861351
 30
0.0
 11
11.29678585859874
 21
6.73990199879129
 31
0.0
  0
LINE
  5
5B58
330
1F
100
AcDbEntity
  8
0
100
AcDbLine
 10
11.30214054549801
 20
6.743007827332513
 30
0.0
 11
11.29966670586622
 21
6.741100803861351
 31
0.0
  0
LINE
  5
5B59
330
1F
100
AcDbEntity
  8
0
100
AcDbLine
 10
11.3081070892191
 20
6.751081273195347
 30
0.0
 11
11.30403878941141
 21
6.745493108706761
 31
0.0
  0
LINE
  5
5B5A
330
1F
100
AcDbEntity
  8
0
100
AcDbLine
 10
11.30403878941141
 20
6.745493108706761
 30
0.0
 11
11.30214054549801
 21
6.743007827332513
 31
0.0
  0
LINE
  5
5B5B
330
1F
100
AcDbEntity
  8
0
100
AcDbLine
 10
11.28334986794062
 20
6.745493108706761
 30
0.0
 11
11.27928156813293
 21
6.751081273195347
 31
0.0
  0
LINE
  5
5B5C
330
1F
100
AcDbEntity
  8
0
100
AcDbLine
 10
11.27928156813293
 20
6.751081273195347
 30
0.0
 11
11.27816007698453
 21
6.75387682815309
 31
0.0
  0
LINE
  5
5B5D
330
1F
100
AcDbEntity
  8
0
100
AcDbLine
 10
11.27816007698453
 20
6.75387682815309
 30
0.0
 11
11.27443592724534
 21
6.769971368492314
 31
0.0
  0
LINE
  5
5B5E
330
1F
100
AcDbEntity
  8
0
100
AcDbLine
 10
11.27443592724534
 20
6.769971368492314
 30
0.0
 11
11.27123792736401
 21
6.795574084856576
 31
0.0
  0
LINE
  5
5B5F
330
1F
100
AcDbEntity
  8
0
100
AcDbLine
 10
11.27123792736401
 20
6.795574084856576
 30
0.0
 11
11.27104141160992
 21
6.797770237279288
 31
0.0
  0
LINE
  5
5B60
330
1F
100
AcDbEntity
  8
0
100
AcDbLine
 10
11.27443592724534
 20
7.049014848921211
 30
0.0
 11
11.27816007698453
 21
7.065109389260435
 31
0.0
  0
LINE
  5
5B61
330
1F
100
AcDbEntity
  8
0
100
AcDbLine
 10
11.27104141160992
 20
6.797770237279288
 30
0.0
 11
11.26863480696429
 21
6.830493108706755
 31
0.0
  0
LINE
  5
5B62
330
1F
100
AcDbEntity
  8
0
100
AcDbLine
 10
11.29369432867602
 20
6.814584312290727
 30
0.0
 11
11.2925243157251
 21
6.830493108706755
 31
0.0
  0
LINE
  5
5B63
330
1F
100
AcDbEntity
  8
0
100
AcDbLine
 10
11.26863480696429
 20
6.830493108706755
 30
0.0
 11
11.26798310407024
 21
6.846908546262107
 31
0.0
  0
LINE
  5
5B64
330
1F
100
AcDbEntity
  8
0
100
AcDbLine
 10
11.26781022197496
 20
6.967723025398776
 30
0.0
 11
11.26863480696429
 21
6.988493108706756
 31
0.0
  0
LINE
  5
5B65
330
1F
100
AcDbEntity
  8
0
100
AcDbLine
 10
11.29169973073577
 20
6.967723025398776
 30
0.0
 11
11.2925243157251
 21
6.988493108706756
 31
0.0
  0
LINE
  5
5B66
330
1F
100
AcDbEntity
  8
0
100
AcDbLine
 10
11.26863480696429
 20
6.988493108706756
 30
0.0
 11
11.27104141160992
 21
7.021215980134237
 31
0.0
  0
LINE
  5
5B67
330
1F
100
AcDbEntity
  8
0
100
AcDbLine
 10
11.27123792736401
 20
7.023412132556935
 30
0.0
 11
11.27104141160992
 21
7.021215980134237
 31
0.0
  0
LINE
  5
5B68
330
1F
100
AcDbEntity
  8
0
100
AcDbLine
 10
11.2925243157251
 20
6.988493108706756
 30
0.0
 11
11.29369432867602
 21
7.004401905122798
 31
0.0
  0
LINE
  5
5B69
330
1F
100
AcDbEntity
  8
0
100
AcDbLine
 10
11.27123792736401
 20
7.023412132556935
 30
0.0
 11
11.27443592724534
 21
7.049014848921211
 31
0.0
  0
LINE
  5
5B6A
330
1F
100
AcDbEntity
  8
0
100
AcDbLine
 10
11.27928156813293
 20
7.067904944218164
 30
0.0
 11
11.27816007698453
 21
7.065109389260435
 31
0.0
  0
LINE
  5
5B6B
330
1F
100
AcDbEntity
  8
0
100
AcDbLine
 10
11.27928156813293
 20
7.067904944218164
 30
0.0
 11
11.28334986794062
 21
7.073493108706764
 31
0.0
  0
LINE
  5
5B6C
330
1F
100
AcDbEntity
  8
0
100
AcDbLine
 10
11.29580802844803
 20
6.964723025398776
 30
0.0
 11
11.25161063347124
 21
6.964723025398776
 31
0.0
  0
LINE
  5
5B6D
330
1F
100
AcDbEntity
  8
0
100
AcDbLine
 10
11.29169973073577
 20
6.967723025398776
 30
0.0
 11
11.29568892661626
 21
6.967723025398776
 31
0.0
  0
LINE
  5
5B6E
330
1F
100
AcDbEntity
  8
0
100
AcDbLine
 10
11.25161063347124
 20
6.964723025398776
 30
0.0
 11
11.25161063347124
 21
6.967723025398776
 31
0.0
  0
LINE
  5
5B6F
330
1F
100
AcDbEntity
  8
0
100
AcDbLine
 10
11.25161063347124
 20
6.846908546262107
 30
0.0
 11
11.25161063347124
 21
6.849908546262107
 31
0.0
  0
LINE
  5
5B70
330
1F
100
AcDbEntity
  8
0
100
AcDbLine
 10
11.29187261283105
 20
6.846908546262107
 30
0.0
 11
11.29551604452097
 21
6.846908546262107
 31
0.0
  0
LINE
  5
5B71
330
1F
100
AcDbEntity
  8
0
100
AcDbLine
 10
11.20349703610139
 20
6.847802893962758
 30
0.0
 11
11.20306471007679
 21
6.846908546262107
 31
0.0
  0
LINE
  5
5B72
330
1F
100
AcDbEntity
  8
0
100
AcDbLine
 10
11.20306471007679
 20
6.846908546262107
 30
0.0
 11
11.20266692969722
 21
6.846085662726118
 31
0.0
  0
LINE
  5
5B73
330
1F
100
AcDbEntity
  8
0
100
AcDbLine
 10
11.20248593320527
 20
6.967531564957035
 30
0.0
 11
11.2028503380046
 21
6.966908546262112
 31
0.0
  0
LINE
  5
5B74
330
1F
100
AcDbEntity
  8
0
100
AcDbLine
 10
11.2028503380046
 20
6.966908546262112
 30
0.0
 11
11.20349703610139
 21
6.965802893962753
 31
0.0
  0
LINE
  5
5B75
330
1F
100
AcDbEntity
  8
0
100
AcDbLine
 10
11.18379923110451
 20
6.835878337820241
 30
0.0
 11
11.07802166522622
 21
6.835878337820241
 31
0.0
  0
LINE
  5
5B76
330
1F
100
AcDbEntity
  8
0
100
AcDbLine
 10
11.07547071683952
 20
6.97762602083305
 30
0.0
 11
11.18224367891617
 21
6.97762602083305
 31
0.0
  0
LINE
  5
5B77
330
1F
100
AcDbEntity
  8
0
100
AcDbLine
 10
11.20349703610139
 20
6.847802893962758
 30
0.0
 11
11.20349703610139
 21
6.906908546262109
 31
0.0
  0
LINE
  5
5B78
330
1F
100
AcDbEntity
  8
0
100
AcDbLine
 10
11.20349703610139
 20
6.906908546262109
 30
0.0
 11
11.20349703610139
 21
6.965802893962753
 31
0.0
  0
LINE
  5
5B79
330
1F
100
AcDbEntity
  8
0
100
AcDbLine
 10
10.86924630799335
 20
6.822408546262097
 30
0.0
 11
10.86924630799335
 21
6.991408546262115
 31
0.0
  0
LINE
  5
5B7A
330
1F
100
AcDbEntity
  8
0
100
AcDbLine
 10
11.07374549329415
 20
6.97762602083305
 30
0.0
 11
11.07547071683952
 21
6.97762602083305
 31
0.0
  0
LINE
  5
5B7B
330
1F
100
AcDbEntity
  8
0
100
AcDbLine
 10
11.28599899612616
 20
7.059109389260435
 30
0.0
 11
11.28642472696072
 21
7.057269521754997
 31
0.0
  0
LINE
  5
5B7C
330
1F
100
AcDbEntity
  8
0
100
AcDbLine
 10
11.2924577369813
 20
7.021215980134237
 30
0.0
 11
11.29256913877241
 21
7.01970123757193
 31
0.0
  0
LINE
  5
5B7D
330
1F
100
AcDbEntity
  8
0
100
AcDbLine
 10
11.29486434162693
 20
6.988493108706756
 30
0.0
 11
11.29568892661626
 21
6.967723025398776
 31
0.0
  0
LINE
  5
5B7E
330
1F
100
AcDbEntity
  8
0
100
AcDbLine
 10
11.31875385038775
 20
6.988493108706756
 30
0.0
 11
11.31959853478919
 21
6.967216750764088
 31
0.0
  0
LINE
  5
5B7F
330
1F
100
AcDbEntity
  8
0
100
AcDbLine
 10
11.31959853478919
 20
6.967216750764088
 30
0.0
 11
11.32026670531293
 21
6.950386517832961
 31
0.0
  0
LINE
  5
5B80
330
1F
100
AcDbEntity
  8
0
100
AcDbLine
 10
11.2968932031938
 20
6.909493108706763
 30
0.0
 11
11.29686447935193
 21
6.907216750764086
 31
0.0
  0
LINE
  5
5B81
330
1F
100
AcDbEntity
  8
0
100
AcDbLine
 10
11.29686447935193
 20
6.907216750764086
 30
0.0
 11
11.29637719655212
 21
6.868599699580564
 31
0.0
  0
LINE
  5
5B82
330
1F
100
AcDbEntity
  8
0
100
AcDbLine
 10
11.32078271195462
 20
6.909493108706763
 30
0.0
 11
11.32075398811275
 21
6.907216750764086
 31
0.0
  0
LINE
  5
5B83
330
1F
100
AcDbEntity
  8
0
100
AcDbLine
 10
11.32075398811275
 20
6.907216750764086
 30
0.0
 11
11.32026670531293
 21
6.868599699580564
 31
0.0
  0
LINE
  5
5B84
330
1F
100
AcDbEntity
  8
0
100
AcDbLine
 10
11.29637719655212
 20
6.868599699580564
 30
0.0
 11
11.29563514635274
 21
6.849908546262107
 31
0.0
  0
LINE
  5
5B85
330
1F
100
AcDbEntity
  8
0
100
AcDbLine
 10
11.32026670531293
 20
6.868599699580564
 30
0.0
 11
11.3194177891887
 21
6.847216750764084
 31
0.0
  0
LINE
  5
5B86
330
1F
100
AcDbEntity
  8
0
100
AcDbLine
 10
11.3194177891887
 20
6.847216750764084
 30
0.0
 11
11.31875385038775
 21
6.830493108706755
 31
0.0
  0
LINE
  5
5B87
330
1F
100
AcDbEntity
  8
0
100
AcDbLine
 10
11.29256913877241
 20
6.799284979841595
 30
0.0
 11
11.2924577369813
 21
6.797770237279288
 31
0.0
  0
LINE
  5
5B88
330
1F
100
AcDbEntity
  8
0
100
AcDbLine
 10
11.28957955614353
 20
6.775350821325326
 30
0.0
 11
11.28902973040202
 21
6.772974656778779
 31
0.0
  0
LINE
  5
5B89
330
1F
100
AcDbEntity
  8
0
100
AcDbLine
 10
11.25161063347124
 20
6.967723025398776
 30
0.0
 11
11.26781022197496
 21
6.967723025398776
 31
0.0
  0
LINE
  5
5B8A
330
1F
100
AcDbEntity
  8
0
100
AcDbLine
 10
11.25161063347124
 20
6.846908546262107
 30
0.0
 11
11.26798310407024
 21
6.846908546262107
 31
0.0
  0
LINE
  5
5B8B
330
1F
100
AcDbEntity
  8
0
100
AcDbLine
 10
11.29187261283105
 20
6.846908546262107
 30
0.0
 11
11.28653599846063
 21
6.846908546262107
 31
0.0
  0
LINE
  5
5B8C
330
1F
100
AcDbEntity
  8
0
100
AcDbLine
 10
11.27549625839734
 20
6.846908546262107
 30
0.0
 11
11.26798310407024
 21
6.846908546262107
 31
0.0
  0
LINE
  5
5B8D
330
1F
100
AcDbEntity
  8
0
100
AcDbLine
 10
11.29563514635274
 20
6.849908546262107
 30
0.0
 11
11.28580968600259
 21
6.849908546262107
 31
0.0
  0
LINE
  5
5B8E
330
1F
100
AcDbEntity
  8
0
100
AcDbLine
 10
11.28580968600259
 20
6.849908546262107
 30
0.0
 11
11.28299279634705
 21
6.849908546262107
 31
0.0
  0
LINE
  5
5B8F
330
1F
100
AcDbEntity
  8
0
100
AcDbLine
 10
11.28299279634705
 20
6.849908546262107
 30
0.0
 11
11.27603866991066
 21
6.849908546262107
 31
0.0
  0
LINE
  5
5B90
330
1F
100
AcDbEntity
  8
0
100
AcDbLine
 10
11.27603866991066
 20
6.849908546262107
 30
0.0
 11
11.25161063347124
 21
6.849908546262107
 31
0.0
  0
LINE
  5
5B91
330
1F
100
AcDbEntity
  8
0
100
AcDbLine
 10
11.28642472696072
 20
7.057269521754997
 30
0.0
 11
11.28902973040202
 21
7.046011560634746
 31
0.0
  0
LINE
  5
5B92
330
1F
100
AcDbEntity
  8
0
100
AcDbLine
 10
11.28902973040202
 20
7.046011560634746
 30
0.0
 11
11.28957955614353
 21
7.043635396088199
 31
0.0
  0
LINE
  5
5B93
330
1F
100
AcDbEntity
  8
0
100
AcDbLine
 10
11.29256913877241
 20
7.01970123757193
 30
0.0
 11
11.29369432867602
 21
7.004401905122798
 31
0.0
  0
LINE
  5
5B94
330
1F
100
AcDbEntity
  8
0
100
AcDbLine
 10
11.29369432867602
 20
7.004401905122798
 30
0.0
 11
11.29486434162693
 21
6.988493108706756
 31
0.0
  0
LINE
  5
5B95
330
1F
100
AcDbEntity
  8
0
100
AcDbLine
 10
11.29568892661626
 20
6.967723025398776
 30
0.0
 11
11.29580802844803
 21
6.964723025398776
 31
0.0
  0
LINE
  5
5B96
330
1F
100
AcDbEntity
  8
0
100
AcDbLine
 10
11.29580802844803
 20
6.964723025398776
 30
0.0
 11
11.29637719655212
 21
6.950386517832961
 31
0.0
  0
LINE
  5
5B97
330
1F
100
AcDbEntity
  8
0
100
AcDbLine
 10
11.29563514635274
 20
6.849908546262107
 30
0.0
 11
11.29551604452097
 21
6.846908546262107
 31
0.0
  0
LINE
  5
5B98
330
1F
100
AcDbEntity
  8
0
100
AcDbLine
 10
11.29551604452097
 20
6.846908546262107
 30
0.0
 11
11.29486434162693
 21
6.830493108706755
 31
0.0
  0
LINE
  5
5B99
330
1F
100
AcDbEntity
  8
0
100
AcDbLine
 10
11.29486434162693
 20
6.830493108706755
 30
0.0
 11
11.29369432867602
 21
6.814584312290727
 31
0.0
  0
LINE
  5
5B9A
330
1F
100
AcDbEntity
  8
0
100
AcDbLine
 10
11.29369432867602
 20
6.814584312290727
 30
0.0
 11
11.29256913877241
 21
6.799284979841595
 31
0.0
  0
LINE
  5
5B9B
330
1F
100
AcDbEntity
  8
0
100
AcDbLine
 10
11.28902973040202
 20
6.772974656778779
 30
0.0
 11
11.28642472696073
 21
6.761716695658528
 31
0.0
  0
LINE
  5
5B9C
330
1F
100
AcDbEntity
  8
0
100
AcDbLine
 10
11.28642472696073
 20
6.761716695658528
 30
0.0
 11
11.28599899612616
 21
6.75987682815309
 31
0.0
  0
LINE
  5
5B9D
330
1F
100
AcDbEntity
  8
0
100
AcDbLine
 10
11.29169973073577
 20
6.967723025398776
 30
0.0
 11
11.28098923829723
 21
6.967723025398776
 31
0.0
  0
LINE
  5
5B9E
330
1F
100
AcDbEntity
  8
0
100
AcDbLine
 10
11.28098923829723
 20
6.967723025398776
 30
0.0
 11
11.26781022197496
 21
6.967723025398776
 31
0.0
  0
LINE
  5
5B9F
330
1F
100
AcDbEntity
  8
0
100
AcDbLine
 10
10.87908059911968
 20
6.80780189825169
 30
0.0
 11
11.05227953763556
 21
6.80780189825169
 31
0.0
  0
LINE
  5
5BA0
330
1F
100
AcDbEntity
  8
0
100
AcDbLine
 10
10.88304318645354
 20
7.004652607896425
 30
0.0
 11
11.05227953763556
 21
7.004652607896425
 31
0.0
  0
LINE
  5
5BA1
330
1F
100
AcDbEntity
  8
0
100
AcDbLine
 10
12.34504741757641
 20
6.966908546262112
 30
0.0
 11
12.43964356505247
 21
6.966908546262112
 31
0.0
  0
LINE
  5
5BA2
330
1F
100
AcDbEntity
  8
0
100
AcDbLine
 10
12.34525263499073
 20
6.846908546262107
 30
0.0
 11
12.43942919298029
 21
6.846908546262106
 31
0.0
  0
LINE
  5
5BA3
330
1F
100
AcDbEntity
  8
0
100
AcDbLine
 10
12.44610970174059
 20
6.838155169287994
 30
0.0
 11
12.44783074969981
 21
6.837345922702945
 31
0.0
  0
LINE
  5
5BA4
330
1F
100
AcDbEntity
  8
0
100
AcDbLine
 10
12.45334624323181
 20
6.835971154795836
 30
0.0
 11
12.45524422486183
 21
6.835878337820241
 31
0.0
  0
LINE
  5
5BA5
330
1F
100
AcDbEntity
  8
0
100
AcDbLine
 10
12.43810174981448
 20
6.846085662726118
 30
0.0
 11
12.43909395077549
 21
6.844457547767285
 31
0.0
  0
LINE
  5
5BA6
330
1F
100
AcDbEntity
  8
0
100
AcDbLine
 10
12.45146620839713
 20
6.836248728070636
 30
0.0
 11
12.45334624323181
 21
6.835971154795836
 31
0.0
  0
LINE
  5
5BA7
330
1F
100
AcDbEntity
  8
0
100
AcDbLine
 10
12.45679977705017
 20
6.97762602083305
 30
0.0
 11
12.45480602445946
 21
6.977535430022649
 31
0.0
  0
LINE
  5
5BA8
330
1F
100
AcDbEntity
  8
0
100
AcDbLine
 10
12.4528285521346
 20
6.977264397323389
 30
0.0
 11
12.45088350740263
 21
6.976815135890711
 31
0.0
  0
LINE
  5
5BA9
330
1F
100
AcDbEntity
  8
0
100
AcDbLine
 10
12.45088350740263
 20
6.976815135890711
 30
0.0
 11
12.44898677279858
 21
6.976191314231734
 31
0.0
  0
LINE
  5
5BAA
330
1F
100
AcDbEntity
  8
0
100
AcDbLine
 10
12.44898677279858
 20
6.976191314231734
 30
0.0
 11
12.44715383637433
 21
6.975398026249529
 31
0.0
  0
LINE
  5
5BAB
330
1F
100
AcDbEntity
  8
0
100
AcDbLine
 10
12.44715383637433
 20
6.975398026249529
 30
0.0
 11
12.44539966522882
 21
6.974441749648144
 31
0.0
  0
LINE
  5
5BAC
330
1F
100
AcDbEntity
  8
0
100
AcDbLine
 10
12.44539966522882
 20
6.974441749648144
 30
0.0
 11
12.44373858329205
 21
6.973330293038011
 31
0.0
  0
LINE
  5
5BAD
330
1F
100
AcDbEntity
  8
0
100
AcDbLine
 10
12.44373858329205
 20
6.973330293038011
 30
0.0
 11
12.44218415436111
 21
6.972072732173679
 31
0.0
  0
LINE
  5
5BAE
330
1F
100
AcDbEntity
  8
0
100
AcDbLine
 10
12.44218415436111
 20
6.972072732173679
 30
0.0
 11
12.44074907134297
 21
6.970679335844374
 31
0.0
  0
LINE
  5
5BAF
330
1F
100
AcDbEntity
  8
0
100
AcDbLine
 10
12.44074907134297
 20
6.970679335844374
 30
0.0
 11
12.43944505260891
 21
6.969161482022891
 31
0.0
  0
LINE
  5
5BB0
330
1F
100
AcDbEntity
  8
0
100
AcDbLine
 10
12.43944505260891
 20
6.969161482022891
 30
0.0
 11
12.43828274630643
 21
6.967531564957035
 31
0.0
  0
LINE
  5
5BB1
330
1F
100
AcDbEntity
  8
0
100
AcDbLine
 10
12.56529796267219
 20
6.97762602083305
 30
0.0
 11
12.56669233958962
 21
6.977722872899456
 31
0.0
  0
LINE
  5
5BB2
330
1F
100
AcDbEntity
  8
0
100
AcDbLine
 10
12.56669233958962
 20
6.977722872899456
 30
0.0
 11
12.56806018154565
 21
6.978011586005998
 31
0.0
  0
LINE
  5
5BB3
330
1F
100
AcDbEntity
  8
0
100
AcDbLine
 10
12.5753926292533
 20
6.988678301650559
 30
0.0
 11
12.57534476470273
 21
6.990457804016082
 31
0.0
  0
LINE
  5
5BB4
330
1F
100
AcDbEntity
  8
0
100
AcDbLine
 10
12.56806018154565
 20
6.978011586005998
 30
0.0
 11
12.56937545853861
 21
6.978486665948786
 31
0.0
  0
LINE
  5
5BB5
330
1F
100
AcDbEntity
  8
0
100
AcDbLine
 10
12.56937545853861
 20
6.978486665948786
 30
0.0
 11
12.57061314087688
 21
6.979139071967161
 31
0.0
  0
LINE
  5
5BB6
330
1F
100
AcDbEntity
  8
0
100
AcDbLine
 10
12.57061314087688
 20
6.979139071967161
 30
0.0
 11
12.5717496754934
 21
6.979956388789269
 31
0.0
  0
LINE
  5
5BB7
330
1F
100
AcDbEntity
  8
0
100
AcDbLine
 10
12.44962189745313
 20
6.836708432987671
 30
0.0
 11
12.45146620839713
 21
6.836248728070636
 31
0.0
  0
LINE
  5
5BB8
330
1F
100
AcDbEntity
  8
0
100
AcDbLine
 10
12.45480602445946
 20
6.977535430022649
 30
0.0
 11
12.4528285521346
 21
6.977264397323389
 31
0.0
  0
LINE
  5
5BB9
330
1F
100
AcDbEntity
  8
0
100
AcDbLine
 10
12.44294218351539
 20
6.840256773279087
 30
0.0
 11
12.44447502733437
 21
6.839128520728402
 31
0.0
  0
LINE
  5
5BBA
330
1F
100
AcDbEntity
  8
0
100
AcDbLine
 10
12.44023886431234
 20
6.842933944096153
 30
0.0
 11
12.44152566443568
 21
6.841529258492422
 31
0.0
  0
LINE
  5
5BBB
330
1F
100
AcDbEntity
  8
0
100
AcDbLine
 10
12.44152566443568
 20
6.841529258492422
 30
0.0
 11
12.44294218351539
 21
6.840256773279087
 31
0.0
  0
LINE
  5
5BBC
330
1F
100
AcDbEntity
  8
0
100
AcDbLine
 10
12.44783074969981
 20
6.837345922702945
 30
0.0
 11
12.44962189745313
 21
6.836708432987671
 31
0.0
  0
LINE
  5
5BBD
330
1F
100
AcDbEntity
  8
0
100
AcDbLine
 10
12.43909395077549
 20
6.844457547767285
 30
0.0
 11
12.44023886431234
 21
6.842933944096153
 31
0.0
  0
LINE
  5
5BBE
330
1F
100
AcDbEntity
  8
0
100
AcDbLine
 10
12.44447502733437
 20
6.839128520728402
 30
0.0
 11
12.44610970174059
 21
6.838155169287994
 31
0.0
  0
LINE
  5
5BBF
330
1F
100
AcDbEntity
  8
0
100
AcDbLine
 10
12.57434815997077
 20
6.983228407613133
 30
0.0
 11
12.57488896981849
 21
6.984523207568678
 31
0.0
  0
LINE
  5
5BC0
330
1F
100
AcDbEntity
  8
0
100
AcDbLine
 10
12.58461358368198
 20
6.807986108185681
 30
0.0
 11
12.58676391833078
 21
6.80780189825169
 31
0.0
  0
LINE
  5
5BC1
330
1F
100
AcDbEntity
  8
0
100
AcDbLine
 10
12.57050342604669
 20
6.831625505584676
 30
0.0
 11
12.57113429579392
 21
6.830466024014548
 31
0.0
  0
LINE
  5
5BC2
330
1F
100
AcDbEntity
  8
0
100
AcDbLine
 10
12.58345423377291
 20
7.003397109554961
 30
0.0
 11
12.58507223315167
 21
7.004122882701701
 31
0.0
  0
LINE
  5
5BC3
330
1F
100
AcDbEntity
  8
0
100
AcDbLine
 10
12.57534476470273
 20
6.990457804016082
 30
0.0
 11
12.57550538784202
 21
6.992230627167935
 31
0.0
  0
LINE
  5
5BC4
330
1F
100
AcDbEntity
  8
0
100
AcDbLine
 10
12.58193234220231
 20
7.002485346118398
 30
0.0
 11
12.58345423377291
 21
7.003397109554961
 31
0.0
  0
LINE
  5
5BC5
330
1F
100
AcDbEntity
  8
0
100
AcDbLine
 10
12.56878442190691
 20
6.833617099978646
 30
0.0
 11
12.56971478767406
 21
6.832683034430851
 31
0.0
  0
LINE
  5
5BC6
330
1F
100
AcDbEntity
  8
0
100
AcDbLine
 10
12.58251062390642
 20
6.808473243486042
 30
0.0
 11
12.58461358368198
 21
6.807986108185681
 31
0.0
  0
LINE
  5
5BC7
330
1F
100
AcDbEntity
  8
0
100
AcDbLine
 10
12.57409958274337
 20
6.814913822649068
 30
0.0
 11
12.57538222541116
 21
6.81317017186229
 31
0.0
  0
LINE
  5
5BC8
330
1F
100
AcDbEntity
  8
0
100
AcDbLine
 10
12.57363512507189
 20
6.982020698495909
 30
0.0
 11
12.57434815997077
 21
6.983228407613133
 31
0.0
  0
LINE
  5
5BC9
330
1F
100
AcDbEntity
  8
0
100
AcDbLine
 10
12.57187656496254
 20
6.825301073038212
 30
0.0
 11
12.57172277634847
 21
6.823138465027676
 31
0.0
  0
LINE
  5
5BCA
330
1F
100
AcDbEntity
  8
0
100
AcDbLine
 10
12.57550538784202
 20
6.992230627167935
 30
0.0
 11
12.5758722727783
 21
6.99397220357222
 31
0.0
  0
LINE
  5
5BCB
330
1F
100
AcDbEntity
  8
0
100
AcDbLine
 10
12.57187421740037
 20
6.820975689820607
 30
0.0
 11
12.57232785884319
 21
6.818856009405032
 31
0.0
  0
LINE
  5
5BCC
330
1F
100
AcDbEntity
  8
0
100
AcDbLine
 10
12.57488896981849
 20
6.984523207568678
 30
0.0
 11
12.5752472630158
 21
6.985880458348455
 31
0.0
  0
LINE
  5
5BCD
330
1F
100
AcDbEntity
  8
0
100
AcDbLine
 10
12.5752472630158
 20
6.985880458348455
 30
0.0
 11
12.57541622125121
 21
6.987274331500679
 31
0.0
  0
LINE
  5
5BCE
330
1F
100
AcDbEntity
  8
0
100
AcDbLine
 10
12.57538222541116
 20
6.81317017186229
 30
0.0
 11
12.57689689779282
 21
6.811625749626778
 31
0.0
  0
LINE
  5
5BCF
330
1F
100
AcDbEntity
  8
0
100
AcDbLine
 10
12.57861330189978
 20
6.810311449017341
 30
0.0
 11
12.58049710450419
 21
6.809253559986395
 31
0.0
  0
LINE
  5
5BD0
330
1F
100
AcDbEntity
  8
0
100
AcDbLine
 10
12.5665767021595
 20
6.835041741807594
 30
0.0
 11
12.56773125277002
 21
6.834408702948231
 31
0.0
  0
LINE
  5
5BD1
330
1F
100
AcDbEntity
  8
0
100
AcDbLine
 10
12.57644033527175
 20
6.995658398708095
 30
0.0
 11
12.57720170319222
 21
6.997265845520552
 31
0.0
  0
LINE
  5
5BD2
330
1F
100
AcDbEntity
  8
0
100
AcDbLine
 10
12.57689689779282
 20
6.811625749626778
 30
0.0
 11
12.57861330189978
 21
6.810311449017341
 31
0.0
  0
LINE
  5
5BD3
330
1F
100
AcDbEntity
  8
0
100
AcDbLine
 10
12.56274701428549
 20
6.835878337820241
 30
0.0
 11
12.5640589771327
 21
6.835784109274364
 31
0.0
  0
LINE
  5
5BD4
330
1F
100
AcDbEntity
  8
0
100
AcDbLine
 10
12.57196951264585
 20
6.826619164399198
 30
0.0
 11
12.57187656496254
 21
6.825301073038212
 31
0.0
  0
LINE
  5
5BD5
330
1F
100
AcDbEntity
  8
0
100
AcDbLine
 10
12.57172277634847
 20
6.823138465027676
 30
0.0
 11
12.57187421740037
 21
6.820975689820607
 31
0.0
  0
LINE
  5
5BD6
330
1F
100
AcDbEntity
  8
0
100
AcDbLine
 10
12.56534425411261
 20
6.835503340284327
 30
0.0
 11
12.5665767021595
 21
6.835041741807594
 31
0.0
  0
LINE
  5
5BD7
330
1F
100
AcDbEntity
  8
0
100
AcDbLine
 10
12.5640589771327
 20
6.835784109274364
 30
0.0
 11
12.56534425411261
 21
6.835503340284327
 31
0.0
  0
LINE
  5
5BD8
330
1F
100
AcDbEntity
  8
0
100
AcDbLine
 10
12.57720170319222
 20
6.997265845520552
 30
0.0
 11
12.57814582561016
 21
6.998772268237765
 31
0.0
  0
LINE
  5
5BD9
330
1F
100
AcDbEntity
  8
0
100
AcDbLine
 10
12.57814582561016
 20
6.998772268237765
 30
0.0
 11
12.57925961900991
 21
7.0001567910656
 31
0.0
  0
LINE
  5
5BDA
330
1F
100
AcDbEntity
  8
0
100
AcDbLine
 10
12.58049710450419
 20
6.809253559986395
 30
0.0
 11
12.58251062390642
 21
6.808473243486042
 31
0.0
  0
LINE
  5
5BDB
330
1F
100
AcDbEntity
  8
0
100
AcDbLine
 10
12.57307462648808
 20
6.816821823743986
 30
0.0
 11
12.57409958274337
 21
6.814913822649068
 31
0.0
  0
LINE
  5
5BDC
330
1F
100
AcDbEntity
  8
0
100
AcDbLine
 10
12.57159456476399
 20
6.829228174055466
 30
0.0
 11
12.57187487089554
 21
6.827937134087926
 31
0.0
  0
LINE
  5
5BDD
330
1F
100
AcDbEntity
  8
0
100
AcDbLine
 10
12.56773125277002
 20
6.834408702948231
 30
0.0
 11
12.56878442190691
 21
6.833617099978646
 31
0.0
  0
LINE
  5
5BDE
330
1F
100
AcDbEntity
  8
0
100
AcDbLine
 10
12.5758722727783
 20
6.99397220357222
 30
0.0
 11
12.57644033527175
 21
6.995658398708095
 31
0.0
  0
LINE
  5
5BDF
330
1F
100
AcDbEntity
  8
0
100
AcDbLine
 10
12.56971478767406
 20
6.832683034430851
 30
0.0
 11
12.57050342604669
 21
6.831625505584676
 31
0.0
  0
LINE
  5
5BE0
330
1F
100
AcDbEntity
  8
0
100
AcDbLine
 10
12.57113429579392
 20
6.830466024014548
 30
0.0
 11
12.57159456476399
 21
6.829228174055466
 31
0.0
  0
LINE
  5
5BE1
330
1F
100
AcDbEntity
  8
0
100
AcDbLine
 10
12.57187487089554
 20
6.827937134087926
 30
0.0
 11
12.57196951264585
 21
6.826619164399198
 31
0.0
  0
LINE
  5
5BE2
330
1F
100
AcDbEntity
  8
0
100
AcDbLine
 10
12.58507223315167
 20
7.004122882701701
 30
0.0
 11
12.58676391833078
 21
7.004652607896425
 31
0.0
  0
LINE
  5
5BE3
330
1F
100
AcDbEntity
  8
0
100
AcDbLine
 10
12.58052764859919
 20
7.001400227481462
 30
0.0
 11
12.58193234220231
 21
7.002485346118398
 31
0.0
  0
LINE
  5
5BE4
330
1F
100
AcDbEntity
  8
0
100
AcDbLine
 10
12.57925961900991
 20
7.0001567910656
 30
0.0
 11
12.58052764859919
 21
7.001400227481462
 31
0.0
  0
LINE
  5
5BE5
330
1F
100
AcDbEntity
  8
0
100
AcDbLine
 10
12.57541622125121
 20
6.987274331500679
 30
0.0
 11
12.5753926292533
 21
6.988678301650559
 31
0.0
  0
LINE
  5
5BE6
330
1F
100
AcDbEntity
  8
0
100
AcDbLine
 10
12.57276343415994
 20
6.980923062894341
 30
0.0
 11
12.57363512507189
 21
6.982020698495909
 31
0.0
  0
LINE
  5
5BE7
330
1F
100
AcDbEntity
  8
0
100
AcDbLine
 10
12.5717496754934
 20
6.979956388789269
 30
0.0
 11
12.57276343415994
 21
6.980923062894341
 31
0.0
  0
LINE
  5
5BE8
330
1F
100
AcDbEntity
  8
0
100
AcDbLine
 10
12.57232785884319
 20
6.818856009405032
 30
0.0
 11
12.57307462648808
 21
6.816821823743986
 31
0.0
  0
LINE
  5
5BE9
330
1F
100
AcDbEntity
  8
0
100
AcDbLine
 10
12.7713314465621
 20
6.993160529952654
 30
0.0
 11
12.77152237151836
 21
6.991408546262115
 31
0.0
  0
LINE
  5
5BEA
330
1F
100
AcDbEntity
  8
0
100
AcDbLine
 10
12.77092099114619
 20
6.994874064748395
 30
0.0
 11
12.7713314465621
 21
6.993160529952654
 31
0.0
  0
LINE
  5
5BEB
330
1F
100
AcDbEntity
  8
0
100
AcDbLine
 10
12.77029762792051
 20
6.996521502966907
 30
0.0
 11
12.77092099114619
 21
6.994874064748395
 31
0.0
  0
LINE
  5
5BEC
330
1F
100
AcDbEntity
  8
0
100
AcDbLine
 10
12.76947141477737
 20
6.998076263386274
 30
0.0
 11
12.77029762792051
 21
6.996521502966907
 31
0.0
  0
LINE
  5
5BED
330
1F
100
AcDbEntity
  8
0
100
AcDbLine
 10
12.76845568256869
 20
6.999513260130009
 30
0.0
 11
12.76947141477737
 21
6.998076263386274
 31
0.0
  0
LINE
  5
5BEE
330
1F
100
AcDbEntity
  8
0
100
AcDbLine
 10
12.76726682001419
 20
7.000809307424625
 30
0.0
 11
12.76845568256869
 21
6.999513260130009
 31
0.0
  0
LINE
  5
5BEF
330
1F
100
AcDbEntity
  8
0
100
AcDbLine
 10
12.76592400927137
 20
7.001943493699465
 30
0.0
 11
12.76726682001419
 21
7.000809307424625
 31
0.0
  0
LINE
  5
5BF0
330
1F
100
AcDbEntity
  8
0
100
AcDbLine
 10
12.76444891643365
 20
7.002897518992363
 30
0.0
 11
12.76592400927137
 21
7.001943493699465
 31
0.0
  0
LINE
  5
5BF1
330
1F
100
AcDbEntity
  8
0
100
AcDbLine
 10
12.76286534195047
 20
7.003655990217418
 30
0.0
 11
12.76444891643365
 21
7.002897518992363
 31
0.0
  0
LINE
  5
5BF2
330
1F
100
AcDbEntity
  8
0
100
AcDbLine
 10
12.76119883660989
 20
7.004206669530611
 30
0.0
 11
12.76286534195047
 21
7.003655990217418
 31
0.0
  0
LINE
  5
5BF3
330
1F
100
AcDbEntity
  8
0
100
AcDbLine
 10
12.7594762892796
 20
7.004540671785982
 30
0.0
 11
12.76119883660989
 21
7.004206669530611
 31
0.0
  0
LINE
  5
5BF4
330
1F
100
AcDbEntity
  8
0
100
AcDbLine
 10
12.75772549305817
 20
7.004652607896425
 30
0.0
 11
12.7594762892796
 21
7.004540671785982
 31
0.0
  0
LINE
  5
5BF5
330
1F
100
AcDbEntity
  8
0
100
AcDbLine
 10
12.58679745669704
 20
7.004122882701701
 30
0.0
 11
12.58848914187614
 21
7.004652607896425
 31
0.0
  0
LINE
  5
5BF6
330
1F
100
AcDbEntity
  8
0
100
AcDbLine
 10
12.58517945731828
 20
7.003397109554961
 30
0.0
 11
12.58679745669704
 21
7.004122882701701
 31
0.0
  0
LINE
  5
5BF7
330
1F
100
AcDbEntity
  8
0
100
AcDbLine
 10
12.58365756574768
 20
7.002485346118398
 30
0.0
 11
12.58517945731828
 21
7.003397109554961
 31
0.0
  0
LINE
  5
5BF8
330
1F
100
AcDbEntity
  8
0
100
AcDbLine
 10
12.58225287214455
 20
7.001400227481462
 30
0.0
 11
12.58365756574768
 21
7.002485346118398
 31
0.0
  0
LINE
  5
5BF9
330
1F
100
AcDbEntity
  8
0
100
AcDbLine
 10
12.58098484255526
 20
7.0001567910656
 30
0.0
 11
12.58225287214455
 21
7.001400227481462
 31
0.0
  0
LINE
  5
5BFA
330
1F
100
AcDbEntity
  8
0
100
AcDbLine
 10
12.57987104915552
 20
6.998772268237765
 30
0.0
 11
12.58098484255526
 21
7.0001567910656
 31
0.0
  0
LINE
  5
5BFB
330
1F
100
AcDbEntity
  8
0
100
AcDbLine
 10
12.57892692673758
 20
6.997265845520552
 30
0.0
 11
12.57987104915552
 21
6.998772268237765
 31
0.0
  0
LINE
  5
5BFC
330
1F
100
AcDbEntity
  8
0
100
AcDbLine
 10
12.57816555881711
 20
6.995658398708095
 30
0.0
 11
12.57892692673758
 21
6.997265845520552
 31
0.0
  0
LINE
  5
5BFD
330
1F
100
AcDbEntity
  8
0
100
AcDbLine
 10
12.57759749632367
 20
6.99397220357222
 30
0.0
 11
12.57816555881711
 21
6.995658398708095
 31
0.0
  0
LINE
  5
5BFE
330
1F
100
AcDbEntity
  8
0
100
AcDbLine
 10
12.57723061138738
 20
6.992230627167935
 30
0.0
 11
12.57759749632367
 21
6.99397220357222
 31
0.0
  0
LINE
  5
5BFF
330
1F
100
AcDbEntity
  8
0
100
AcDbLine
 10
12.57706998824809
 20
6.990457804016082
 30
0.0
 11
12.57723061138738
 21
6.992230627167935
 31
0.0
  0
LINE
  5
5C00
330
1F
100
AcDbEntity
  8
0
100
AcDbLine
 10
12.57711785279867
 20
6.988678301650559
 30
0.0
 11
12.57706998824809
 21
6.990457804016082
 31
0.0
  0
LINE
  5
5C01
330
1F
100
AcDbEntity
  8
0
100
AcDbLine
 10
12.57714144479658
 20
6.987274331500679
 30
0.0
 11
12.57711785279867
 21
6.988678301650559
 31
0.0
  0
LINE
  5
5C02
330
1F
100
AcDbEntity
  8
0
100
AcDbLine
 10
12.57697248656116
 20
6.985880458348455
 30
0.0
 11
12.57714144479658
 21
6.987274331500679
 31
0.0
  0
LINE
  5
5C03
330
1F
100
AcDbEntity
  8
0
100
AcDbLine
 10
12.57661419336385
 20
6.984523207568678
 30
0.0
 11
12.57697248656116
 21
6.985880458348455
 31
0.0
  0
LINE
  5
5C04
330
1F
100
AcDbEntity
  8
0
100
AcDbLine
 10
12.57607338351613
 20
6.983228407613133
 30
0.0
 11
12.57661419336385
 21
6.984523207568678
 31
0.0
  0
LINE
  5
5C05
330
1F
100
AcDbEntity
  8
0
100
AcDbLine
 10
12.57536034861725
 20
6.982020698495909
 30
0.0
 11
12.57607338351613
 21
6.983228407613133
 31
0.0
  0
LINE
  5
5C06
330
1F
100
AcDbEntity
  8
0
100
AcDbLine
 10
12.57448865770531
 20
6.980923062894341
 30
0.0
 11
12.57536034861725
 21
6.982020698495909
 31
0.0
  0
LINE
  5
5C07
330
1F
100
AcDbEntity
  8
0
100
AcDbLine
 10
12.57347489903876
 20
6.979956388789269
 30
0.0
 11
12.57448865770531
 21
6.980923062894341
 31
0.0
  0
LINE
  5
5C08
330
1F
100
AcDbEntity
  8
0
100
AcDbLine
 10
12.57233836442225
 20
6.979139071967161
 30
0.0
 11
12.57347489903876
 21
6.979956388789269
 31
0.0
  0
LINE
  5
5C09
330
1F
100
AcDbEntity
  8
0
100
AcDbLine
 10
12.57110068208397
 20
6.978486665948786
 30
0.0
 11
12.57233836442225
 21
6.979139071967161
 31
0.0
  0
LINE
  5
5C0A
330
1F
100
AcDbEntity
  8
0
100
AcDbLine
 10
12.56978540509102
 20
6.978011586005998
 30
0.0
 11
12.57110068208397
 21
6.978486665948786
 31
0.0
  0
LINE
  5
5C0B
330
1F
100
AcDbEntity
  8
0
100
AcDbLine
 10
12.56841756313498
 20
6.977722872899456
 30
0.0
 11
12.56978540509102
 21
6.978011586005998
 31
0.0
  0
LINE
  5
5C0C
330
1F
100
AcDbEntity
  8
0
100
AcDbLine
 10
12.56702318621756
 20
6.97762602083305
 30
0.0
 11
12.56841756313498
 21
6.977722872899456
 31
0.0
  0
LINE
  5
5C0D
330
1F
100
AcDbEntity
  8
0
100
AcDbLine
 10
12.45852500059553
 20
6.97762602083305
 30
0.0
 11
12.45653124800482
 21
6.977535430022649
 31
0.0
  0
LINE
  5
5C0E
330
1F
100
AcDbEntity
  8
0
100
AcDbLine
 10
12.45653124800482
 20
6.977535430022649
 30
0.0
 11
12.45455377567996
 21
6.977264397323389
 31
0.0
  0
LINE
  5
5C0F
330
1F
100
AcDbEntity
  8
0
100
AcDbLine
 10
12.45455377567996
 20
6.977264397323389
 30
0.0
 11
12.452608730948
 21
6.976815135890711
 31
0.0
  0
LINE
  5
5C10
330
1F
100
AcDbEntity
  8
0
100
AcDbLine
 10
12.452608730948
 20
6.976815135890711
 30
0.0
 11
12.45071199634394
 21
6.976191314231734
 31
0.0
  0
LINE
  5
5C11
330
1F
100
AcDbEntity
  8
0
100
AcDbLine
 10
12.45071199634394
 20
6.976191314231734
 30
0.0
 11
12.44887905991969
 21
6.975398026249529
 31
0.0
  0
LINE
  5
5C12
330
1F
100
AcDbEntity
  8
0
100
AcDbLine
 10
12.44887905991969
 20
6.975398026249529
 30
0.0
 11
12.44712488877418
 21
6.974441749648144
 31
0.0
  0
LINE
  5
5C13
330
1F
100
AcDbEntity
  8
0
100
AcDbLine
 10
12.44712488877418
 20
6.974441749648144
 30
0.0
 11
12.44546380683742
 21
6.973330293038011
 31
0.0
  0
LINE
  5
5C14
330
1F
100
AcDbEntity
  8
0
100
AcDbLine
 10
12.44546380683742
 20
6.973330293038011
 30
0.0
 11
12.44390937790647
 21
6.972072732173679
 31
0.0
  0
LINE
  5
5C15
330
1F
100
AcDbEntity
  8
0
100
AcDbLine
 10
12.44390937790647
 20
6.972072732173679
 30
0.0
 11
12.44247429488834
 21
6.970679335844374
 31
0.0
  0
LINE
  5
5C16
330
1F
100
AcDbEntity
  8
0
100
AcDbLine
 10
12.44247429488834
 20
6.970679335844374
 30
0.0
 11
12.44117027615428
 21
6.969161482022891
 31
0.0
  0
LINE
  5
5C17
330
1F
100
AcDbEntity
  8
0
100
AcDbLine
 10
12.44117027615428
 20
6.969161482022891
 30
0.0
 11
12.44000796985179
 21
6.967531564957035
 31
0.0
  0
LINE
  5
5C18
330
1F
100
AcDbEntity
  8
0
100
AcDbLine
 10
12.44000796985179
 20
6.967531564957035
 30
0.0
 11
12.43899686695568
 21
6.965802893962753
 31
0.0
  0
LINE
  5
5C19
330
1F
100
AcDbEntity
  8
0
100
AcDbLine
 10
12.43899686695568
 20
6.847802893962758
 30
0.0
 11
12.43899686695568
 21
6.965802893962753
 31
0.0
  0
LINE
  5
5C1A
330
1F
100
AcDbEntity
  8
0
100
AcDbLine
 10
12.43899686695568
 20
6.847802893962758
 30
0.0
 11
12.43982697335985
 21
6.846085662726118
 31
0.0
  0
LINE
  5
5C1B
330
1F
100
AcDbEntity
  8
0
100
AcDbLine
 10
12.43982697335985
 20
6.846085662726118
 30
0.0
 11
12.44081917432085
 21
6.844457547767285
 31
0.0
  0
LINE
  5
5C1C
330
1F
100
AcDbEntity
  8
0
100
AcDbLine
 10
12.44081917432085
 20
6.844457547767285
 30
0.0
 11
12.4419640878577
 21
6.842933944096153
 31
0.0
  0
LINE
  5
5C1D
330
1F
100
AcDbEntity
  8
0
100
AcDbLine
 10
12.4419640878577
 20
6.842933944096153
 30
0.0
 11
12.44325088798104
 21
6.841529258492422
 31
0.0
  0
LINE
  5
5C1E
330
1F
100
AcDbEntity
  8
0
100
AcDbLine
 10
12.44325088798104
 20
6.841529258492422
 30
0.0
 11
12.44466740706075
 21
6.840256773279087
 31
0.0
  0
LINE
  5
5C1F
330
1F
100
AcDbEntity
  8
0
100
AcDbLine
 10
12.44466740706075
 20
6.840256773279087
 30
0.0
 11
12.44620025087973
 21
6.839128520728402
 31
0.0
  0
LINE
  5
5C20
330
1F
100
AcDbEntity
  8
0
100
AcDbLine
 10
12.44620025087973
 20
6.839128520728402
 30
0.0
 11
12.44783492528595
 21
6.838155169287994
 31
0.0
  0
LINE
  5
5C21
330
1F
100
AcDbEntity
  8
0
100
AcDbLine
 10
12.44783492528595
 20
6.838155169287994
 30
0.0
 11
12.44955597324518
 21
6.837345922702945
 31
0.0
  0
LINE
  5
5C22
330
1F
100
AcDbEntity
  8
0
100
AcDbLine
 10
12.44955597324518
 20
6.837345922702945
 30
0.0
 11
12.4513471209985
 21
6.836708432987671
 31
0.0
  0
LINE
  5
5C23
330
1F
100
AcDbEntity
  8
0
100
AcDbLine
 10
12.4513471209985
 20
6.836708432987671
 30
0.0
 11
12.4531914319425
 21
6.836248728070636
 31
0.0
  0
LINE
  5
5C24
330
1F
100
AcDbEntity
  8
0
100
AcDbLine
 10
12.4531914319425
 20
6.836248728070636
 30
0.0
 11
12.45507146677718
 21
6.835971154795836
 31
0.0
  0
LINE
  5
5C25
330
1F
100
AcDbEntity
  8
0
100
AcDbLine
 10
12.45507146677718
 20
6.835971154795836
 30
0.0
 11
12.4569694484072
 21
6.835878337820241
 31
0.0
  0
LINE
  5
5C26
330
1F
100
AcDbEntity
  8
0
100
AcDbLine
 10
12.56447223783085
 20
6.835878337820241
 30
0.0
 11
12.56578420067806
 21
6.835784109274364
 31
0.0
  0
LINE
  5
5C27
330
1F
100
AcDbEntity
  8
0
100
AcDbLine
 10
12.56578420067806
 20
6.835784109274364
 30
0.0
 11
12.56706947765797
 21
6.835503340284327
 31
0.0
  0
LINE
  5
5C28
330
1F
100
AcDbEntity
  8
0
100
AcDbLine
 10
12.56706947765797
 20
6.835503340284327
 30
0.0
 11
12.56830192570486
 21
6.835041741807594
 31
0.0
  0
LINE
  5
5C29
330
1F
100
AcDbEntity
  8
0
100
AcDbLine
 10
12.56830192570486
 20
6.835041741807594
 30
0.0
 11
12.56945647631538
 21
6.834408702948231
 31
0.0
  0
LINE
  5
5C2A
330
1F
100
AcDbEntity
  8
0
100
AcDbLine
 10
12.56945647631538
 20
6.834408702948231
 30
0.0
 11
12.57050964545228
 21
6.833617099978646
 31
0.0
  0
LINE
  5
5C2B
330
1F
100
AcDbEntity
  8
0
100
AcDbLine
 10
12.57050964545228
 20
6.833617099978646
 30
0.0
 11
12.57144001121943
 21
6.832683034430851
 31
0.0
  0
LINE
  5
5C2C
330
1F
100
AcDbEntity
  8
0
100
AcDbLine
 10
12.57144001121943
 20
6.832683034430851
 30
0.0
 11
12.57222864959206
 21
6.831625505584676
 31
0.0
  0
LINE
  5
5C2D
330
1F
100
AcDbEntity
  8
0
100
AcDbLine
 10
12.57222864959206
 20
6.831625505584676
 30
0.0
 11
12.57285951933929
 21
6.830466024014548
 31
0.0
  0
LINE
  5
5C2E
330
1F
100
AcDbEntity
  8
0
100
AcDbLine
 10
12.57285951933929
 20
6.830466024014548
 30
0.0
 11
12.57331978830935
 21
6.829228174055466
 31
0.0
  0
LINE
  5
5C2F
330
1F
100
AcDbEntity
  8
0
100
AcDbLine
 10
12.57331978830935
 20
6.829228174055466
 30
0.0
 11
12.5736000944409
 21
6.827937134087926
 31
0.0
  0
LINE
  5
5C30
330
1F
100
AcDbEntity
  8
0
100
AcDbLine
 10
12.5736000944409
 20
6.827937134087926
 30
0.0
 11
12.57369473619121
 21
6.826619164399198
 31
0.0
  0
LINE
  5
5C31
330
1F
100
AcDbEntity
  8
0
100
AcDbLine
 10
12.57369473619121
 20
6.826619164399198
 30
0.0
 11
12.57360178850791
 21
6.825301073038212
 31
0.0
  0
LINE
  5
5C32
330
1F
100
AcDbEntity
  8
0
100
AcDbLine
 10
12.57360178850791
 20
6.825301073038212
 30
0.0
 11
12.57344799989383
 21
6.823138465027676
 31
0.0
  0
LINE
  5
5C33
330
1F
100
AcDbEntity
  8
0
100
AcDbLine
 10
12.57344799989383
 20
6.823138465027676
 30
0.0
 11
12.57359944094573
 21
6.820975689820607
 31
0.0
  0
LINE
  5
5C34
330
1F
100
AcDbEntity
  8
0
100
AcDbLine
 10
12.57359944094573
 20
6.820975689820607
 30
0.0
 11
12.57405308238855
 21
6.818856009405032
 31
0.0
  0
LINE
  5
5C35
330
1F
100
AcDbEntity
  8
0
100
AcDbLine
 10
12.57405308238855
 20
6.818856009405032
 30
0.0
 11
12.57479985003344
 21
6.816821823743986
 31
0.0
  0
LINE
  5
5C36
330
1F
100
AcDbEntity
  8
0
100
AcDbLine
 10
12.57479985003344
 20
6.816821823743986
 30
0.0
 11
12.57582480628873
 21
6.814913822649068
 31
0.0
  0
LINE
  5
5C37
330
1F
100
AcDbEntity
  8
0
100
AcDbLine
 10
12.57582480628873
 20
6.814913822649068
 30
0.0
 11
12.57710744895653
 21
6.81317017186229
 31
0.0
  0
LINE
  5
5C38
330
1F
100
AcDbEntity
  8
0
100
AcDbLine
 10
12.57710744895653
 20
6.81317017186229
 30
0.0
 11
12.57862212133818
 21
6.811625749626778
 31
0.0
  0
LINE
  5
5C39
330
1F
100
AcDbEntity
  8
0
100
AcDbLine
 10
12.57862212133818
 20
6.811625749626778
 30
0.0
 11
12.58033852544514
 21
6.810311449017341
 31
0.0
  0
LINE
  5
5C3A
330
1F
100
AcDbEntity
  8
0
100
AcDbLine
 10
12.58033852544514
 20
6.810311449017341
 30
0.0
 11
12.58222232804955
 21
6.809253559986395
 31
0.0
  0
LINE
  5
5C3B
330
1F
100
AcDbEntity
  8
0
100
AcDbLine
 10
12.58222232804955
 20
6.809253559986395
 30
0.0
 11
12.58423584745179
 21
6.808473243486042
 31
0.0
  0
LINE
  5
5C3C
330
1F
100
AcDbEntity
  8
0
100
AcDbLine
 10
12.58423584745179
 20
6.808473243486042
 30
0.0
 11
12.58633880722735
 21
6.807986108185681
 31
0.0
  0
LINE
  5
5C3D
330
1F
100
AcDbEntity
  8
0
100
AcDbLine
 10
12.58633880722735
 20
6.807986108185681
 30
0.0
 11
12.58848914187614
 21
6.80780189825169
 31
0.0
  0
LINE
  5
5C3E
330
1F
100
AcDbEntity
  8
0
100
AcDbLine
 10
12.76168808039203
 20
6.80780189825169
 30
0.0
 11
12.76309820945313
 21
6.808453231065294
 31
0.0
  0
LINE
  5
5C3F
330
1F
100
AcDbEntity
  8
0
100
AcDbLine
 10
12.76309820945313
 20
6.808453231065294
 30
0.0
 11
12.76443726156255
 21
6.809241551780382
 31
0.0
  0
LINE
  5
5C40
330
1F
100
AcDbEntity
  8
0
100
AcDbLine
 10
12.76443726156255
 20
6.809241551780382
 30
0.0
 11
12.76569209234226
 21
6.810159122098064
 31
0.0
  0
LINE
  5
5C41
330
1F
100
AcDbEntity
  8
0
100
AcDbLine
 10
12.76569209234226
 20
6.810159122098064
 30
0.0
 11
12.76685038414607
 21
6.811196934981915
 31
0.0
  0
LINE
  5
5C42
330
1F
100
AcDbEntity
  8
0
100
AcDbLine
 10
12.76685038414607
 20
6.811196934981915
 30
0.0
 11
12.76790076697182
 21
6.812344803072684
 31
0.0
  0
LINE
  5
5C43
330
1F
100
AcDbEntity
  8
0
100
AcDbLine
 10
12.76790076697182
 20
6.812344803072684
 30
0.0
 11
12.76883293007148
 21
6.81359145868931
 31
0.0
  0
LINE
  5
5C44
330
1F
100
AcDbEntity
  8
0
100
AcDbLine
 10
12.76883293007148
 20
6.81359145868931
 30
0.0
 11
12.76963772316322
 21
6.81492466443445
 31
0.0
  0
LINE
  5
5C45
330
1F
100
AcDbEntity
  8
0
100
AcDbLine
 10
12.76963772316322
 20
6.81492466443445
 30
0.0
 11
12.77030724625229
 21
6.816331333319078
 31
0.0
  0
LINE
  5
5C46
330
1F
100
AcDbEntity
  8
0
100
AcDbLine
 10
12.77030724625229
 20
6.816331333319078
 30
0.0
 11
12.7708349271788
 21
6.817797657226628
 31
0.0
  0
LINE
  5
5C47
330
1F
100
AcDbEntity
  8
0
100
AcDbLine
 10
12.7708349271788
 20
6.817797657226628
 30
0.0
 11
12.77121558613118
 21
6.819309242456051
 31
0.0
  0
LINE
  5
5C48
330
1F
100
AcDbEntity
  8
0
100
AcDbLine
 10
12.77121558613118
 20
6.819309242456051
 30
0.0
 11
12.77144548649223
 21
6.820851251012975
 31
0.0
  0
LINE
  5
5C49
330
1F
100
AcDbEntity
  8
0
100
AcDbLine
 10
12.77144548649223
 20
6.820851251012975
 30
0.0
 11
12.77152237151836
 21
6.822408546262097
 31
0.0
  0
LINE
  5
5C4A
330
1F
100
AcDbEntity
  8
0
100
AcDbLine
 10
12.58676391833078
 20
7.004652607896425
 30
0.0
 11
12.58848914187614
 21
7.004652607896425
 31
0.0
  0
LINE
  5
5C4B
330
1F
100
AcDbEntity
  8
0
100
AcDbLine
 10
12.5753926292533
 20
6.988678301650559
 30
0.0
 11
12.57711785279867
 21
6.988678301650559
 31
0.0
  0
LINE
  5
5C4C
330
1F
100
AcDbEntity
  8
0
100
AcDbLine
 10
12.45679977705017
 20
6.97762602083305
 30
0.0
 11
12.45852500059553
 21
6.97762602083305
 31
0.0
  0
LINE
  5
5C4D
330
1F
100
AcDbEntity
  8
0
100
AcDbLine
 10
12.43727164341032
 20
6.965802893962753
 30
0.0
 11
12.43899686695568
 21
6.965802893962753
 31
0.0
  0
LINE
  5
5C4E
330
1F
100
AcDbEntity
  8
0
100
AcDbLine
 10
12.43727164341032
 20
6.847802893962758
 30
0.0
 11
12.43899686695568
 21
6.847802893962758
 31
0.0
  0
LINE
  5
5C4F
330
1F
100
AcDbEntity
  8
0
100
AcDbLine
 10
12.45524422486183
 20
6.835878337820241
 30
0.0
 11
12.4569694484072
 21
6.835878337820241
 31
0.0
  0
LINE
  5
5C50
330
1F
100
AcDbEntity
  8
0
100
AcDbLine
 10
12.56274701428549
 20
6.835878337820241
 30
0.0
 11
12.56447223783085
 21
6.835878337820241
 31
0.0
  0
LINE
  5
5C51
330
1F
100
AcDbEntity
  8
0
100
AcDbLine
 10
12.57187656496254
 20
6.825301073038212
 30
0.0
 11
12.57360178850791
 21
6.825301073038212
 31
0.0
  0
LINE
  5
5C52
330
1F
100
AcDbEntity
  8
0
100
AcDbLine
 10
12.58676391833078
 20
6.80780189825169
 30
0.0
 11
12.58848914187614
 21
6.80780189825169
 31
0.0
  0
LINE
  5
5C53
330
1F
100
AcDbEntity
  8
0
100
AcDbLine
 10
12.38915804604047
 20
6.966908546262112
 30
0.0
 11
12.43791834150711
 21
6.966908546262112
 31
0.0
  0
LINE
  5
5C54
330
1F
100
AcDbEntity
  8
0
100
AcDbLine
 10
12.35423268105108
 20
6.846908546262107
 30
0.0
 11
12.43770396943492
 21
6.846908546262107
 31
0.0
  0
LINE
  5
5C55
330
1F
100
AcDbEntity
  8
0
100
AcDbLine
 10
12.35741881157109
 20
7.061493108706764
 30
0.0
 11
12.35434395255099
 21
7.057269521754997
 31
0.0
  0
LINE
  5
5C56
330
1F
100
AcDbEntity
  8
0
100
AcDbLine
 10
12.35741881157109
 20
7.061493108706764
 30
0.0
 11
12.35861209758041
 21
7.064387280165527
 31
0.0
  0
LINE
  5
5C57
330
1F
100
AcDbEntity
  8
0
100
AcDbLine
 10
12.35861209758041
 20
7.064387280165527
 30
0.0
 11
12.3590191052161
 21
7.067493108706764
 31
0.0
  0
LINE
  5
5C58
330
1F
100
AcDbEntity
  8
0
100
AcDbLine
 10
12.3590191052161
 20
7.067493108706764
 30
0.0
 11
12.35861209758041
 21
7.070598937247987
 31
0.0
  0
LINE
  5
5C59
330
1F
100
AcDbEntity
  8
0
100
AcDbLine
 10
12.35861209758041
 20
7.070598937247987
 30
0.0
 11
12.35741881157109
 21
7.073493108706764
 31
0.0
  0
LINE
  5
5C5A
330
1F
100
AcDbEntity
  8
0
100
AcDbLine
 10
12.35741881157109
 20
7.073493108706764
 30
0.0
 11
12.35552056765769
 21
7.075978390080998
 31
0.0
  0
LINE
  5
5C5B
330
1F
100
AcDbEntity
  8
0
100
AcDbLine
 10
12.35552056765769
 20
7.075978390080998
 30
0.0
 11
12.3530467280259
 21
7.077885413552174
 31
0.0
  0
LINE
  5
5C5C
330
1F
100
AcDbEntity
  8
0
100
AcDbLine
 10
12.3530467280259
 20
7.077885413552174
 30
0.0
 11
12.35016588075842
 21
7.079084218622235
 31
0.0
  0
LINE
  5
5C5D
330
1F
100
AcDbEntity
  8
0
100
AcDbLine
 10
12.35016588075842
 20
7.079084218622235
 30
0.0
 11
12.3470743508357
 21
7.079493108706764
 31
0.0
  0
LINE
  5
5C5E
330
1F
100
AcDbEntity
  8
0
100
AcDbLine
 10
12.3470743508357
 20
7.079493108706764
 30
0.0
 11
12.34398282091297
 21
7.079084218622235
 31
0.0
  0
LINE
  5
5C5F
330
1F
100
AcDbEntity
  8
0
100
AcDbLine
 10
12.34398282091297
 20
7.079084218622235
 30
0.0
 11
12.34110197364549
 21
7.077885413552174
 31
0.0
  0
LINE
  5
5C60
330
1F
100
AcDbEntity
  8
0
100
AcDbLine
 10
12.34110197364549
 20
7.077885413552174
 30
0.0
 11
12.3386281340137
 21
7.075978390080998
 31
0.0
  0
LINE
  5
5C61
330
1F
100
AcDbEntity
  8
0
100
AcDbLine
 10
12.3386281340137
 20
7.075978390080998
 30
0.0
 11
12.33672989010029
 21
7.073493108706764
 31
0.0
  0
LINE
  5
5C62
330
1F
100
AcDbEntity
  8
0
100
AcDbLine
 10
12.33672989010029
 20
7.073493108706764
 30
0.0
 11
12.33266159029261
 21
7.067904944218164
 31
0.0
  0
LINE
  5
5C63
330
1F
100
AcDbEntity
  8
0
100
AcDbLine
 10
12.3315400991442
 20
7.065109389260435
 30
0.0
 11
12.33266159029261
 21
7.067904944218164
 31
0.0
  0
LINE
  5
5C64
330
1F
100
AcDbEntity
  8
0
100
AcDbLine
 10
12.3315400991442
 20
7.065109389260435
 30
0.0
 11
12.32781594940502
 21
7.049014848921211
 31
0.0
  0
LINE
  5
5C65
330
1F
100
AcDbEntity
  8
0
100
AcDbLine
 10
12.32781594940502
 20
7.049014848921211
 30
0.0
 11
12.32461794952369
 21
7.023412132556935
 31
0.0
  0
LINE
  5
5C66
330
1F
100
AcDbEntity
  8
0
100
AcDbLine
 10
12.35118912336817
 20
7.043635396088199
 30
0.0
 11
12.3481995407393
 21
7.01970123757193
 31
0.0
  0
LINE
  5
5C67
330
1F
100
AcDbEntity
  8
0
100
AcDbLine
 10
12.3244214337696
 20
7.021215980134237
 30
0.0
 11
12.32461794952369
 21
7.023412132556935
 31
0.0
  0
LINE
  5
5C68
330
1F
100
AcDbEntity
  8
0
100
AcDbLine
 10
12.3244214337696
 20
7.021215980134237
 30
0.0
 11
12.32201482912396
 21
6.988493108706756
 31
0.0
  0
LINE
  5
5C69
330
1F
100
AcDbEntity
  8
0
100
AcDbLine
 10
12.34439148295959
 20
6.950386517832961
 30
0.0
 11
12.3438754763179
 21
6.909493108706763
 31
0.0
  0
LINE
  5
5C6A
330
1F
100
AcDbEntity
  8
0
100
AcDbLine
 10
12.32050197419878
 20
6.950386517832961
 30
0.0
 11
12.31998596755709
 21
6.909493108706763
 31
0.0
  0
LINE
  5
5C6B
330
1F
100
AcDbEntity
  8
0
100
AcDbLine
 10
12.32461794952369
 20
6.795574084856576
 30
0.0
 11
12.32781594940502
 21
6.769971368492314
 31
0.0
  0
LINE
  5
5C6C
330
1F
100
AcDbEntity
  8
0
100
AcDbLine
 10
12.3244214337696
 20
6.797770237279288
 30
0.0
 11
12.32461794952369
 21
6.795574084856576
 31
0.0
  0
LINE
  5
5C6D
330
1F
100
AcDbEntity
  8
0
100
AcDbLine
 10
12.35434395255098
 20
6.761716695658528
 30
0.0
 11
12.35741881157109
 21
6.757493108706762
 31
0.0
  0
LINE
  5
5C6E
330
1F
100
AcDbEntity
  8
0
100
AcDbLine
 10
12.32201482912396
 20
6.830493108706755
 30
0.0
 11
12.3244214337696
 21
6.797770237279288
 31
0.0
  0
LINE
  5
5C6F
330
1F
100
AcDbEntity
  8
0
100
AcDbLine
 10
12.3481995407393
 20
6.799284979841595
 30
0.0
 11
12.35118912336817
 21
6.775350821325326
 31
0.0
  0
LINE
  5
5C70
330
1F
100
AcDbEntity
  8
0
100
AcDbLine
 10
12.32781594940502
 20
6.769971368492314
 30
0.0
 11
12.3315400991442
 21
6.75387682815309
 31
0.0
  0
LINE
  5
5C71
330
1F
100
AcDbEntity
  8
0
100
AcDbLine
 10
12.3315400991442
 20
6.75387682815309
 30
0.0
 11
12.33266159029261
 21
6.751081273195347
 31
0.0
  0
LINE
  5
5C72
330
1F
100
AcDbEntity
  8
0
100
AcDbLine
 10
12.34824436378661
 20
6.830493108706755
 30
0.0
 11
12.34889606668065
 21
6.846908546262107
 31
0.0
  0
LINE
  5
5C73
330
1F
100
AcDbEntity
  8
0
100
AcDbLine
 10
12.35552056765769
 20
6.743007827332527
 30
0.0
 11
12.35741881157109
 21
6.745493108706761
 31
0.0
  0
LINE
  5
5C74
330
1F
100
AcDbEntity
  8
0
100
AcDbLine
 10
12.3530467280259
 20
6.741100803861351
 30
0.0
 11
12.35552056765769
 21
6.743007827332527
 31
0.0
  0
LINE
  5
5C75
330
1F
100
AcDbEntity
  8
0
100
AcDbLine
 10
12.35016588075842
 20
6.73990199879129
 30
0.0
 11
12.3530467280259
 21
6.741100803861351
 31
0.0
  0
LINE
  5
5C76
330
1F
100
AcDbEntity
  8
0
100
AcDbLine
 10
12.3470743508357
 20
6.739493108706761
 30
0.0
 11
12.35016588075842
 21
6.73990199879129
 31
0.0
  0
LINE
  5
5C77
330
1F
100
AcDbEntity
  8
0
100
AcDbLine
 10
12.34398282091297
 20
6.73990199879129
 30
0.0
 11
12.3470743508357
 21
6.739493108706761
 31
0.0
  0
LINE
  5
5C78
330
1F
100
AcDbEntity
  8
0
100
AcDbLine
 10
12.34110197364549
 20
6.741100803861351
 30
0.0
 11
12.34398282091297
 21
6.73990199879129
 31
0.0
  0
LINE
  5
5C79
330
1F
100
AcDbEntity
  8
0
100
AcDbLine
 10
12.3386281340137
 20
6.743007827332513
 30
0.0
 11
12.34110197364549
 21
6.741100803861351
 31
0.0
  0
LINE
  5
5C7A
330
1F
100
AcDbEntity
  8
0
100
AcDbLine
 10
12.33266159029261
 20
6.751081273195347
 30
0.0
 11
12.33672989010029
 21
6.745493108706761
 31
0.0
  0
LINE
  5
5C7B
330
1F
100
AcDbEntity
  8
0
100
AcDbLine
 10
12.33672989010029
 20
6.745493108706761
 30
0.0
 11
12.3386281340137
 21
6.743007827332513
 31
0.0
  0
LINE
  5
5C7C
330
1F
100
AcDbEntity
  8
0
100
AcDbLine
 10
12.35741881157109
 20
6.745493108706761
 30
0.0
 11
12.36148711137877
 21
6.751081273195347
 31
0.0
  0
LINE
  5
5C7D
330
1F
100
AcDbEntity
  8
0
100
AcDbLine
 10
12.36148711137877
 20
6.751081273195347
 30
0.0
 11
12.36260860252718
 21
6.75387682815309
 31
0.0
  0
LINE
  5
5C7E
330
1F
100
AcDbEntity
  8
0
100
AcDbLine
 10
12.36260860252718
 20
6.75387682815309
 30
0.0
 11
12.36633275226637
 21
6.769971368492314
 31
0.0
  0
LINE
  5
5C7F
330
1F
100
AcDbEntity
  8
0
100
AcDbLine
 10
12.36633275226637
 20
6.769971368492314
 30
0.0
 11
12.3695307521477
 21
6.795574084856576
 31
0.0
  0
LINE
  5
5C80
330
1F
100
AcDbEntity
  8
0
100
AcDbLine
 10
12.3695307521477
 20
6.795574084856576
 30
0.0
 11
12.36972726790179
 21
6.797770237279288
 31
0.0
  0
LINE
  5
5C81
330
1F
100
AcDbEntity
  8
0
100
AcDbLine
 10
12.36633275226637
 20
7.049014848921211
 30
0.0
 11
12.36260860252718
 21
7.065109389260435
 31
0.0
  0
LINE
  5
5C82
330
1F
100
AcDbEntity
  8
0
100
AcDbLine
 10
12.36972726790179
 20
6.797770237279288
 30
0.0
 11
12.37213387254742
 21
6.830493108706755
 31
0.0
  0
LINE
  5
5C83
330
1F
100
AcDbEntity
  8
0
100
AcDbLine
 10
12.34707435083569
 20
6.814584312290727
 30
0.0
 11
12.34824436378661
 21
6.830493108706755
 31
0.0
  0
LINE
  5
5C84
330
1F
100
AcDbEntity
  8
0
100
AcDbLine
 10
12.37213387254742
 20
6.830493108706755
 30
0.0
 11
12.37278557544147
 21
6.846908546262107
 31
0.0
  0
LINE
  5
5C85
330
1F
100
AcDbEntity
  8
0
100
AcDbLine
 10
12.37295845753675
 20
6.967723025398776
 30
0.0
 11
12.37213387254742
 21
6.988493108706756
 31
0.0
  0
LINE
  5
5C86
330
1F
100
AcDbEntity
  8
0
100
AcDbLine
 10
12.34906894877594
 20
6.967723025398776
 30
0.0
 11
12.34824436378661
 21
6.988493108706756
 31
0.0
  0
LINE
  5
5C87
330
1F
100
AcDbEntity
  8
0
100
AcDbLine
 10
12.37213387254742
 20
6.988493108706756
 30
0.0
 11
12.36972726790179
 21
7.021215980134237
 31
0.0
  0
LINE
  5
5C88
330
1F
100
AcDbEntity
  8
0
100
AcDbLine
 10
12.3695307521477
 20
7.023412132556935
 30
0.0
 11
12.36972726790179
 21
7.021215980134237
 31
0.0
  0
LINE
  5
5C89
330
1F
100
AcDbEntity
  8
0
100
AcDbLine
 10
12.34824436378661
 20
6.988493108706756
 30
0.0
 11
12.34707435083569
 21
7.004401905122798
 31
0.0
  0
LINE
  5
5C8A
330
1F
100
AcDbEntity
  8
0
100
AcDbLine
 10
12.3695307521477
 20
7.023412132556935
 30
0.0
 11
12.36633275226637
 21
7.049014848921211
 31
0.0
  0
LINE
  5
5C8B
330
1F
100
AcDbEntity
  8
0
100
AcDbLine
 10
12.36148711137877
 20
7.067904944218164
 30
0.0
 11
12.36260860252718
 21
7.065109389260435
 31
0.0
  0
LINE
  5
5C8C
330
1F
100
AcDbEntity
  8
0
100
AcDbLine
 10
12.36148711137877
 20
7.067904944218164
 30
0.0
 11
12.35741881157109
 21
7.073493108706764
 31
0.0
  0
LINE
  5
5C8D
330
1F
100
AcDbEntity
  8
0
100
AcDbLine
 10
12.34496065106368
 20
6.964723025398776
 30
0.0
 11
12.38915804604047
 21
6.964723025398776
 31
0.0
  0
LINE
  5
5C8E
330
1F
100
AcDbEntity
  8
0
100
AcDbLine
 10
12.34906894877594
 20
6.967723025398776
 30
0.0
 11
12.34507975289545
 21
6.967723025398776
 31
0.0
  0
LINE
  5
5C8F
330
1F
100
AcDbEntity
  8
0
100
AcDbLine
 10
12.38915804604047
 20
6.964723025398776
 30
0.0
 11
12.38915804604047
 21
6.967723025398776
 31
0.0
  0
LINE
  5
5C90
330
1F
100
AcDbEntity
  8
0
100
AcDbLine
 10
12.38915804604047
 20
6.846908546262107
 30
0.0
 11
12.38915804604047
 21
6.849908546262107
 31
0.0
  0
LINE
  5
5C91
330
1F
100
AcDbEntity
  8
0
100
AcDbLine
 10
12.34889606668065
 20
6.846908546262107
 30
0.0
 11
12.34525263499073
 21
6.846908546262107
 31
0.0
  0
LINE
  5
5C92
330
1F
100
AcDbEntity
  8
0
100
AcDbLine
 10
12.43727164341032
 20
6.847802893962758
 30
0.0
 11
12.43770396943492
 21
6.846908546262107
 31
0.0
  0
LINE
  5
5C93
330
1F
100
AcDbEntity
  8
0
100
AcDbLine
 10
12.43770396943492
 20
6.846908546262107
 30
0.0
 11
12.43810174981448
 21
6.846085662726118
 31
0.0
  0
LINE
  5
5C94
330
1F
100
AcDbEntity
  8
0
100
AcDbLine
 10
12.43828274630643
 20
6.967531564957035
 30
0.0
 11
12.43791834150711
 21
6.966908546262112
 31
0.0
  0
LINE
  5
5C95
330
1F
100
AcDbEntity
  8
0
100
AcDbLine
 10
12.43791834150711
 20
6.966908546262112
 30
0.0
 11
12.43727164341032
 21
6.965802893962753
 31
0.0
  0
LINE
  5
5C96
330
1F
100
AcDbEntity
  8
0
100
AcDbLine
 10
12.4569694484072
 20
6.835878337820241
 30
0.0
 11
12.56274701428549
 21
6.835878337820241
 31
0.0
  0
LINE
  5
5C97
330
1F
100
AcDbEntity
  8
0
100
AcDbLine
 10
12.56529796267219
 20
6.97762602083305
 30
0.0
 11
12.45852500059553
 21
6.97762602083305
 31
0.0
  0
LINE
  5
5C98
330
1F
100
AcDbEntity
  8
0
100
AcDbLine
 10
12.43727164341032
 20
6.847802893962758
 30
0.0
 11
12.43727164341032
 21
6.906908546262109
 31
0.0
  0
LINE
  5
5C99
330
1F
100
AcDbEntity
  8
0
100
AcDbLine
 10
12.43727164341032
 20
6.906908546262109
 30
0.0
 11
12.43727164341032
 21
6.965802893962753
 31
0.0
  0
LINE
  5
5C9A
330
1F
100
AcDbEntity
  8
0
100
AcDbLine
 10
12.77152237151836
 20
6.822408546262097
 30
0.0
 11
12.77152237151836
 21
6.991408546262115
 31
0.0
  0
LINE
  5
5C9B
330
1F
100
AcDbEntity
  8
0
100
AcDbLine
 10
12.56702318621756
 20
6.97762602083305
 30
0.0
 11
12.56529796267219
 21
6.97762602083305
 31
0.0
  0
LINE
  5
5C9C
330
1F
100
AcDbEntity
  8
0
100
AcDbLine
 10
12.35476968338555
 20
7.059109389260435
 30
0.0
 11
12.35434395255099
 21
7.057269521754997
 31
0.0
  0
LINE
  5
5C9D
330
1F
100
AcDbEntity
  8
0
100
AcDbLine
 10
12.34831094253041
 20
7.021215980134237
 30
0.0
 11
12.3481995407393
 21
7.01970123757193
 31
0.0
  0
LINE
  5
5C9E
330
1F
100
AcDbEntity
  8
0
100
AcDbLine
 10
12.34590433788478
 20
6.988493108706756
 30
0.0
 11
12.34507975289545
 21
6.967723025398776
 31
0.0
  0
LINE
  5
5C9F
330
1F
100
AcDbEntity
  8
0
100
AcDbLine
 10
12.32201482912396
 20
6.988493108706756
 30
0.0
 11
12.32117014472251
 21
6.967216750764088
 31
0.0
  0
LINE
  5
5CA0
330
1F
100
AcDbEntity
  8
0
100
AcDbLine
 10
12.32117014472251
 20
6.967216750764088
 30
0.0
 11
12.32050197419878
 21
6.950386517832961
 31
0.0
  0
LINE
  5
5CA1
330
1F
100
AcDbEntity
  8
0
100
AcDbLine
 10
12.3438754763179
 20
6.909493108706763
 30
0.0
 11
12.34390420015978
 21
6.907216750764086
 31
0.0
  0
LINE
  5
5CA2
330
1F
100
AcDbEntity
  8
0
100
AcDbLine
 10
12.34390420015978
 20
6.907216750764086
 30
0.0
 11
12.34439148295959
 21
6.868599699580564
 31
0.0
  0
LINE
  5
5CA3
330
1F
100
AcDbEntity
  8
0
100
AcDbLine
 10
12.31998596755709
 20
6.909493108706763
 30
0.0
 11
12.32001469139896
 21
6.907216750764086
 31
0.0
  0
LINE
  5
5CA4
330
1F
100
AcDbEntity
  8
0
100
AcDbLine
 10
12.32001469139896
 20
6.907216750764086
 30
0.0
 11
12.32050197419878
 21
6.868599699580564
 31
0.0
  0
LINE
  5
5CA5
330
1F
100
AcDbEntity
  8
0
100
AcDbLine
 10
12.34439148295959
 20
6.868599699580564
 30
0.0
 11
12.34513353315896
 21
6.849908546262107
 31
0.0
  0
LINE
  5
5CA6
330
1F
100
AcDbEntity
  8
0
100
AcDbLine
 10
12.32050197419878
 20
6.868599699580564
 30
0.0
 11
12.32135089032301
 21
6.847216750764084
 31
0.0
  0
LINE
  5
5CA7
330
1F
100
AcDbEntity
  8
0
100
AcDbLine
 10
12.32135089032301
 20
6.847216750764084
 30
0.0
 11
12.32201482912396
 21
6.830493108706755
 31
0.0
  0
LINE
  5
5CA8
330
1F
100
AcDbEntity
  8
0
100
AcDbLine
 10
12.3481995407393
 20
6.799284979841595
 30
0.0
 11
12.34831094253041
 21
6.797770237279288
 31
0.0
  0
LINE
  5
5CA9
330
1F
100
AcDbEntity
  8
0
100
AcDbLine
 10
12.35118912336817
 20
6.775350821325326
 30
0.0
 11
12.35173894910969
 21
6.772974656778779
 31
0.0
  0
LINE
  5
5CAA
330
1F
100
AcDbEntity
  8
0
100
AcDbLine
 10
12.38915804604047
 20
6.967723025398776
 30
0.0
 11
12.37295845753675
 21
6.967723025398776
 31
0.0
  0
LINE
  5
5CAB
330
1F
100
AcDbEntity
  8
0
100
AcDbLine
 10
12.38915804604047
 20
6.846908546262107
 30
0.0
 11
12.37278557544147
 21
6.846908546262107
 31
0.0
  0
LINE
  5
5CAC
330
1F
100
AcDbEntity
  8
0
100
AcDbLine
 10
12.34889606668065
 20
6.846908546262107
 30
0.0
 11
12.35423268105108
 21
6.846908546262107
 31
0.0
  0
LINE
  5
5CAD
330
1F
100
AcDbEntity
  8
0
100
AcDbLine
 10
12.36527242111436
 20
6.846908546262107
 30
0.0
 11
12.37278557544147
 21
6.846908546262107
 31
0.0
  0
LINE
  5
5CAE
330
1F
100
AcDbEntity
  8
0
100
AcDbLine
 10
12.34513353315896
 20
6.849908546262107
 30
0.0
 11
12.35495899350912
 21
6.849908546262107
 31
0.0
  0
LINE
  5
5CAF
330
1F
100
AcDbEntity
  8
0
100
AcDbLine
 10
12.35495899350912
 20
6.849908546262107
 30
0.0
 11
12.35777588316466
 21
6.849908546262107
 31
0.0
  0
LINE
  5
5CB0
330
1F
100
AcDbEntity
  8
0
100
AcDbLine
 10
12.35777588316466
 20
6.849908546262107
 30
0.0
 11
12.36473000960105
 21
6.849908546262107
 31
0.0
  0
LINE
  5
5CB1
330
1F
100
AcDbEntity
  8
0
100
AcDbLine
 10
12.36473000960105
 20
6.849908546262107
 30
0.0
 11
12.38915804604047
 21
6.849908546262107
 31
0.0
  0
LINE
  5
5CB2
330
1F
100
AcDbEntity
  8
0
100
AcDbLine
 10
12.35434395255099
 20
7.057269521754997
 30
0.0
 11
12.35173894910969
 21
7.046011560634746
 31
0.0
  0
LINE
  5
5CB3
330
1F
100
AcDbEntity
  8
0
100
AcDbLine
 10
12.35173894910969
 20
7.046011560634746
 30
0.0
 11
12.35118912336817
 21
7.043635396088199
 31
0.0
  0
LINE
  5
5CB4
330
1F
100
AcDbEntity
  8
0
100
AcDbLine
 10
12.3481995407393
 20
7.01970123757193
 30
0.0
 11
12.34707435083569
 21
7.004401905122798
 31
0.0
  0
LINE
  5
5CB5
330
1F
100
AcDbEntity
  8
0
100
AcDbLine
 10
12.34707435083569
 20
7.004401905122798
 30
0.0
 11
12.34590433788478
 21
6.988493108706756
 31
0.0
  0
LINE
  5
5CB6
330
1F
100
AcDbEntity
  8
0
100
AcDbLine
 10
12.34507975289545
 20
6.967723025398776
 30
0.0
 11
12.34496065106368
 21
6.964723025398776
 31
0.0
  0
LINE
  5
5CB7
330
1F
100
AcDbEntity
  8
0
100
AcDbLine
 10
12.34496065106368
 20
6.964723025398776
 30
0.0
 11
12.34439148295959
 21
6.950386517832961
 31
0.0
  0
LINE
  5
5CB8
330
1F
100
AcDbEntity
  8
0
100
AcDbLine
 10
12.34513353315896
 20
6.849908546262107
 30
0.0
 11
12.34525263499073
 21
6.846908546262107
 31
0.0
  0
LINE
  5
5CB9
330
1F
100
AcDbEntity
  8
0
100
AcDbLine
 10
12.34525263499073
 20
6.846908546262107
 30
0.0
 11
12.34590433788478
 21
6.830493108706755
 31
0.0
  0
LINE
  5
5CBA
330
1F
100
AcDbEntity
  8
0
100
AcDbLine
 10
12.34590433788478
 20
6.830493108706755
 30
0.0
 11
12.34707435083569
 21
6.814584312290727
 31
0.0
  0
LINE
  5
5CBB
330
1F
100
AcDbEntity
  8
0
100
AcDbLine
 10
12.34707435083569
 20
6.814584312290727
 30
0.0
 11
12.3481995407393
 21
6.799284979841595
 31
0.0
  0
LINE
  5
5CBC
330
1F
100
AcDbEntity
  8
0
100
AcDbLine
 10
12.35173894910969
 20
6.772974656778779
 30
0.0
 11
12.35434395255098
 21
6.761716695658528
 31
0.0
  0
LINE
  5
5CBD
330
1F
100
AcDbEntity
  8
0
100
AcDbLine
 10
12.35434395255098
 20
6.761716695658528
 30
0.0
 11
12.35476968338555
 21
6.75987682815309
 31
0.0
  0
LINE
  5
5CBE
330
1F
100
AcDbEntity
  8
0
100
AcDbLine
 10
12.34906894877594
 20
6.967723025398776
 30
0.0
 11
12.35977944121448
 21
6.967723025398776
 31
0.0
  0
LINE
  5
5CBF
330
1F
100
AcDbEntity
  8
0
100
AcDbLine
 10
12.35977944121448
 20
6.967723025398776
 30
0.0
 11
12.37295845753675
 21
6.967723025398776
 31
0.0
  0
LINE
  5
5CC0
330
1F
100
AcDbEntity
  8
0
100
AcDbLine
 10
12.76168808039203
 20
6.80780189825169
 30
0.0
 11
12.58848914187614
 21
6.80780189825169
 31
0.0
  0
LINE
  5
5CC1
330
1F
100
AcDbEntity
  8
0
100
AcDbLine
 10
12.75772549305817
 20
7.004652607896425
 30
0.0
 11
12.58848914187614
 21
7.004652607896425
 31
0.0
  0
VIEWPORT
  5
7CA
330
1B
100
AcDbEntity
 67
     1
  8
0
100
AcDbViewport
 10
250.8078564553756
 20
151.9284754761402
 30
0.0
 40
420.4378690602835
 41
204.4576762861672
 68
     1
 69
     1
 12
250.8078564553756
 22
151.9284754761402
 13
0.0
 23
0.0
 14
10.0
 24
10.0
 15
10.0
 25
10.0
 16
0.0
 26
0.0
 36
1.0
 17
0.0
 27
0.0
 37
0.0
 42
50.0
 43
0.0
 44
0.0
 45
204.4576762861672
 50
0.0
 51
0.0
 72
   100
 90
   819232
  1

281
     0
 71
     1
 74
     0
110
0.0
120
0.0
130
0.0
111
1.0
121
0.0
131
0.0
112
0.0
122
1.0
132
0.0
 79
     0
146
0.0
170
     0
  0
VIEWPORT
  5
99A
330
1B
100
AcDbEntity
 67
     1
  8
Defpoints
100
AcDbViewport
 10
151.5855934681565
 20
104.8621726199724
 30
0.0
 40
290.0480970456033
 41
203.1599664902751
 68
     2
 69
     2
 12
10.52628202427198
 22
7.055332186530126
 13
0.0
 23
0.0
 14
0.5
 24
0.5
 15
0.5
 25
0.5
 16
0.0
 26
0.0
 36
1.0
 17
0.0
 27
0.0
 37
-1000.0
 42
50.0
 43
4.148984367261674
 44
9.217858496371269
 45
10.15799927015914
 50
0.0
 51
0.0
 72
   100
 90
   819296
  1

281
     0
 71
     1
 74
     0
110
0.0
120
0.0
130
0.0
111
1.0
121
0.0
131
0.0
112
0.0
122
1.0
132
0.0
 79
     0
146
0.0
170
     0
  0
ENDSEC
  0
SECTION
  2
OBJECTS
  0
DICTIONARY
  5
C
330
0
100
AcDbDictionary
281
     1
  3
ACAD_COLOR
350
4B9
  3
ACAD_GROUP
350
D
  3
ACAD_LAYOUT
350
1A
  3
ACAD_MATERIAL
350
3B
  3
ACAD_MLEADERSTYLE
350
489
  3
ACAD_MLINESTYLE
350
17
  3
ACAD_PLOTSETTINGS
350
19
  3
ACAD_PLOTSTYLENAME
350
E
  3
ACAD_SCALELIST
350
4213
  3
ACAD_TABLESTYLE
350
4BA
  3
ACAD_VISUALSTYLE
350
2A
  3
ACDB_RECOMPOSE_DATA
350
4244
  3
AcDbVariableDictionary
350
487
  0
DICTIONARY
  5
84C
330
8
100
AcDbDictionary
280
     1
281
     1
  0
DICTIONARY
  5
7D1
330
2
100
AcDbDictionary
280
     1
281
     1
  3
ACAD_LAYERFILTERS
360
4281
  3
ACAD_LAYERSTATES
360
7D2
  3
ACLYDICTIONARY
360
4280
  0
DICTIONARY
  5
423C
330
10
100
AcDbDictionary
280
     1
281
     1
  3
ADSK_XREC_LAYER_RECONCILED
360
423D
  0
DICTIONARY
  5
423E
330
87B
100
AcDbDictionary
280
     1
281
     1
  3
ADSK_XREC_LAYER_RECONCILED
360
423F
  0
DICTIONARY
  5
4240
330
87D
100
AcDbDictionary
280
     1
281
     1
  3
ADSK_XREC_LAYER_RECONCILED
360
4241
  0
DICTIONARY
  5
5F8
330
1F
100
AcDbDictionary
280
     1
281
     1
  3
ACAD_SORTENTS
360
5F9
  0
DICTIONARY
  5
57A4
330
57A3
100
AcDbDictionary
280
     1
281
     1
  3
ACAD_DIMASSOC
360
57A5
  0
DICTIONARY
  5
57A7
330
57A6
100
AcDbDictionary
280
     1
281
     1
  3
ACAD_DIMASSOC
360
57A8
  0
DICTIONARY
  5
4B9
102
{ACAD_REACTORS
330
C
102
}
330
C
100
AcDbDictionary
281
     1
  0
DICTIONARY
  5
D
102
{ACAD_REACTORS
330
C
102
}
330
C
100
AcDbDictionary
281
     1
  0
DICTIONARY
  5
1A
102
{ACAD_REACTORS
330
C
102
}
330
C
100
AcDbDictionary
281
     1
  3
Layout1
350
1E
  3
Model
350
22
  0
DICTIONARY
  5
3B
102
{ACAD_REACTORS
330
C
102
}
330
C
100
AcDbDictionary
281
     1
  3
ByBlock
350
3D
  3
ByLayer
350
3C
  3
Global
350
3E
  0
DICTIONARY
  5
489
102
{ACAD_REACTORS
330
C
102
}
330
C
100
AcDbDictionary
281
     1
  3
Standard
350
4235
  0
DICTIONARY
  5
17
102
{ACAD_REACTORS
330
C
102
}
330
C
100
AcDbDictionary
281
     1
  3
Standard
350
18
  0
DICTIONARY
  5
19
102
{ACAD_REACTORS
330
C
102
}
330
C
100
AcDbDictionary
281
     1
  0
ACDBDICTIONARYWDFLT
  5
E
102
{ACAD_REACTORS
330
C
102
}
330
C
100
AcDbDictionary
281
     1
  3
Normal
350
F
100
AcDbDictionaryWithDefault
340
F
  0
DICTIONARY
  5
4213
102
{ACAD_REACTORS
330
C
102
}
330
C
100
AcDbDictionary
281
     1
  3
A0
350
4214
  3
A1
350
4215
  3
A2
350
4216
  3
A3
350
4217
  3
A4
350
4218
  3
A5
350
4219
  3
A6
350
421A
  3
A7
350
421B
  3
A8
350
421C
  3
A9
350
421D
  3
B0
350
421E
  3
B1
350
421F
  3
B2
350
4220
  3
B3
350
4221
  3
B4
350
4222
  3
B5
350
4223
  3
B6
350
4224
  3
B7
350
4225
  3
B8
350
4226
  3
B9
350
4227
  3
C0
350
4228
  3
C1
350
4229
  3
C2
350
422A
  3
C3
350
422B
  3
C4
350
422C
  3
C5
350
422D
  3
C6
350
422E
  3
C7
350
422F
  3
C8
350
4230
  3
C9
350
4231
  3
D0
350
4232
  3
D1
350
4233
  3
D2
350
4234
  0
DICTIONARY
  5
4BA
102
{ACAD_REACTORS
330
C
102
}
330
C
100
AcDbDictionary
281
     1
  3
Standard
350
4BB
  0
DICTIONARY
  5
2A
102
{ACAD_REACTORS
330
C
102
}
330
C
100
AcDbDictionary
281
     1
  3
2dWireframe
350
2F
  3
3D Hidden
350
A47
  3
3dWireframe
350
A48
  3
Basic
350
32
  3
Brighten
350
36
  3
ColorChange
350
3A
  3
Conceptual
350
A4B
  3
Dim
350
35
  3
Facepattern
350
39
  3
Flat
350
2B
  3
FlatWithEdges
350
2C
  3
Gouraud
350
2D
  3
GouraudWithEdges
350
2E
  3
Linepattern
350
38
  3
Realistic
350
A4C
  3
Thicken
350
37
  0
XRECORD
  5
4244
102
{ACAD_REACTORS
330
C
102
}
330
C
100
AcDbXrecord
280
     1
 90
        1
330
4BB
  0
DICTIONARY
  5
487
102
{ACAD_REACTORS
330
C
102
}
330
C
100
AcDbDictionary
281
     1
  3
CANNOSCALE
350
4247
  3
CMLEADERSTYLE
350
4245
  3
CTABLESTYLE
350
5FE
  3
DIMASSOC
350
48A
  3
HIDETEXT
350
48B
  3
INDEXCTL
350
86B
  3
LIGHTINGUNITS
350
4248
  3
MSLTSCALE
350
4246
  3
SORTENTS
350
86A
  0
DICTIONARY
  5
4281
102
{ACAD_REACTORS
330
7D1
102
}
330
7D1
100
AcDbDictionary
281
     1
  0
DICTIONARY
  5
7D2
102
{ACAD_REACTORS
330
7D1
102
}
330
7D1
100
AcDbDictionary
281
     1
  0
DICTIONARY
  5
4280
102
{ACAD_REACTORS
330
7D1
102
}
330
7D1
100
AcDbDictionary
281
     1
1001
ACAD
1000
<All
  0
XRECORD
  5
423D
102
{ACAD_REACTORS
330
423C
102
}
330
423C
100
AcDbXrecord
280
     1
290
     1
  0
XRECORD
  5
423F
102
{ACAD_REACTORS
330
423E
102
}
330
423E
100
AcDbXrecord
280
     1
290
     1
  0
XRECORD
  5
4241
102
{ACAD_REACTORS
330
4240
102
}
330
4240
100
AcDbXrecord
280
     1
290
     1
  0
SORTENTSTABLE
  5
5F9
102
{ACAD_REACTORS
330
5F8
102
}
330
5F8
100
AcDbSortentsTable
330
1F
  0
DIMASSOC
  5
57A5
102
{ACAD_REACTORS
330
57A4
102
}
330
57A4
100
AcDbDimAssoc
330
57A3
 90
        3
 70
     0
 71
     0
  1
AcDbOsnapPointRef
 72
     1
331
57A2
 73
     2
 91
        3
 40
1.0
 10
0.0
 20
0.0
 30
2.000000000000000E+50
 75
     0
  1
AcDbOsnapPointRef
 72
     1
331
57A2
 73
     2
 91
        2
 40
1.0
 10
0.0
 20
0.0
 30
2.000000000000000E+50
 75
     0
  0
DIMASSOC
  5
57A8
102
{ACAD_REACTORS
330
57A7
102
}
330
57A7
100
AcDbDimAssoc
330
57A6
 90
        2
 70
     0
 71
     0
  1
AcDbOsnapPointRef
 72
     1
331
57A2
 73
     2
 91
        4
 40
1.0
 10
0.0
 20
0.0
 30
2.000000000000000E+50
 75
     0
  0
LAYOUT
  5
1E
102
{ACAD_XDICTIONARY
360
7D4
102
}
102
{ACAD_REACTORS
330
1A
102
}
330
1A
100
AcDbPlotSettings
  1

  2
Bullzip PDF Printer
  4
A4
  6

 40
3.174999952316284
 41
3.174999952316284
 42
3.175003051757812
 43
3.17498779296875
 44
209.8886566162109
 45
297.0530090332031
 46
0.0
 47
0.0
 48
6.561544945354853
 49
3.282189374834842
140
296.6096419909582
141
206.4421558651099
142
1.0
143
1.0
 70
   672
 72
     1
 73
     1
 74
     4
  7
monochrome.ctb
 75
    16
147
25.4
 76
     0
 77
     2
 78
   300
148
-6.561544945354853
149
-3.282189374834842
100
AcDbLayout
  1
Layout1
 70
     0
 71
     1
 10
3.386557152386103
 20
0.1071894225185588
 11
300.4395661855892
 21
209.9958460387295
 12
0.0
 22
0.0
 32
0.0
 14
6.561544945354853
 24
3.282189374834842
 34
0.0
 15
296.6096419909582
 25
206.4421558651099
 35
0.0
146
0.0
 13
0.0
 23
0.0
 33
0.0
 16
1.0
 26
0.0
 36
0.0
 17
0.0
 27
1.0
 37
0.0
 76
     0
330
1B
331
7CA
1001
ACAD_PSEXT
1000
Bullzip PDF Printer
1000
Bullzip PDF Printer
1000
BULLZIP
1000
Bullzip PDF Printer 7.2.0.1338
1070
     0
  0
LAYOUT
  5
22
102
{ACAD_REACTORS
330
1A
102
}
330
1A
100
AcDbPlotSettings
  1

  2
none_device
  4
Letter_(8.50_x_11.00_Inches)
  6

 40
6.349999904632568
 41
6.349999904632568
 42
6.350006103515625
 43
6.350006103515625
 44
215.8999938964844
 45
279.3999938964844
 46
0.0
 47
0.0
 48
0.0
 49
0.0
140
0.0
141
0.0
142
1.0
143
1.722890234054851
 70
 11952
 72
     0
 73
     1
 74
     0
  7

 75
     0
147
0.5804200292240808
 76
     0
 77
     2
 78
   300
148
-81.52243533661561
149
-74.86302292570847
100
AcDbLayout
  1
Model
 70
     1
 71
     0
 10
0.0
 20
0.0
 11
12.0
 21
9.0
 12
0.0
 22
0.0
 32
0.0
 14
1.000000000000000E+20
 24
1.000000000000000E+20
 34
1.000000000000000E+20
 15
-1.000000000000000E+20
 25
-1.000000000000000E+20
 35
-1.000000000000000E+20
146
0.0
 13
0.0
 23
0.0
 33
0.0
 16
1.0
 26
0.0
 36
0.0
 17
0.0
 27
1.0
 37
0.0
 76
     0
330
1F
331
29
1001
ACAD_PSEXT
1000
Brak
1000
Brak
1000
Nie można zastosować.
1000
Arkusz nie zostanie wydrukowany dopóki nie wybrano konfiguracji plotera.
1070
     0
  0
MATERIAL
  5
3D
102
{ACAD_XDICTIONARY
360
5CFE
102
}
102
{ACAD_REACTORS
330
3B
102
}
330
3B
100
AcDbMaterial
  1
ByBlock
 73
     1
 78
     1
172
     1
176
     1
270
     1
274
     1
  0
MATERIAL
  5
3C
102
{ACAD_XDICTIONARY
360
5CFC
102
}
102
{ACAD_REACTORS
330
3B
102
}
330
3B
100
AcDbMaterial
  1
ByLayer
 73
     1
 78
     1
172
     1
176
     1
270
     1
274
     1
  0
MATERIAL
  5
3E
102
{ACAD_XDICTIONARY
360
5D00
102
}
102
{ACAD_REACTORS
330
3B
102
}
330
3B
100
AcDbMaterial
  1
Global
 73
     1
 78
     1
172
     1
176
     1
270
     1
274
     1
  0
MLEADERSTYLE
  5
4235
102
{ACAD_REACTORS
330
489
102
}
330
489
100
AcDbMLeaderStyle
170
     2
171
     1
172
     0
 90
        2
 40
0.0
 41
0.0
173
     1
 91
-1056964608
340
14
 92
       -2
290
     1
 42
0.09
291
     1
 43
0.36
  3
Standard
 44
0.18
300

342
11
174
     1
178
     6
175
     1
176
     0
 93
-1056964608
 45
0.18
292
     0
297
     0
 46
0.18
 94
-1056964608
 47
1.0
 49
1.0
140
1.0
293
     1
141
0.0
294
     1
177
     0
142
1.0
295
     0
296
     0
143
0.125
1001
ACAD_MLEADERVER
1070
     2
  0
MLINESTYLE
  5
18
102
{ACAD_REACTORS
330
17
102
}
330
17
100
AcDbMlineStyle
  2
STANDARD
 70
     0
  3

 62
   256
 51
90.0
 52
90.0
 71
     2
 49
0.5
 62
   256
  6
BYLAYER
 49
-0.5
 62
   256
  6
BYLAYER
  0
ACDBPLACEHOLDER
  5
F
102
{ACAD_REACTORS
330
E
102
}
330
E
  0
SCALE
  5
4214
102
{ACAD_REACTORS
330
4213
102
}
330
4213
100
AcDbScale
 70
     0
300
1:1
140
1.0
141
1.0
290
     1
  0
SCALE
  5
4215
102
{ACAD_REACTORS
330
4213
102
}
330
4213
100
AcDbScale
 70
     0
300
1:2
140
1.0
141
2.0
290
     0
  0
SCALE
  5
4216
102
{ACAD_REACTORS
330
4213
102
}
330
4213
100
AcDbScale
 70
     0
300
1:4
140
1.0
141
4.0
290
     0
  0
SCALE
  5
4217
102
{ACAD_REACTORS
330
4213
102
}
330
4213
100
AcDbScale
 70
     0
300
1:5
140
1.0
141
5.0
290
     0
  0
SCALE
  5
4218
102
{ACAD_REACTORS
330
4213
102
}
330
4213
100
AcDbScale
 70
     0
300
1:8
140
1.0
141
8.0
290
     0
  0
SCALE
  5
4219
102
{ACAD_REACTORS
330
4213
102
}
330
4213
100
AcDbScale
 70
     0
300
1:10
140
1.0
141
10.0
290
     0
  0
SCALE
  5
421A
102
{ACAD_REACTORS
330
4213
102
}
330
4213
100
AcDbScale
 70
     0
300
1:16
140
1.0
141
16.0
290
     0
  0
SCALE
  5
421B
102
{ACAD_REACTORS
330
4213
102
}
330
4213
100
AcDbScale
 70
     0
300
1:20
140
1.0
141
20.0
290
     0
  0
SCALE
  5
421C
102
{ACAD_REACTORS
330
4213
102
}
330
4213
100
AcDbScale
 70
     0
300
1:30
140
1.0
141
30.0
290
     0
  0
SCALE
  5
421D
102
{ACAD_REACTORS
330
4213
102
}
330
4213
100
AcDbScale
 70
     0
300
1:40
140
1.0
141
40.0
290
     0
  0
SCALE
  5
421E
102
{ACAD_REACTORS
330
4213
102
}
330
4213
100
AcDbScale
 70
     0
300
1:50
140
1.0
141
50.0
290
     0
  0
SCALE
  5
421F
102
{ACAD_REACTORS
330
4213
102
}
330
4213
100
AcDbScale
 70
     0
300
1:100
140
1.0
141
100.0
290
     0
  0
SCALE
  5
4220
102
{ACAD_REACTORS
330
4213
102
}
330
4213
100
AcDbScale
 70
     0
300
2:1
140
2.0
141
1.0
290
     0
  0
SCALE
  5
4221
102
{ACAD_REACTORS
330
4213
102
}
330
4213
100
AcDbScale
 70
     0
300
4:1
140
4.0
141
1.0
290
     0
  0
SCALE
  5
4222
102
{ACAD_REACTORS
330
4213
102
}
330
4213
100
AcDbScale
 70
     0
300
8:1
140
8.0
141
1.0
290
     0
  0
SCALE
  5
4223
102
{ACAD_REACTORS
330
4213
102
}
330
4213
100
AcDbScale
 70
     0
300
10:1
140
10.0
141
1.0
290
     0
  0
SCALE
  5
4224
102
{ACAD_REACTORS
330
4213
102
}
330
4213
100
AcDbScale
 70
     0
300
100:1
140
100.0
141
1.0
290
     0
  0
SCALE
  5
4225
102
{ACAD_REACTORS
330
4213
102
}
330
4213
100
AcDbScale
 70
     0
300
1/128" = 1'-0"
140
0.0078125
141
12.0
290
     0
  0
SCALE
  5
4226
102
{ACAD_REACTORS
330
4213
102
}
330
4213
100
AcDbScale
 70
     0
300
1/64" = 1'-0"
140
0.015625
141
12.0
290
     0
  0
SCALE
  5
4227
102
{ACAD_REACTORS
330
4213
102
}
330
4213
100
AcDbScale
 70
     0
300
1/32" = 1'-0"
140
0.03125
141
12.0
290
     0
  0
SCALE
  5
4228
102
{ACAD_REACTORS
330
4213
102
}
330
4213
100
AcDbScale
 70
     0
300
1/16" = 1'-0"
140
0.0625
141
12.0
290
     0
  0
SCALE
  5
4229
102
{ACAD_REACTORS
330
4213
102
}
330
4213
100
AcDbScale
 70
     0
300
3/32" = 1'-0"
140
0.09375
141
12.0
290
     0
  0
SCALE
  5
422A
102
{ACAD_REACTORS
330
4213
102
}
330
4213
100
AcDbScale
 70
     0
300
1/8" = 1'-0"
140
0.125
141
12.0
290
     0
  0
SCALE
  5
422B
102
{ACAD_REACTORS
330
4213
102
}
330
4213
100
AcDbScale
 70
     0
300
3/16" = 1'-0"
140
0.1875
141
12.0
290
     0
  0
SCALE
  5
422C
102
{ACAD_REACTORS
330
4213
102
}
330
4213
100
AcDbScale
 70
     0
300
1/4" = 1'-0"
140
0.25
141
12.0
290
     0
  0
SCALE
  5
422D
102
{ACAD_REACTORS
330
4213
102
}
330
4213
100
AcDbScale
 70
     0
300
3/8" = 1'-0"
140
0.375
141
12.0
290
     0
  0
SCALE
  5
422E
102
{ACAD_REACTORS
330
4213
102
}
330
4213
100
AcDbScale
 70
     0
300
1/2" = 1'-0"
140
0.5
141
12.0
290
     0
  0
SCALE
  5
422F
102
{ACAD_REACTORS
330
4213
102
}
330
4213
100
AcDbScale
 70
     0
300
3/4" = 1'-0"
140
0.75
141
12.0
290
     0
  0
SCALE
  5
4230
102
{ACAD_REACTORS
330
4213
102
}
330
4213
100
AcDbScale
 70
     0
300
1" = 1'-0"
140
1.0
141
12.0
290
     0
  0
SCALE
  5
4231
102
{ACAD_REACTORS
330
4213
102
}
330
4213
100
AcDbScale
 70
     0
300
1-1/2" = 1'-0"
140
1.5
141
12.0
290
     0
  0
SCALE
  5
4232
102
{ACAD_REACTORS
330
4213
102
}
330
4213
100
AcDbScale
 70
     0
300
3" = 1'-0"
140
3.0
141
12.0
290
     0
  0
SCALE
  5
4233
102
{ACAD_REACTORS
330
4213
102
}
330
4213
100
AcDbScale
 70
     0
300
6" = 1'-0"
140
6.0
141
12.0
290
     0
  0
SCALE
  5
4234
102
{ACAD_REACTORS
330
4213
102
}
330
4213
100
AcDbScale
 70
     0
300
1'-0" = 1'-0"
140
12.0
141
12.0
290
     0
  0
TABLESTYLE
  5
4BB
102
{ACAD_XDICTIONARY
360
4242
102
}
102
{ACAD_REACTORS
330
4BA
102
}
330
4BA
100
AcDbTableStyle
  3
Standard
 70
     0
 71
     0
 40
0.06
 41
0.06
280
     0
281
     0
  7
Standard
140
0.18
170
     2
 62
     0
 63
     7
283
     0
274
    -2
284
     1
 64
     0
275
    -2
285
     1
 65
     0
276
    -2
286
     1
 66
     0
277
    -2
287
     1
 67
     0
278
    -2
288
     1
 68
     0
279
    -2
289
     1
 69
     0
  7
Standard
140
0.25
170
     5
 62
     0
 63
     7
283
     0
274
    -2
284
     1
 64
     0
275
    -2
285
     1
 65
     0
276
    -2
286
     1
 66
     0
277
    -2
287
     1
 67
     0
278
    -2
288
     1
 68
     0
279
    -2
289
     1
 69
     0
  7
Standard
140
0.18
170
     5
 62
     0
 63
     7
283
     0
274
    -2
284
     1
 64
     0
275
    -2
285
     1
 65
     0
276
    -2
286
     1
 66
     0
277
    -2
287
     1
 67
     0
278
    -2
288
     1
 68
     0
279
    -2
289
     1
 69
     0
  0
VISUALSTYLE
  5
2F
102
{ACAD_XDICTIONARY
360
49A
102
}
102
{ACAD_REACTORS
330
2A
102
}
330
2A
100
AcDbVisualStyle
  2
2dWireframe
 70
     4
 71
     0
 72
     2
 73
     0
 90
        0
 40
-0.6
 41
-30.0
 62
     5
 63
     7
 74
     1
 91
        4
 64
     7
 65
   257
 75
     1
175
     1
 42
1.0
 92
        0
 66
   257
 43
1.0
 76
     1
 77
     6
 78
     2
 67
     7
 79
     5
170
     0
171
     0
290
     0
174
     0
 93
        1
 44
0.0
173
     0
291
     0
 45
0.0
1001
ACAD
1000
AcDbSavedByObjectVersion
1070
     0
  0
VISUALSTYLE
  5
A47
102
{ACAD_REACTORS
330
2A
102
}
330
2A
100
AcDbVisualStyle
  2
3D Hidden
 70
     6
 71
     1
 72
     2
 73
     2
 90
        0
 40
-0.6
 41
-30.0
 62
     5
 63
     7
 74
     2
 91
        2
 64
     7
 65
   257
 75
     2
175
     1
 42
40.0
 92
        0
 66
   257
 43
1.0
 76
     1
 77
     6
 78
     2
 67
     7
 79
     3
170
     0
171
     0
290
     0
174
     0
 93
        1
 44
0.0
173
     0
291
     0
 45
0.0
1001
ACAD
1000
AcDbSavedByObjectVersion
1070
     0
  0
VISUALSTYLE
  5
A48
102
{ACAD_XDICTIONARY
360
A49
102
}
102
{ACAD_REACTORS
330
2A
102
}
330
2A
100
AcDbVisualStyle
  2
3dWireframe
 70
     5
 71
     0
 72
     2
 73
     0
 90
        0
 40
-0.6
 41
-30.0
 62
     5
 63
     7
 74
     1
 91
        4
 64
     7
 65
   257
 75
     1
175
     1
 42
1.0
 92
        0
 66
   257
 43
1.0
 76
     1
 77
     6
 78
     2
 67
     7
 79
     5
170
     0
171
     0
290
     0
174
     0
 93
        1
 44
0.0
173
     0
291
     0
 45
0.0
1001
ACAD
1000
AcDbSavedByObjectVersion
1070
     0
  0
VISUALSTYLE
  5
32
102
{ACAD_XDICTIONARY
360
4A0
102
}
102
{ACAD_REACTORS
330
2A
102
}
330
2A
100
AcDbVisualStyle
  2
Basic
 70
     7
 71
     1
 72
     0
 73
     1
 90
        0
 40
-0.6
 41
-30.0
 62
     5
 63
     7
 74
     0
 91
        4
 64
     7
 65
   257
 75
     1
175
     1
 42
1.0
 92
        8
 66
     7
 43
1.0
 76
     1
 77
     6
 78
     2
 67
     7
 79
     5
170
     0
171
     0
290
     0
174
     0
 93
        1
 44
0.0
173
     0
291
     1
 45
0.0
1001
ACAD
1000
AcDbSavedByObjectVersion
1070
     0
  0
VISUALSTYLE
  5
36
102
{ACAD_XDICTIONARY
360
4A8
102
}
102
{ACAD_REACTORS
330
2A
102
}
330
2A
100
AcDbVisualStyle
  2
Brighten
 70
    12
 71
     2
 72
     2
 73
     0
 90
        0
 40
-0.6
 41
-30.0
 62
     5
 63
     7
 74
     1
 91
        4
 64
     7
 65
   257
 75
     1
175
     1
 42
1.0
 92
        8
 66
     7
 43
1.0
 76
     1
 77
     6
 78
     2
 67
     7
 79
     5
170
     0
171
     0
290
     0
174
     0
 93
        1
 44
50.0
173
     0
291
     1
 45
0.0
1001
ACAD
1000
AcDbSavedByObjectVersion
1070
     0
  0
VISUALSTYLE
  5
3A
102
{ACAD_XDICTIONARY
360
4B0
102
}
102
{ACAD_REACTORS
330
2A
102
}
330
2A
100
AcDbVisualStyle
  2
ColorChange
 70
    16
 71
     2
 72
     2
 73
     3
 90
        0
 40
-0.6
 41
-30.0
 62
     5
 63
     8
 74
     1
 91
        4
 64
     7
 65
   257
 75
     1
175
     1
 42
1.0
 92
        8
 66
     8
 43
1.0
 76
     1
 77
     6
 78
     2
 67
     7
 79
     5
170
     0
171
     0
290
     0
174
     0
 93
        1
 44
0.0
173
     0
291
     1
 45
0.0
1001
ACAD
1000
AcDbSavedByObjectVersion
1070
     0
  0
VISUALSTYLE
  5
A4B
102
{ACAD_REACTORS
330
2A
102
}
330
2A
100
AcDbVisualStyle
  2
Conceptual
 70
     9
 71
     3
 72
     2
 73
     0
 90
        0
 40
-0.6
 41
-30.0
 62
     5
 63
     7
 74
     2
 91
        2
 64
     7
 65
   257
 75
     1
175
     1
 42
40.0
 92
        8
 66
     7
 43
1.0
 76
     1
 77
     6
 78
     2
 67
     7
 79
     3
170
     0
171
     0
290
     0
174
     0
 93
        1
 44
0.0
173
     0
291
     0
 45
0.0
1001
ACAD
1000
AcDbSavedByObjectVersion
1070
     0
  0
VISUALSTYLE
  5
35
102
{ACAD_XDICTIONARY
360
4A6
102
}
102
{ACAD_REACTORS
330
2A
102
}
330
2A
100
AcDbVisualStyle
  2
Dim
 70
    11
 71
     2
 72
     2
 73
     0
 90
        0
 40
-0.6
 41
-30.0
 62
     5
 63
     7
 74
     1
 91
        4
 64
     7
 65
   257
 75
     1
175
     1
 42
1.0
 92
        8
 66
     7
 43
1.0
 76
     1
 77
     6
 78
     2
 67
     7
 79
     5
170
     0
171
     0
290
     0
174
     0
 93
        1
 44
-50.0
173
     0
291
     1
 45
0.0
1001
ACAD
1000
AcDbSavedByObjectVersion
1070
     0
  0
VISUALSTYLE
  5
39
102
{ACAD_XDICTIONARY
360
4AE
102
}
102
{ACAD_REACTORS
330
2A
102
}
330
2A
100
AcDbVisualStyle
  2
Facepattern
 70
    15
 71
     2
 72
     2
 73
     0
 90
        0
 40
-0.6
 41
-30.0
 62
     5
 63
     7
 74
     1
 91
        4
 64
     7
 65
   257
 75
     1
175
     1
 42
1.0
 92
        8
 66
     7
 43
1.0
 76
     1
 77
     6
 78
     2
 67
     7
 79
     5
170
     0
171
     0
290
     0
174
     0
 93
        1
 44
0.0
173
     0
291
     1
 45
0.0
1001
ACAD
1000
AcDbSavedByObjectVersion
1070
     0
  0
VISUALSTYLE
  5
2B
102
{ACAD_XDICTIONARY
360
492
102
}
102
{ACAD_REACTORS
330
2A
102
}
330
2A
100
AcDbVisualStyle
  2
Flat
 70
     0
 71
     2
 72
     1
 73
     1
 90
        2
 40
-0.6
 41
30.0
 62
     5
 63
     7
 74
     0
 91
        4
 64
     7
 65
   257
 75
     1
175
     1
 42
1.0
 92
        8
 66
     7
 43
1.0
 76
     1
 77
     6
 78
     2
 67
     7
 79
     5
170
     0
171
     0
290
     0
174
     0
 93
       13
 44
0.0
173
     0
291
     1
 45
0.0
1001
ACAD
1000
AcDbSavedByObjectVersion
1070
     0
  0
VISUALSTYLE
  5
2C
102
{ACAD_XDICTIONARY
360
494
102
}
102
{ACAD_REACTORS
330
2A
102
}
330
2A
100
AcDbVisualStyle
  2
FlatWithEdges
 70
     1
 71
     2
 72
     1
 73
     1
 90
        2
 40
-0.6
 41
30.0
 62
     5
 63
     7
 74
     1
 91
        4
 64
     7
 65
   257
 75
     1
175
     1
 42
1.0
 92
        0
 66
   257
 43
1.0
 76
     1
 77
     6
 78
     2
 67
     7
 79
     5
170
     0
171
     0
290
     0
174
     0
 93
       13
 44
0.0
173
     0
291
     1
 45
0.0
1001
ACAD
1000
AcDbSavedByObjectVersion
1070
     0
  0
VISUALSTYLE
  5
2D
102
{ACAD_XDICTIONARY
360
496
102
}
102
{ACAD_REACTORS
330
2A
102
}
330
2A
100
AcDbVisualStyle
  2
Gouraud
 70
     2
 71
     2
 72
     2
 73
     1
 90
        2
 40
-0.6
 41
30.0
 62
     5
 63
     7
 74
     0
 91
        4
 64
     7
 65
   257
 75
     1
175
     1
 42
1.0
 92
        0
 66
     7
 43
1.0
 76
     1
 77
     6
 78
     2
 67
     7
 79
     5
170
     0
171
     0
290
     0
174
     0
 93
       13
 44
0.0
173
     0
291
     1
 45
0.0
1001
ACAD
1000
AcDbSavedByObjectVersion
1070
     0
  0
VISUALSTYLE
  5
2E
102
{ACAD_XDICTIONARY
360
498
102
}
102
{ACAD_REACTORS
330
2A
102
}
330
2A
100
AcDbVisualStyle
  2
GouraudWithEdges
 70
     3
 71
     2
 72
     2
 73
     1
 90
        2
 40
-0.6
 41
30.0
 62
     5
 63
     7
 74
     1
 91
        4
 64
     7
 65
   257
 75
     1
175
     1
 42
1.0
 92
        0
 66
   257
 43
1.0
 76
     1
 77
     6
 78
     2
 67
     7
 79
     5
170
     0
171
     0
290
     0
174
     0
 93
       13
 44
0.0
173
     0
291
     1
 45
0.0
1001
ACAD
1000
AcDbSavedByObjectVersion
1070
     0
  0
VISUALSTYLE
  5
38
102
{ACAD_XDICTIONARY
360
4AC
102
}
102
{ACAD_REACTORS
330
2A
102
}
330
2A
100
AcDbVisualStyle
  2
Linepattern
 70
    14
 71
     2
 72
     2
 73
     0
 90
        0
 40
-0.6
 41
-30.0
 62
     5
 63
     7
 74
     1
 91
        4
 64
     7
 65
   257
 75
     7
175
     7
 42
1.0
 92
        8
 66
     7
 43
1.0
 76
     1
 77
     6
 78
     2
 67
     7
 79
     5
170
     0
171
     0
290
     0
174
     0
 93
        1
 44
0.0
173
     0
291
     1
 45
0.0
1001
ACAD
1000
AcDbSavedByObjectVersion
1070
     0
  0
VISUALSTYLE
  5
A4C
102
{ACAD_XDICTIONARY
360
A4D
102
}
102
{ACAD_REACTORS
330
2A
102
}
330
2A
100
AcDbVisualStyle
  2
Realistic
 70
     8
 71
     2
 72
     2
 73
     0
 90
        0
 40
-0.6
 41
-30.0
 62
     5
 63
     7
 74
     1
 91
        0
 64
     7
 65
   257
 75
     1
175
     1
 42
1.0
 92
        8
 66
     8
 43
1.0
 76
     1
 77
     6
 78
     2
 67
     7
 79
     5
170
     0
171
     0
290
     0
174
     0
 93
       13
 44
0.0
173
     0
291
     0
 45
0.0
1001
ACAD
1000
AcDbSavedByObjectVersion
1070
     0
  0
VISUALSTYLE
  5
37
102
{ACAD_XDICTIONARY
360
4AA
102
}
102
{ACAD_REACTORS
330
2A
102
}
330
2A
100
AcDbVisualStyle
  2
Thicken
 70
    13
 71
     2
 72
     2
 73
     0
 90
        0
 40
-0.6
 41
-30.0
 62
     5
 63
     7
 74
     1
 91
        4
 64
     7
 65
   257
 75
     1
175
     1
 42
1.0
 92
       12
 66
     7
 43
1.0
 76
     1
 77
     6
 78
     2
 67
     7
 79
     5
170
     0
171
     0
290
     0
174
     0
 93
        1
 44
0.0
173
     0
291
     1
 45
0.0
1001
ACAD
1000
AcDbSavedByObjectVersion
1070
     0
  0
DICTIONARYVAR
  5
4247
102
{ACAD_REACTORS
330
487
102
}
330
487
100
DictionaryVariables
280
     0
  1
1:1
  0
DICTIONARYVAR
  5
4245
102
{ACAD_REACTORS
330
487
102
}
330
487
100
DictionaryVariables
280
     0
  1
STANDARD
  0
DICTIONARYVAR
  5
5FE
102
{ACAD_REACTORS
330
487
102
}
330
487
100
DictionaryVariables
280
     0
  1
STANDARD
  0
DICTIONARYVAR
  5
48A
102
{ACAD_REACTORS
330
487
102
}
330
487
100
DictionaryVariables
280
     0
  1
2
  0
DICTIONARYVAR
  5
48B
102
{ACAD_REACTORS
330
487
102
}
330
487
100
DictionaryVariables
280
     0
  1
1
  0
DICTIONARYVAR
  5
86B
102
{ACAD_REACTORS
330
487
102
}
330
487
100
DictionaryVariables
280
     0
  1
0
  0
DICTIONARYVAR
  5
4248
102
{ACAD_REACTORS
330
487
102
}
330
487
100
DictionaryVariables
280
     0
  1
0
  0
DICTIONARYVAR
  5
4246
102
{ACAD_REACTORS
330
487
102
}
330
487
100
DictionaryVariables
280
     0
  1
0
  0
DICTIONARYVAR
  5
86A
102
{ACAD_REACTORS
330
487
102
}
330
487
100
DictionaryVariables
280
     0
  1
127
  0
DICTIONARY
  5
7D4
330
1E
100
AcDbDictionary
280
     1
281
     1
  3
ADSK_XREC_LAYOUTTHUMBNAIL
360
7D5
  0
DICTIONARY
  5
5CFE
330
3D
100
AcDbDictionary
280
     1
281
     1
  3
ACAD_XREC_ROUNDTRIP
360
5CFF
  0
DICTIONARY
  5
5CFC
330
3C
100
AcDbDictionary
280
     1
281
     1
  3
ACAD_XREC_ROUNDTRIP
360
5CFD
  0
DICTIONARY
  5
5D00
330
3E
100
AcDbDictionary
280
     1
281
     1
  3
ACAD_XREC_ROUNDTRIP
360
5D01
  0
DICTIONARY
  5
4242
330
4BB
100
AcDbDictionary
280
     1
281
     1
  3
ACAD_ROUNDTRIP_2008_TABLESTYLE_CELLSTYLEMAP
360
5CFB
  3
ACAD_XREC_ROUNDTRIP
360
5D02
  0
DICTIONARY
  5
49A
330
2F
100
AcDbDictionary
280
     1
281
     1
  3
ACAD_XREC_ROUNDTRIP
360
49B
  0
DICTIONARY
  5
A49
330
A48
100
AcDbDictionary
280
     1
281
     1
  3
ACAD_XREC_ROUNDTRIP
360
A4A
  0
DICTIONARY
  5
4A0
330
32
100
AcDbDictionary
280
     1
281
     1
  3
ACAD_XREC_ROUNDTRIP
360
4A1
  0
DICTIONARY
  5
4A8
330
36
100
AcDbDictionary
280
     1
281
     1
  3
ACAD_XREC_ROUNDTRIP
360
4A9
  0
DICTIONARY
  5
4B0
330
3A
100
AcDbDictionary
280
     1
281
     1
  3
ACAD_XREC_ROUNDTRIP
360
4B1
  0
DICTIONARY
  5
4A6
330
35
100
AcDbDictionary
280
     1
281
     1
  3
ACAD_XREC_ROUNDTRIP
360
4A7
  0
DICTIONARY
  5
4AE
330
39
100
AcDbDictionary
280
     1
281
     1
  3
ACAD_XREC_ROUNDTRIP
360
4AF
  0
DICTIONARY
  5
492
330
2B
100
AcDbDictionary
280
     1
281
     1
  3
ACAD_XREC_ROUNDTRIP
360
493
  0
DICTIONARY
  5
494
330
2C
100
AcDbDictionary
280
     1
281
     1
  3
ACAD_XREC_ROUNDTRIP
360
495
  0
DICTIONARY
  5
496
330
2D
100
AcDbDictionary
280
     1
281
     1
  3
ACAD_XREC_ROUNDTRIP
360
497
  0
DICTIONARY
  5
498
330
2E
100
AcDbDictionary
280
     1
281
     1
  3
ACAD_XREC_ROUNDTRIP
360
499
  0
DICTIONARY
  5
4AC
330
38
100
AcDbDictionary
280
     1
281
     1
  3
ACAD_XREC_ROUNDTRIP
360
4AD
  0
DICTIONARY
  5
A4D
330
A4C
100
AcDbDictionary
280
     1
281
     1
  3
ACAD_XREC_ROUNDTRIP
360
A4E
  0
DICTIONARY
  5
4AA
330
37
100
AcDbDictionary
280
     1
281
     1
  3
ACAD_XREC_ROUNDTRIP
360
4AB
  0
XRECORD
  5
7D5
102
{ACAD_REACTORS
330
7D4
102
}
330
7D4
100
AcDbXrecord
280
     1
310
28000000B40000007F00000001000800000000004C59000000000000000000000001000000000000FFFFFF0000000000FFFFFF000000000000000000000000000000000000000000000000000000000000000000330000006600000099000000CC000000FF00000000330000333300006633000099330000CC330000FF3300
310
0000660000336600006666000099660000CC660000FF66000000990000339900006699000099990000CC990000FF99000000CC000033CC000066CC000099CC0000CCCC0000FFCC000000FF000033FF000066FF000099FF0000CCFF0000FFFF000000003300330033006600330099003300CC003300FF003300003333003333
310
33006633330099333300CC333300FF33330000663300336633006666330099663300CC663300FF66330000993300339933006699330099993300CC993300FF99330000CC330033CC330066CC330099CC3300CCCC3300FFCC330000FF330033FF330066FF330099FF3300CCFF3300FFFF330000006600330066006600660099
310
006600CC006600FF00660000336600333366006633660099336600CC336600FF33660000666600336666006666660099666600CC666600FF66660000996600339966006699660099996600CC996600FF99660000CC660033CC660066CC660099CC6600CCCC6600FFCC660000FF660033FF660066FF660099FF6600CCFF6600
310
FFFF660000009900330099006600990099009900CC009900FF00990000339900333399006633990099339900CC339900FF33990000669900336699006666990099669900CC669900FF66990000999900339999006699990099999900CC999900FF99990000CC990033CC990066CC990099CC9900CCCC9900FFCC990000FF99
310
0033FF990066FF990099FF9900CCFF9900FFFF99000000CC003300CC006600CC009900CC00CC00CC00FF00CC000033CC003333CC006633CC009933CC00CC33CC00FF33CC000066CC003366CC006666CC009966CC00CC66CC00FF66CC000099CC003399CC006699CC009999CC00CC99CC00FF99CC0000CCCC0033CCCC0066CC
310
CC0099CCCC00CCCCCC00FFCCCC0000FFCC0033FFCC0066FFCC0099FFCC00CCFFCC00FFFFCC000000FF003300FF006600FF009900FF00CC00FF00FF00FF000033FF003333FF006633FF009933FF00CC33FF00FF33FF000066FF003366FF006666FF009966FF00CC66FF00FF66FF000099FF003399FF006699FF009999FF00CC
310
99FF00FF99FF0000CCFF0033CCFF0066CCFF0099CCFF00CCCCFF00FFCCFF0000FFFF0033FFFF0066FFFF0099FFFF00CCFFFF00FFFFFF00000000000D0D0D001A1A1A00282828003535350043434300505050005D5D5D006B6B6B00787878008686860093939300A1A1A100AEAEAE00BBBBBB00C9C9C900D6D6D600E4E4E400
310
F1F1F100FFFFFF0000000000000000000000000000000000000000000000000000000000000000000000000000000000E2E2E2E2E2E2E2E2E2E2E2E2E2E2E2E2E2E2E2E2E2E2E2E2E2E2E2E2E2E2E2E2E2E2E2E2E2E2E2E2E2E2E2E2E2E2E2E2E2E2E2E2E2E2E2E2E2E2E2E2E2E2E2E2E2E2E2E2E2E2E2E2E2E2E2E2E2E2E2
310
E2E2E2E2E2E2E2E2E2E2E2E2E2E2E2E2E2E2E2E2E2E2E2E2E2E2E2E2E2E2E2E2E2E2E2E2E2E2E2E2E2E2E2E2E2E2E2E2E2E2E2E2E2E2E2E2E2E2E2E2E2E2E2E2E2E2E2E2E2E2E2E2E2E2E2E2E2E2E2E2E2E2E2E2E2E2E2E2E2E2E2E2E2E2E2E2E2E2E2E2E2E2F5F5F5F5F5F5F5F5F5F5F5F5F5F5F5F5F5F5F5F5F5F5F5F5F5
310
F5F5F5F5F5F5F5F5F5F5F5F5F5F5F5F5F5F5F5F5F5F5F5F5F5F5F5F5F5F5F5F5F5F5F5F5F5F5F5F5F5F5F5F5F5F5F5F5F5F5F5F5F5F5F5F5F5F5F5F5F5F5F5F5F5F5F5F5F5F5F5F5F5F5F5F5F5F5F5F5F5F5F5F5F5F5F5F5F5F5F5F5F5F5F5F5F5F5F5F5F5F5F5F5F5F5F5F5F5F5F5F5F5F5F5F5F5F5F5F5F5F5F5F5F5F5F5
310
F5F5F5F5F5F5F5F5F5F5F5F5F5F5F5F5F5F5F5F5F5F5F5F5F5E2E2E2F5E2E2E2E2E2E2E2E2E2E2E2E2E2E2E2E2E2E2E2E2E2E2E2E2E2E2E2E2E2E2E2E2E2E2E2E2E2E2E2E2E2E2E2E2E2E2E2E2E2E2E2E2E2E2E2E2E2E2E2E2E2E2E2E2E2E2E2E2E2E2E2E2E2E2E2E2E2E2E2E2E2E2E2E2E2E2E2E2E2E2E2E2E2E2E2E2E2E2
310
E2E2E2E2E2E2E2E2E2E2E2E2E2E2E2E2E2E2E2E2E2E2E2E2E2E2E2E2E2E2E2E2E2E2E2E2E2E2E2E2E2E2E2E2E2E2E2E2E2E2E2E2E2E2E2E2E2E2E2E2E2E2E2E2E2E2E2E2E2E2E2E2E2E2E2E2E2F5E2E2E2F5E2F5F5F5F5F5F5F5F5F5F5F5F5F5F5F5F5F5F5F5F5F5F5F5F5F5F5F5F5F5F5F5F5F5F5F5F5F5F5F5F5F5F5F5F5
310
F5F5F5F5F5F5F5F5F5F5F5F5F5F5F5F5F5F5F5F5F5F5F5F5F5F5F5F5F5F5F5F5F5F5F5F5F5F5F5F5F5F5F5F5F5F5F5F5F5F5F5F5F5F5F5F5F5F5F5F5F5F5F5F5F5F5F5F5F5F5F5F5F5F5F5F5F5F5F5F5F5F5F5F5F5F5F5F5F5F5F5F5F5F5F5F5F5F5F5F5F5F5F5F5F5F5F5F5F5F5F5F5F5F5F5F5F5F5F5F5F5F5F5F5F5F5F5
310
F5F5E2F5E2E2E2F5E2F5F5F5F5F5F5F5F5F5F5F5F5F5F5F5F5F5F5F5F5F5F5F5F5F5F5F5F5F5F5F5F5F5F5F5F5F5F5F5F5F5F5F5F5F5F5F5F5F5F5F5F5F5F5F5F5F5F5F5F5F5F5F5F5F5F5F5F5F5F5F5F5F5F5F5F5F5F5F5F5F5F5F5F5F5F5F5F5F5F5F5F5F5F5F5F5F5F5F5F5F5F5F5F5F5F5F5F5F5F5F5F5F5F5F5F5F5F5
310
F5F5F5F5F5F5F5F5F5F5F5F5F5F5F5F5F5F5F5F5F5F5F5F5F5F5F5F5F5F5F5F5F5F5F5F5F5F5F5F5F5F5F5F5F5F5F5F5F5F5F5F5F5F5F5E2F5E2E2E2F5E2F5F5F5F5F5F5F5F5F5F5F5F5F5F5F5F5F5F5F5F5F5F5F5F5F5F5F5F5F5F5F5F5F5F5F5F5F5F5F5F5F5F5F5F5F5F5F5F5F5F5F5F5F5F5F5F5F5F5F5F5F5F5F5F5F5
310
F5F5F5F5F5F5F5F5F5F5F5F5F5F5F5F5F5F5F5F5F5F5F5F5F5F5F5F5F5F5F5F5F5F5F5F5F5F5F5F5F5F5F5F5F5F5F5F5F5F5F5F5F5F5F5F5F5F5F5F5F5F5F5F5F5F5F5F5F5F5F5F5F5F5F5F5F5F5F5F5F5F5F5F5F5F5F5F5F5F5F5F5F5F5F5F5F5F5F5F5F5F5F5F5F5F5F5F5E2F5E2E2E2F5E2F5F5F5F5F5F5F5F5F5F5F5F5
310
F5F5F5F5F5F5F5F5F5F5F5F5F5F5F5F5F5F5F5F5F5F5F5F5F5F5F5F5F5F5F5F5F5F5F5F5F5F5F5F5F5F5F5F5F5F5F5F5F5F5F5F5F5F5F5F5F5F5F5F5F5F5F5F5F5F5F5F5F5F5F5F5F5F5F5F5F5F5F5F5F5F5F5F5F5F5F5F5F5F5F5F5F5F5F5F5F5F5F5F5F5F5F5F5F5F5F5F5F5F5F5F5F5F5F5F5F5F5F5F5F5F5F5F5F5F5F5
310
F5F5F5F5F5F5F5F5F5F5F5F5F5F5F5F5F5F5F5F5F5F5F5F5F5F5F5F5F5F5F5F5F5F5E2F5E2E2E2F5E2F5F5F5F5F5F5F5F5F5F5F5F5F5F5F5F5F5F5F5F5F5F5F5F5F5F5F5F5F5F5F5F5F5F5F5F5F5F5F5F5F5F5F5F5F5F5F5F5F5F5F5F5F5F5F5F5F5F5F5F5F5F5F5F5F5F5F5F5F5F5F5F5F5F5F5F5F5F5F5F5F5F5F5F5F5F5
310
F5F5F5F5F5F5F5F5F5F5F5F5F5F5F5F5F5F5F5F5F5F5F5F5F5F5F5F5F5F5F5F5F5F5F5F5F5F5F5F5F5F5F5F5F5F5F5F5F5F5F5F5F5F5F5F5F5F5F5F5F5F5F5F5F5F5F5F5F5F5F5F5F5F5F5F5F5F5F5F5F5F5F5F5F5F5F5E2F5E2E2E2F5E2F5F5F5F5F5F5F5F5F5F5F5F5F5F5F5F5F5F5F5F5F5F5F5F5F5F5F5F5F5F5F5F5F5
310
F5F5F5F5F5F5F5F5F5F5F5F5F5F5F5F5F5F5F5F5F5F5F5F5F5F5F5F5F5F5F5F5F5F5F5F5F5F5F5F5F5F5F5F5F5F5F5F5F5F5F5F5F5F5F5F5F5F5F5F5F5F5F5F5F5F5F5F5F5F5F5F5F5F5F5F5F5F5F5F5F5F5F5F5F5F5F5F5F5F5F5F5F5F5F5F5F5F5F5F5F5F5F5F5F5F5F5F5F5F5F5F5F5F5F5F5F5F5F5F5F5F5F5F5F5F5F5
310
F5F5F5F5F5F5F5F5F5F5F5F5F5E2F5E2E2E2F5E2F5F5F5F5F5F5F5F5F5F5F5F5F5F5F5F5F5F5F5F5F5F5F5F5F5F5F5F5F5F5F5F5F5F5F5F5F5F5F5F5F5F5F5F5F5F5F5F5F5F5F5F5F5F5F5F5F5F5F5F5F5F5F5F5F5F5F5F5F5F5F5F5F5F5F5F5F5F5F5F5F5F5F5F5F5F5F5F5F5F5F5F5F5F5F5F5F5F5F5F5F5F5F5F5F5F5F5
310
F5F5F5F5F5F5F5F5F5F5F5F5F5F5F5F5F5F5F5F5F5F5F5F5F5F5F5F5F5F5F5F5F5F5F5F5F5F5F5F5F5F5F5F5F5F5F5F5F5F5F5F5F5F5F5F5F5F5F5F5F5F5F5F5F5F5E2F5E2E2E2F5E2F5F5F5F5F5F5F5F5F5F5F5F5F5F5F5F5F5F5F5F5F5F5F5F5F5F5F5F5F5F5F5F5F5F5F5F5F5F5F5F5F5F5F5F5F5F5F5F5F5F5F5F5F5F5
310
F5F5F5F5F5F5F5F5F5F5F5F5F5F5F5F5F5F5F5F5F5F5F5F5F5F5F5F5F5F5F5F5F5F5F5F5F5F5F5F5F5F5F5F5F5F5F5F5F5F5F5F5F5F5F5F5F5F5F5F5F5F5F5F5F5F5F5F5F5F5F5F5F5F5F5F5F5F5F5F5F5F5F5F5F5F5F5F5F5F5F5F5F5F5F5F5F5F5F5F5F5F5F5F5F5F5F5F5F5F5F5F5F5F5F5F5F5F5F5E2F5E2E2E2F5E2F5
310
F5F5F5F5F5F5F5F5F5F5F5F5F5F5F5F5F5F5F5F5F5F5F5F5F5F5F5F5F5F5F5F5F5F5F5F5F5F5F5F5F5F5F5F5F5F5F5F5F5F5F5F5F5F5F5F5F5F5F5F5F5F5F5F5F5F5F5F5F5F5F5F5F5F5F5F5F5F5F5F5F5F5F5F5F5F5F5F5F5F5F5F5F5F5F5F5F5F5F5F5F5F5F5F5F5F5F5F5F5F5F5F5F5F5F5F5F5F5F5F5F5F5F5F5F5F5F5
310
F5F5F5F5F5F5F5F5F5F5F5F5F5F5F5F5F5F5F5F5F5F5F5F5F5F5F5F5F5F5F5F5F5F5F5F5F5F5F5F5F5F5F5F5F5E2F5E2E2E2F5E2F5F5F5F5F5F5F5F5F5F5F5F5F5F5F5F5F5F5F5F5F5F5F5F5F5F5F5F5F5F5F5F5F5F5F5F5F5F5F5F5F5F5F5F5F5F5F5F5F5F5F5F5F5F5F5F5F5F5F5F5F5F5F5F5F5F5F5F5F5F5F5F5F5F5F5
310
F5F5F5F5F5F5F5F5F5F5F5F5F5F5F5F5F5F5F5F5F5F5F5F5F5F5F5F5F5F5F5F5F5F5F5F5F5F5F5F5F5F5F5F5F5F5F5F5F5F5F5F5F5F5F5F5F5F5F5F5F5F5F5F5F5F5F5F5F5F5F5F5F5F5F5F5F5F5F5F5F5F5F5F5F5F5F5F5F5F5F5F5F5F5F5F5F5F5E2F5E2E2E2F5E2F5F5F5F5F5F5F5F5F5F5F5F5F5F5F5F5F5F5F5F5F5F5
310
F5F5F5F5F5F5F5F5F5F5F5F5F5F5F5F5F5F5F5F5F5F5F5F5F5F5F5F5F5F5F5F5F5F5F5F5F5F5F5F5F5F5F5F5F5F5F5F5F5F5F5F5F5F5F5F5F5F5F5F5F5F5F5F5F5F5F5F5F5F5F5F5F5F5F5F5F5F5F5F5F5F5F5F5F5F5F5F5F5F5F5F5F5F5F5F5F5F5F5F5F5F5F5F5F5F5F5F5F5F5F5F5F5F5F5F5F5F5F5F5F5F5F5F5F5F5F5
310
F5F5F5F5F5F5F5F5F5F5F5F5F5F5F5F5F5F5F5F5F5F5F5F5E2F5E2E2E2F5E2F5F5F5F5F5F5F5F5F5F5F5F5F5F5F5F5F5F5F5F5F5F5F5F5F5F5F5F5F5F5F5F5F5F5F5F5F5F5F5F5F5F5F5F5F5F5F5F5F5F5F5F5F5F5F5F5F5F5F5F5F5F5F5F5F5F5F5F5F5F5F5F5F5F5F5F5F5F5F5F5F5F5F5F5F5F5F5F5F5F5F5F5F5F5F5F5
310
F5F5F5F5F5F5F5F5F5F5F5F5F5F5F5F5F5F5F5F5F5F5F5F5F5F5F5F5F5F5F5F5F5F5F5F5F5F5F5F5F5F5F5F5F5F5F5F5F5F5F5F5F5F5F5F5F5F5F5F5F5F5F5F5F5F5F5F5F5F5F5F5F5F5F5F5F5E2F5E2E2E2F5E2F5F5F5F5F5F5F5F5F5F5F5F5F5F5F5F5F5F5F5F5F5F5F5F5F5F5F5F5F5F5F5F5F5F5F5F5F5F5F5F5F5F5F5
310
F5F5F5F5F5F5F5F5F5F5F5F5F5F5F5F5F5F5F5F5F5F5F5F5F5F5F5F5F5F5F5F5F5F5F5F5F5F5F5F5F5F5F5F5F5F5F5F5F5F5F5F5F5F5F5F5F5F5F5F5F5F5F5F5F5F5F5F5F5F5F5F5F5F5F5F5F5F5F5F5F5F5F5F5F5F5F5F5F5F5F5F5F5F5F5F5F5F5F5F5F5F5F5F5F5F5F5F5F5F5F5F5F5F5F5F5F5F5F5F5F5F5F5F5F5F5F5
310
F5F5F5E2F5E2E2E2F5E2F5F5F5F5F5F5F5F5F5F5F5F5F5F5F5F5F5F5F5F5F5F5F5F5F5F5F5F5F5F5F5F5F5F5F5F5F5F5F5F5F5F5F5F5F5F5F5F5F5F5F5F5F5F5F5F5F5F5F5F5F5F5F5F5F5F5F5F5F5F5F5F5F5F5F5F5F5F5F5F5F5F5F5F5F5F5F5F5F5F5F5F5F5F5F5F5F5F5F5F5F5F5F5F5F5F5F5F5F5F5F5F5F5F5F5F5F5
310
F5F5F5F5F5F5F5F5F5F5F5F5F5F5F5F5F5F5F5F5F5F5F5F5F5F5F5F5F5F5F5F5F5F5F5F5F5F5F5F5F5F5F5F5F5F5F5F5F5F5F5F5F5F5F5F5E2F5E2E2E2F5E2F5F5F5F5F5F5F5F5F5F5F5F5F5F5F5F5F5F5F5F5F5F5F5F5F5F5F5F5F5F5F5F5F5F5F5F5F5F5F5F5F5F5F5F5F5F5F5F5F5F5F5F5F5F5F5F5F5F5F5F5F5F5F5F5
310
F5F5F5F5F5F5F5F5F5F5F5F5F5F5F5F5F5F5F5F5F5F5F5F5F5F5F5F5F5F5F5F5F5F5F5F5F5F5F5F5F5F5F5F5F5F5F5F5F5F5F5F5F5F5F5F5F5F5F5F5F5F5F5F5F5F5F5F5F5F5F5F5F5F5F5F5F5F5F5F5F5F5F5F5F5F5F5F5F5F5F5F5F5F5F5F5F5F5F5F5F5F5F5F5F5F5F5F5F5E2F5E2E2E2F5E2F5F5F5F5F5F5F5F5F5F5F5
310
F5F5F5F5F5F5F5F5F5F5F5F5F5F5F5F5F5F5F5F5F5F5F5F5F5F5F5F5F5F5F5F5F5F5F5F5F5F5F5F5F5F5F5F5F5F5F5F5F5F5F5F5F5F5F5F5F5F5F5F5F5F5F5F5F5F5F5F5F5F5F5F5F5F5F5F5F5F5F5F5F5F5F5F5F5F5F5F5F5F5F5F5F5F5F5F5F5F5F5F5F5F5F5F5F5F5F5F5F5F5F5F5F5F5F5F5F5F5F5F5F5F5F5F5F5F5F5
310
F5F5F5F5F5F5F5F5F5F5F5F5F5F5F5F5F5F5F5F5F5F5F5F5F5F5F5F5F5F5F5F5F5F5F5E2F5E2E2E2F5E2F5F5F5F5F5F5F5F5F5F5F5F5F5F5F5F5F5F5F5F5F5F5F5F5F5F5F5F5F5F5F5F5F5F5F5F5F5F5F5F5F5F5F5F5F5F5F5F5F5F5F5F5F5F5F5F5F5F5F5F5F5F5F5F5F5F5F5F5F5F5F5F5F5F5F5F5F5F5F5F5F5F5F5F5F5
310
F5F5F5F5F5F5F5F5F5F5F5F5F5F5F5F5F5F5F5F5F5F5F5F5F5F5F5F5F5F5F5F5F5F5F5F5F5F5F5F5F5F5F5F5F5F5F5F5F5F5F5F5F5F5F5F5F5F5F5F5F5F5F5F5F5F5F5F5F5F5F5F5F5F5F5F5F5F5F5F5F5F5F5F5F5F5F5F5E2F5E2E2E2F5E2F5F5F5F5F5F5F5F5F5F5F5F5F5F5F5F5F5F5F5F5F5F5F5F5F5F5F5F5F5F5F5F5
310
F5F5F5F5F5F5F5F5F5F5F5F5F5F5F5F5F5F5F5F5F5F5F5F5F5F5F5F5F5F5F5F5F5F5F5F5F5F5F5F5F5F5F5F5F5F5F5F5F5F5F5F5F5F5F5F5F5F5F5F5F5F5F5F5F5F5F5F5F5F5F5F5F5F5F5F5F5F5F5F5F5F5F5F5F5F5F5F5F5F5F5F5F5F5F5F5F5F5F5F5F5F5F5F5F5F5F5F5F5F5F5F5F5F5F5F5F5F5F5F5F5F5F5F5F5F5F5
310
F5F5F5F5F5F5F5F5F5F5F5F5F5F5E2F5E2E2E2F5E2F5F5F5F5F5F5F5F5F5F5F5F5F5F5F5F5F5F5F5F5F5F5F5F5F5F5F5F5F5F5F5F5F5F5F5F5F5F5F5F5F5F5F5F5F5F5F5F5F5F5F5F5F5F5F5F5F5F5F5F5F5F5F5F5F5F5F5F5F5F5F5F5F5F5F5F5F5F5F5F5F5F5F5F5F5F5F5F5F5F5F5F5F5F5F5F5F5F5F5F5F5F5F5F5F5F5
310
F5F5F5F5F5F5F5F5F5F5F5F5F5F5F5F5F5F5F5F5F5F5F5F5F5F5F5F5F5F5F5F5F5F5F5F5F5F5F5F5F5F5F5F5F5F5F5F5F5F5F5F5F5F5F5F5F5F5F5F5F5F5F5F5F5F5F5E2F5E2E2E2F5E2F5F5F5F5F5F5F5F5F5F5F5F5F5F5F5F5F5F5F5F5F5F5F5F5F5F5F5F5F5F5F5F5F5F5F5F5F5F5F5F5F5F5F5F5F5F5F5F5F5F5F5F5F5
310
F5F5F5F5F5F5F5F5F5F5F5F5F5F5F5F5F5F5F5F5F5F5F5F5F5F5F5F5F5F5F5F5F5F5F5F5F5F5F5F5F5F5F5F5F5F5F5F5F5F5F5F5F5F5F5F5F5F5F5F5F5F5F5F5F5F5F5F5F5F5F5F5F5F5F5F5F5F5F5F5F5F5F5F5F5F5F5F5F5F5F5F5F5F5F5F5F5F5F5F5F5F5F5F5F5F5F5F5F5F5F5F5F5F5F5F5F5F5F5F5E2F5E2E2E2F5E2
310
F5F5F5F5F5F5F5F5F5F5F5F5F5F5F5F5F5F5F5F5F5F5F5F5F5F5F5F5F5F5F5F5F5F5F5F5F5F5F5F5F5F5F5F5F5F5F5F5F5F5F5F5F5F5F5F5F5F5F5F5F5F5F5F5F5F5F5F5F5F5F5F5F5F5F5F5F5F5F5F5F5F5F5F5F5F5F5F5F5F5F5F5F5F5F5F5F5F5F5F5F5F5F5F5F5F5F5F5F5F5F5F5F5F5F5F5F5F5F5F5F5F5F5F5F5F5F5
310
F5F5F5F5F5F5F5F5F5F5F5F5F5F5F5F5F5F5F5F5F5F5F5F5F5F5F5F5F5F5F5F5F5F5F5F5F5F5F5F5F5F5F5F5F5F5E2F5E2E2E2F5E2F5F5F5F5F5F5F5F5F5F5F5F5F5F5F5F5F5F5F5F5F5F5F5F5F5F5F5F5F5F5F5F5F5F5F5F5F5F5F5F5F5F5F5F5F5F5F5F5F5F5F5F5F5F5F5F5F5F5F5F5F5F5F5E2E2E2E2E2E2E2E2E2E2E2
310
E2E2E2E2E2E2E2E2E2E2E2E2E2E2E2E2E2E2E2E2E2E2E2E2E2E2E2E2E2E2E2E2E2E2F5F5F5F5F5F5F5F5F5F5F5F5F5F5F5F5F5F5F5F5F5F5F5F5F5F5F5F5F5F5F5F5F5F5F5F5F5F5F5F5F5F5F5F5F5F5F5F5F5F5F5F5F5F5F5F5F5F5F5F5F5F5F5F5F5E2F5E2E2E2F5E2F5F5F5F5F5F5F5F5F5F5F5F5F5F5F5F5F5F5F5F5F5
310
F5F5F5F5F5F5F5F5F5F5F5F5F5F5F5F5F5F5F5F5F5F5F5F5F5F5F5F5F5F5F5F5F5F5F5F5F5F5F5F5F5F5E2E2E2E2E2E2E2E2E2E2E2E2E2E2E2E2E2E2E2E2E2E2E2E2E2E2E2E2E2E2E2E2E2E2E2E2E2E2E2E2E2E2E2E2E2F5F5F5F5F5F5F5F5F5F5F5F5F5F5F5F5F5F5F5F5F5F5F5F5F5F5F5F5F5F5F5F5F5F5F5F5F5F5F5F5
310
F5F5F5F5F5F5F5F5F5F5F5F5F5F5F5F5F5F5F5F5F5F5F5F5F5E2F5E2E2E2F5E2F5F5F5F5F5F5F5F5F5F5F5F5F5F5F5F5F5F5F5F5F5F5F5F5F5F5F5F5F5F5F5F5F5F5F5F5F5F5F5F5F5F5F5F5F5F5F5F5F5F5F5F5F5F5F5F5F5F5F5F5F5F5F5E2E2E2E2E2E2E2E2E2E2E2E2E2E2E2E2E2E2E2E2E2E2E2E2E2E2E2E2E2E2E2E2
310
E2E2E2E2E2E2E2E2E2E2E2E2E2F5F5F5F5F5F5F5F5F5F5F5F5F5F5F5F5F5F5F5F5F5F5F5F5F5F5F5F5F5F5F5F5F5F5F5F5F5F5F5F5F5F5F5F5F5F5F5F5F5F5F5F5F5F5F5F5F5F5F5F5F5F5F5F5F5E2F5E2E2E2F5E2F5F5F5F5F5F5F5F5F5F5F5F5F5F5F5F5F5F5F5F5F5F5F5F5F5F5F5F5F5F5F5F5F5F5F5F5F5F5F5F5F5F5
310
F5F5F5F5F5F5F5F5F5F5F5F5F5F5F5F5F5F5F5F5F5E2E2E2E2E2E2E2E2E2E2E2E2E2E2E2E2E2E2E2E2E2E2E2E2E2E2E2E2E2E2E2E2E2E2E2E2E2E2E2E2E2E2E2E2E2F5F5F5F5F5F5F5F5F5F5F5F5F5F5F5F5F5F5F5F5F5F5F5F5F5F5F5F5F5F5F5F5F5F5F5F5F5F5F5F5F5F5F5F5F5F5F5F5F5F5F5F5F5F5F5F5F5F5F5F5F5
310
F5F5F5F5E2F5E2E2E2F5E2F5F5F5F5F5F5F5F5F5F5F5F5F5F5F5F5F5F5F5F5F5F5F5F5F5F5F5F5F5F5F5F5F5F5F5F5F5F5F5F5F5F5F5F5F5F5F5F5F5F5F5F5F5F5F5F5F5F5F5F5F5F5F5F5F5F5F5F5F5F5F5F5F5F5F5F5F5F5F5F5F5F5F5F5F5F5F5F5F5F5F5F5F5F5F5F5F5F5F5F5F5F5F5F5F5F5F5F5F5F5F5F5F5F5F5F5
310
F5F5F5F5F5F5F5F5F5F5F5F5F5F5F5F5F5F5F5F5F5F5F5F5F5F5F5F5F5F5F5F5F5F5F5F5F5F5F5F5F5F5F5F5F5F5F5F5F5F5F5F5F5F5F5F5F5E2F5E2E2E2F5E2F5F5F5F5F5F5F5F5F5F5F5F5F5F5F5F5F5F5F5F5F5F5F5F5F5F5F5F5F5F5F5F5F5F5F5F5F5F5F5F5F5F5F5F5F5F5F5F5F5F5F5F5F5F5F5F5F5F5F5F5F5F5F5
310
F5F5F5F5F5F5F5F5F5F5F5F5F5F5F5F5F5F5F5F5F5F5F5F5F5F5F5F5F5F5F5F5F5F5F5F5F5F5F5F5F5F5F5F5F5F5F5F5F5F5F5F5F5F5F5F5F5F5F5F5F5F5F5F5F5F5F5F5F5F5F5F5F5F5F5F5F5F5F5F5F5F5F5F5F5F5F5F5F5F5F5F5F5F5F5F5F5F5F5F5F5F5F5F5F5F5F5F5F5F5E2F5E2E2E2F5E2F5F5F5F5F5F5F5F5F5F5
310
F5F5F5F5F5F5F5F5F5F5F5F5F5F5F5F5F5F5F5F5F5F5F5F5F5F5F5F5F5F5F5F5F5F5F5F5F5F5F5F5F5F5F5F5F5F5E2BEF5F5F5F5F5F5F5F5F5F5F5F5F5F5F5F5F5F5F5F5F5F5F5F5F5F5F5F5F5F5F5F5F5F5F5F5F5F5F5F5F5F5F5F5F5F5F5F5F5F5F5F5F5F5F5F5F5F5F5F5F5F5F5F5F5F5F5F5F5F5F5F5F5F5F5F5F5F5F5
310
F5F5F5F5F5F5F5F5F5F5F5F5F5F5F5F5F5F5F5F5F5F5F5F5F5F5F5F5F5F5F5F5F5F5F5F5E2F5E2E2E2F5E2F5F5F5F5F5F5F5F5F5F5F5F5F5F5F5F5F5F5F5F5F5F5F5F5F5F5F5F5F5F5F5F5F5F5F5F5F5F5F5F5F5F5F5F5F5F5F5F5F5F5F5F5F5F5E2E2E2E2E2F5F5F5F5E2E2F5E2E2E2E2E2E2E2E2F5E2E2E2E2E2E2E2E2F5
310
E2E2E2E2E2E2E2E2F5E2E2E2E2E2E2E2E2F5E2E2E2E2E2E2E2E2F5E2E2E2E2E2E2E2E2F5E2E2E2E2E2E2E2E2F5E2E2E2E2E2E2E2F5F5F5F5F5F5F5F5F5F5F5F5F5F5F5F5F5F5F5F5F5F5F5F5F5F5F5F5F5F5F5F5F5F5F5F5F5E2F5E2E2E2F5E2F5F5F5F5F5F5F5F5F5F5F5F5F5F5F5F5F5F5F5F5F5F5F5F5F5F5F5F5F5F5F5
310
F5F5F5F5F5F5F5F5F5F5F5F5F5F5F5F5F5F5F5F5F5F5F5F5BEE2F5F5F5F5F5F5E2F5F5F5F5F5F5F5F5F5F5F5F5F5F5F5F5F5F5F5F5F5F5F5F5F5F5F5F5F5F5F5F5F5F5F5F5F5F5F5F5F5F5F5F5F5F5F5F5F5F5F5F5F5F5F5F5F5F5F5F5F5F5F5F5F5F5F5F5F5F5F5E2F5F5F5F5F5F5F5F5F5F5F5F5F5F5F5F5F5F5F5F5F5F5
310
F5F5F5F5F5F5F5F5F5F5F5F5F5F5F5E2F5E2E2E2F5E2F5F5F5F5F5F5F5F5F5F5F5F5F5F5F5F5F5F5F5F5F5F5F5F5F5F5F5F5F5F5F5F5F5F5F5F5F5F5F5F5F5F5F5F5F5F5F5F5F5F5F5F5F5F5F5F5E2F5F5F5F5F5F5E2F5F5F5F5F5F5F5F5F5F5F5F5F5F5F5F5F5F5F5F5F5F5F5F5F5F5F5F5F5F5F5F5F5F5F5F5F5F5F5F5F5
310
F5F5F5F5F5F5F5F5F5F5F5F5F5F5F5F5F5F5F5F5F5F5F5F5F5F5F5F5F5F5E2F5F5F5F5F5F5F5F5F5F5F5F5F5F5F5F5F5F5F5F5F5F5F5F5F5F5F5F5F5F5F5F5F5F5F5F5F5E2F5E2E2E2F5E2F5F5F5F5F5F5F5F5F5F5F5F5F5F5F5F5F5F5F5F5F5F5F5F5F5F5F5F5F5F5F5F5F5F5F5F5F5F5F5F5F5F5F5F5F5F5F5F5F5F5F5F5
310
F5F5F5F5E2F5F5F5F5F5F5E2F5F5F5F5F5F5F5F5F5F5F5F5F5F5F5F5F5F5F5F5F5F5F5F5F5F5F5F5F5F5F5F5F5F5F5F5F5F5F5F5F5F5F5F5F5F5F5F5F5F5F5F5F5F5F5F5F5F5F5F5F5F5F5F5F5F5F5F5F5F5F5E2F5F5F5F5F5F5F5F5F5F5F5F5F5F5F5F5F5F5F5F5F5F5F5F5F5F5F5F5F5F5F5F5F5F5F5F5F5E2F5E2E2E2F5
310
E2F5F5F5F5F5F5F5F5F5F5F5F5F5F5F5F5F5F5F5F5F5F5F5F5F5F5F5F5F5F5F5F5F5F5F5F5F5F5F5F5F5F5F5F5F5F5F5F5F5F5F5F5F5F5F5F5E2F5F5F5F5F5F5E2F5F5F5F5F5F5F5F5F5F5F5F5F5F5F5F5F5F5F5F5F5F5F5F5F5F5F5F5F5F5F5F5F5F5F5F5F5F5F5F5F5F5F5F5F5F5F5F5F5F5F5F5F5F5F5F5F5F5F5F5F5F5
310
F5F5F5F5F5F5F5F5F5E2F5F5F5F5F5F5F5F5F5F5F5F5F5F5F5F5F5F5F5F5F5F5F5F5F5F5F5F5F5F5F5F5F5F5F5F5F5E2F5E2E2E2F5E2F5F5F5F5F5F5F5F5F5F5F5F5F5F5F5F5F5F5F5F5F5F5F5F5F5F5F5F5F5F5F5F5F5F5F5F5F5F5F5F5F5F5F5F5F5F5F5F5F5F5F5F5F5F5F5F5E2F5F5F5F5F5F5E2F5F5F5F5F5F5F5F5F5
310
F5F5F5F5F5F5F5F5F5F5F5F5F5F5F5F5F5F5F5F5F5F5F5F5F5F5F5F5F5F5F5F5F5F5F5F5F5F5F5F5F5F5F5F5F5F5F5F5F5F5F5F5F5F5F5F5F5F5F5F5F5F5E2F5F5F5F5F5F5F5F5F5F5F5F5F5F5F5F5F5F5F5F5F5F5F5F5F5F5F5F5F5F5F5F5F5F5F5F5F5E2F5E2E2E2F5E2F5F5F5F5F5F5F5F5F5F5F5F5F5F5F5F5F5F5F5F5
310
F5F5F5F5F5F5F5F5F5F5F5F5F5F5F5F5F5F5F5F5F5F5F5F5F5F5F5F5F5F5F5F5F5F5F5F5E2F5F5F5F5F5F5E2F5F5F5F5F5F5F5F5F5F5F5F5F5F5F5F5F5F5F5F5F5F5F5F5F5F5F5F5F5F5F5F5F5F5F5F5F5F5F5F5F5F5F5F5F5F5F5F5F5F5F5F5F5F5F5F5F5F5F5F5F5F5F5F5F5F5F5F5F5F5F5E2F5F5F5F5F5F5F5F5F5F5F5
310
F5F5F5F5F5F5F5F5F5F5F5F5F5F5F5F5F5F5F5F5F5F5F5F5F5F5E2F5E2E2E2F5E2F5F5F5F5F5F5F5F5F5F5F5F5F5F5F5F5F5F5F5F5F5F5F5F5F5F5F5F5F5F5F5F5F5F5F5F5F5F5F5F5F5F5F5F5F5F5F5F5F5F5F5F5F5F5F5F5E2F5F5F5F5F5F5F5F5F5F5F5F5F5F5F5F5F5F5F5F5F5F5F5F5F5F5F5F5F5F5F5F5F5F5F5F5F5
310
F5F5F5F5F5F5F5F5F5F5F5F5F5F5F5F5F5F5F5F5F5F5F5F5F5F5F5F5F5F5F5F5F5F5F5F5F5F5F5F5F5F5F5F5F5F5F5F5F5F5F5F5F5F5F5F5F5F5F5F5F5F5F5F5F5F5F5F5F5F5F5F5F5F5F5F5F5F5F5E2F5E2E2E2F5E2F5F5F5F5F5F5F5F5F5F5F5F5F5F5F5F5F5F5F5F5F5F5F5F5F5F5F5F5F5F5F5F5F5F5F5F5F5F5F5F5F5
310
F5F5F5F5F5F5F5F5F5F5F5F5F5F5F5E2F5F5F5F5F5F5E2F5F5F5F5F5F5F5F5F5F5F5F5F5F5F5F5F5F5F5F5F5F5F5F5F5F5F5F5F5F5F5F5F5F5F5F5F5F5F5F5F5F5F5F5F5F5F5F5F5F5F5F5F5F5F5F5F5F5F5F5F5F5F5F5F5F5F5F5F5F5F5E2F5F5F5F5F5F5F5F5F5F5F5F5F5F5F5F5F5F5F5F5F5F5F5F5F5F5F5F5F5F5F5F5
310
F5F5F5F5F5E2F5E2E2E2F5E2F5F5F5F5F5F5F5F5F5F5F5F5F5F5F5F5F5F5F5F5F5F5F5F5F5F5F5F5F5F5F5F5F5F5F5F5F5F5F5F5F5F5F5F5F5F5F5F5F5F5F5F5F5F5F5F5E2F5F5F5F5F5F5E2F5F5F5F5F5F5F5F5F5F5F5F5F5F5F5F5F5F5F5F5F5F5F5F5F5F5F5F5F5F5F5F5F5F5F5F5F5F5F5F5F5F5F5F5F5F5F5F5F5F5F5
310
F5F5F5F5F5F5F5F5F5F5F5F5F5F5F5F5F5F5F5F5E2F5F5F5F5F5F5F5F5F5F5F5F5F5F5F5F5F5F5F5F5F5F5F5F5F5F5F5F5F5F5F5F5F5F5F5F5F5E2F5E2E2E2F5E2F5F5F5F5F5F5F5F5F5F5F5F5F5F5F5F5F5F5F5F5F5F5F5F5F5F5F5F5F5F5F5F5F5F5F5F5F5F5F5F5F5F5F5F5F5F5F5F5F5F5F5F5F5F5F5F5E2F5F5F5F5F5
310
F5E2F5F5F5F5F5F5F5F5F5F5F5F5F5F5F5F5F5F5F5F5F5F5F5F5F5F5F5F5F5F5F5F5F5F5F5F5F5F5F5F5F5F5F5F5F5F5F5F5F5F5F5F5F5F5F5F5F5F5F5F5F5F5F5F5F5F5F5F5F5F5F5E2F5F5F5F5F5F5F5F5F5F5F5F5F5F5F5F5F5F5F5F5F5F5F5F5F5F5F5F5F5F5F5F5F5F5F5F5F5E2F5E2E2E2F5E2F5F5F5F5F5F5F5F5F5
310
F5F5F5F5F5F5F5F5F5F5F5F5F5F5F5F5F5F5F5F5F5F5F5F5F5F5F5F5F5F5F5F5F5F5F5F5F5F5F5F5F5F5F5F5F5F5F5E2F5F5F5F5F5F5E2F5F5F5F5F5F5F5F5F5F5F5F5F5F5F5F5F5F5F5F5F5F5F5F5F5F5F5F5F5F5F5F5F5F5F5F5F5F5F5F5F5F5F5F5F5F5F5F5F5F5F5F5F5F5F5F5F5F5F5F5F5F5F5F5F5F5F5F5F5F5F5E2
310
F5F5F5F5F5F5F5F5F5F5F5F5F5F5F5F5F5F5F5F5F5F5F5F5F5F5F5F5F5F5F5F5F5F5F5F5F5E2F5E2E2E2F5E2F5F5F5F5F5F5F5F5F5F5F5F5F5F5F5F5F5F5F5F5F5F5F5F5F5F5F5F5F5F5F5F5F5F5F5F5F5F5F5F5F5F5F5F5F5F5F5F5F5F5F5F5F5F5F5F5E2F5F5F5F5F5F5E2F5F5F5F5F5F5F5F5F5F5F5F5F5F5F5F5F5F5F5
310
F5F5F5F5F5F5F5F5F5F5F5F5F5F5F5F5F5F5F5F5F5F5F5F5F5F5F5F5F5F5F5F5F5F5F5F5F5F5F5F5F5F5F5F5F5F5F5F5F5F5F5F5E2F5F5F5F5F5F5F5F5F5F5F5F5F5F5F5F5F5F5F5F5F5F5F5F5F5F5F5F5F5F5F5F5F5F5F5F5F5E2F5E2E2E2F5E2F5F5F5F5F5F5F5F5F5F5F5F5F5F5F5F5F5F5F5F5F5F5F5F5F5F5F5F5F5F5
310
F5F5F5F5F5F5F5F5F5F5F5F5F5F5F5F5F5F5F5F5F5F5F5F5F5F5E2F5F5F5F5F5F5E2F5F5F5F5F5F5F5F5F5F5F5F5F5F5F5F5F5F5F5F5F5F5F5F5F5F5F5F5F5F5F5F5F5F5F5F5F5F5F5F5F5F5F5F5F5F5F5F5F5F5F5F5F5F5F5F5F5F5F5F5F5F5F5F5F5F5F5F5F5F5F5E2F5F5F5F5F5F5F5F5F5F5F5F5F5F5F5F5F5F5F5F5F5
310
F5F5F5F5F5F5F5F5F5F5F5F5F5F5F5F5E2F5E2E2E2F5E2F5F5F5F5F5F5F5F5F5F5F5F5F5F5F5F5F5F5F5F5F5F5F5F5F5F5F5F5F5F5F5F5F5F5F5F5F5F5F5F5F5F5F5F5F5F5F5F5F5F5F5F5F5F5F5F5E2F5F5F5F5F5F5E2F5F5F5F5F5F5F5F5F5F5F5F5F5F5F5F5F5F5F5F5F5F5F5F5F5F5F5F5F5F5F5F5F5F5F5F5F5F5F5F5
310
F5F5F5F5F5F5F5F5F5F5F5F5F5F5F5F5F5F5F5F5F5F5F5F5F5F5F5F5F5F5F5E2F5F5F5F5F5F5F5F5F5F5F5F5F5F5F5F5F5F5F5F5F5F5F5F5F5F5F5F5F5F5F5F5F5F5F5F5F5E2F5E2E2E2F5E2F5F5F5F5F5F5F5F5F5F5F5F5F5F5F5F5F5F5F5F5F5F5F5F5F5F5F5F5F5F5F5F5F5F5F5F5F5F5F5F5F5F5F5F5F5F5F5F5F5F5F5
310
F5F5F5F5F5E2F5F5F5F5F5F5E2F5F5F5F5F5F5F5F5F5F5F5F5F5F5F5F5F5F5F5F5F5F5F5F5F5F5F5F5F5F5F5F5F5F5F5F5F5F5F5F5F5F5F5F5F5F5F5F5F5F5F5F5F5F5F5F5F5F5F5F5F5F5F5F5F5F5F5F5F5F5F5E2F5F5F5F5F5F5F5F5F5F5F5F5F5F5F5F5F5F5F5F5F5F5F5F5F5F5F5F5F5F5F5F5F5F5F5F5F5E2F5E2E2E2
310
F5E2F5F5F5F5F5F5F5F5F5F5F5F5F5F5F5F5F5F5F5F5F5F5F5F5F5F5F5F5F5F5F5F5F5F5F5F5F5F5F5F5F5F5F5F5F5F5F5F5F5F5F5F5F5F5F5F5E2F5F5F5F5F5F5F5F5F5F5F5F5F5F5F5F5F5F5F5F5F5F5F5F5F5F5F5F5F5F5F5F5F5F5F5F5F5F5F5F5F5F5F5F5F5F5F5F5F5F5F5F5F5F5F5F5F5F5F5F5F5F5F5F5F5F5F5F5
310
F5F5F5F5F5F5F5F5F5F5F5F5F5F5F5F5F5F5F5F5F5F5F5F5F5F5F5F5F5F5F5F5F5F5F5F5F5F5F5F5F5F5F5F5F5F5F5F5E2F5E2E2E2F5E2F5F5F5F5F5F5F5F5F5F5F5F5F5F5F5F5F5F5F5F5F5F5F5F5F5F5F5F5F5F5F5F5F5F5F5F5F5F5F5F5F5F5F5F5F5F5F5F5F5F5F5F5F5F5F5F5E2F5F5F5F5F5F5E2F5F5F5F5F5F5F5F5
310
F5F5F5F5F5F5F5F5F5E2E2E2E2E2E2E2E2E2E2E2E2E2E2E2E2E2E2E2E2E2E2E2E2E2E2E2E2E2E2E2E2E2E2E2E2E2E2F5F5F5F5F5F5F5F5F5F5F5F5F5F5F5F5E2F5F5F5F5F5F5F5F5F5F5F5F5F5F5F5F5F5F5F5F5F5F5F5F5F5F5F5F5F5F5F5F5F5F5F5F5F5E2F5E2E2E2F5E2F5F5F5F5F5F5F5F5F5F5F5F5F5F5F5F5F5F5F5
310
F5F5F5F5F5F5F5F5F5F5F5F5F5F5F5F5F5F5F5F5F5F5F5F5F5F5F5F5F5F5F5F5F5F5F5F5F5E2F5F5F5F5F5F5E2F5F5F5F5F5F5F5F5F5F5F5F5F5F5F5F5E2E2E2E2E2E2E2E2E2E2E2E2E2E2E2E2E2E2E2E2E2E2E2E2E2E2E2E2E2E2E2F5F5F5F5F5F5F5E2F5F5F5F5F5F5F5F5F5F5F5F5F5F5F5F5E2F5F5F5F5F5F5F5F5F5F5
310
F5F5F5F5F5F5F5F5F5F5F5F5F5F5F5F5F5F5F5F5F5F5F5F5F5F5F5E2F5E2E2E2F5E2F5F5F5F5F5F5F5F5F5F5F5F5F5F5F5F5F5F5F5F5F5F5F5F5F5F5F5F5F5F5F5F5F5F5F5F5F5F5F5F5F5F5F5F5F5F5F5F5F5F5F5F5F5F5F5F5E2F5F5F5F5F5F5E2F5F5F5F5F5F5F5F5F5F5F5F5F5F5F5F5E2E2E2F5F5F5F5F5F5F5F5F5F5
310
F5F5F5F5F5F5F5F5F5F5F5F5F5F5F5F5F5E2F5F5F5F5F5F5F5E2E2F5F5F5F5F5F5F5F5F5F5F5F5F5F5F5E2F5F5F5F5F5F5F5F5F5F5F5F5F5F5F5F5F5F5F5F5F5F5F5F5F5F5F5F5F5F5F5F5F5F5F5F5F5E2F5E2E2E2F5E2F5F5F5F5F5F5F5F5F5F5F5F5F5F5F5F5F5F5F5F5F5F5F5F5F5F5F5F5F5F5F5F5F5F5F5F5F5F5F5F5
310
F5F5F5F5F5F5F5F5F5F5F5F5F5F5F5F5E2F5F5F5F5F5F5E2F5F5F5F5F5F5F5F5F5F5F5F5F5F5F5F5E2E2E2F5F5F5F5F5F5F5F5F5F5F5F5F5F5F5F5F5F5F5F5F5F5F5F5F5F5F5E2E2E2E2F5F5F5F5F5E2F5F5F5F5F5F5F5F5F5F5F5F5F5F5F5E2F5F5F5F5F5F5F5F5F5F5F5F5F5F5F5F5F5F5F5F5F5F5F5F5F5F5F5F5F5F5F5
310
F5F5F5F5F5F5E2F5E2E2E2F5E2F5F5F5F5F5F5F5F5F5F5F5F5F5F5F5F5F5F5F5F5F5F5F5F5F5F5F5F5F5F5F5F5F5F5F5F5F5F5F5F5F5F5F5F5F5F5F5F5F5F5F5F5F5F5F5F5E2F5F5F5F5F5F5E2F5F5F5F5F5F5F5F5F5F5F5F5F5F5F5F5E2E2F5F5F5F5F5F5F5F5F5F5F5F5F5F5F5F5F5F5F5F5F5F5F5F5F5F5F5F5F5F5F5F5
310
E2F5F5F5F5E2F5F5F5F5F5F5F5F5F5F5F5F5F5F5F5E2F5F5F5F5F5F5F5F5F5F5F5F5F5F5F5F5F5F5F5F5F5F5F5F5F5F5F5F5F5F5F5F5F5F5F5F5F5E2F5E2E2E2F5E2F5F5F5F5F5F5F5F5F5F5F5F5F5F5F5F5F5F5F5F5F5F5F5F5F5F5F5F5F5F5F5F5F5F5F5F5F5F5F5F5F5F5F5F5F5F5F5F5F5F5F5F5F5F5F5F5E2F5F5F5F5
310
F5F5E2F5F5F5F5F5F5F5F5F5F5F5F5F5F5F5F5E2E2F5F5F5F5F5F5F5F5F5F5F5F5F5F5F5F5F5F5F5F5F5F5F5F5F5F5F5F5F5F5F5F5F5E2F5F5F5E2F5F5F5F5F5F5F5F5F5F5F5F5F5F5F5E2F5F5F5F5F5F5F5F5F5F5F5F5F5F5F5F5F5F5F5F5F5F5F5F5F5F5F5F5F5F5F5F5F5F5F5F5F5E2F5E2E2E2F5E2F5F5F5F5F5F5F5F5
310
F5F5F5F5F5F5F5F5F5F5F5F5F5F5F5F5F5F5F5F5F5F5F5F5F5F5F5F5F5F5F5F5F5F5F5F5F5F5F5F5F5F5F5F5F5F5F5F5E2F5F5F5F5F5F5E2F5F5F5F5F5F5F5F5F5F5F5F5F5F5F5F5E2E2F5F5F5F5F5F5F5F5F5F5F5F5F5F5F5F5F5F5F5F5F5F5F5F5F5F5F5F5F5F5F5F5F5E2F5F5F5E2F5F5F5F5F5F5F5F5F5F5F5F5F5F5F5
310
E2F5F5F5F5F5F5F5F5F5F5F5F5F5F5F5F5F5F5F5F5F5F5F5F5F5F5F5F5F5F5F5F5F5F5F5F5F5E2F5E2E2E2F5E2F5F5F5F5F5F5F5F5F5F5F5F5F5F5F5F5F5F5F5F5F5F5F5F5F5F5F5F5F5F5F5F5F5F5F5F5F5F5F5F5F5F5F5F5F5F5F5F5F5F5F5F5F5F5F5F5E2F5F5F5F5F5F5E2F5F5F5F5F5F5F5F5F5F5F5F5F5F5F5F5E2E2
310
F5F5F5F5F5F5F5F5F5F5F5F5F5F5F5F5F5F5F5F5F5F5F5F5F5F5F5F5F5F5F5F5F5E2F5F5F5E2F5F5F5F5F5F5F5F5F5F5F5F5F5F5F5E2F5F5F5F5F5F5F5F5F5F5F5F5F5F5F5F5F5F5F5F5F5F5F5F5F5F5F5F5F5F5F5F5F5F5F5F5F5E2F5E2E2E2F5E2F5F5F5F5F5F5F5F5F5F5F5F5F5F5F5F5F5F5F5F5F5F5F5F5F5F5F5F5F5
310
F5F5F5F5F5F5F5F5F5F5F5F5F5F5F5F5F5F5F5F5F5F5F5F5F5F5F5E2F5F5F5F5F5F5F5F5F5F5F5F5F5F5F5F5F5F5F5F5F5F5F5E2E2F5F5F5F5F5F5F5F5F5F5F5F5F5F5F5F5F5F5F5F5F5F5F5F5F5F5F5F5F5F5F5F5F5E2E2E2E2E2F5F5F5F5F5F5F5F5F5F5F5F5F5F5F5F5F5F5F5F5F5F5F5F5F5F5F5F5F5F5F5F5F5F5F5F5
310
F5F5F5F5F5F5F5F5F5F5F5F5F5F5F5F5F5E2F5E2E2E2F5E2F5F5F5F5F5F5F5F5F5F5F5F5F5F5F5F5F5F5F5F5F5F5F5F5F5F5F5F5F5F5F5F5F5F5F5F5F5F5F5F5F5F5F5F5F5F5F5F5F5F5F5F5F5F5F5F5E2F5F5F5F5F5F5E2F5F5F5F5F5F5F5F5F5F5F5F5F5F5F5F5E2E2F5F5F5F5F5F5F5F5F5F5F5F5F5F5F5F5F5F5F5F5F5
310
F5F5F5F5F5F5F5F5F5F5F5F5F5F5E2E2F5F5F5F5F5F5F5F5F5F5F5F5F5F5F5F5E2F5F5F5F5F5F5F5F5F5F5F5F5F5F5F5F5F5F5F5F5F5F5F5F5F5F5F5F5F5F5F5F5F5F5F5F5F5E2F5E2E2E2F5E2F5F5F5F5F5F5F5F5F5F5F5F5F5F5F5F5F5F5F5F5F5F5F5F5F5F5F5F5F5F5F5F5F5F5F5F5F5F5F5F5F5F5F5F5F5F5F5F5F5F5
310
F5F5F5F5F5F5E2F5F5F5F5F5F5E2F5F5F5F5F5F5F5F5F5F5F5F5F5F5F5F5E2E2F5F5F5F5F5F5F5F5F5F5F5F5F5F5F5F5F5F5F5F5F5F5F5F5F5F5F5F5F5F5F5F5F5F5F5E2E2F5F5F5F5F5F5F5F5F5F5F5F5F5F5F5F5E2F5F5F5F5F5F5F5F5F5F5F5F5F5F5F5F5F5F5F5F5F5F5F5F5F5F5F5F5F5F5F5F5F5F5F5F5F5E2F5E2E2
310
E2F5E2F5F5F5F5F5F5F5F5F5F5F5F5F5F5F5F5F5F5F5F5F5F5F5F5F5F5F5F5F5F5F5F5F5F5F5F5F5F5F5F5F5F5F5F5F5F5F5F5F5F5F5F5F5F5F5F5E2F5F5F5F5F5F5E2F5F5F5F5F5F5F5F5F5F5F5F5F5F5F5F5E2E2F5F5F5F5F5F5F5F5F5F5F5F5F5F5F5F5F5F5F5F5F5F5F5F5F5F5F5F5F5F5F5F5F5F5F5E2E2F5F5F5F5F5
310
F5F5F5F5F5F5F5F5F5F5F5E2F5F5F5F5F5F5F5F5F5F5F5F5F5F5F5F5F5F5F5F5F5F5F5F5F5F5F5F5F5F5F5F5F5F5F5F5F5E2F5E2E2E2F5E2F5F5F5F5F5F5F5F5F5F5F5F5F5F5F5F5F5F5F5F5F5F5F5F5F5F5F5F5F5F5F5F5F5F5F5F5F5F5F5F5F5F5F5F5F5F5F5F5F5F5F5F5F5F5F5F5E2F5F5F5F5F5F5E2F5F5F5F5F5F5F5
310
F5F5F5F5F5F5F5F5F5E2E2F5F5F5F5F5F5F5F5F5F5F5F5F5F5F5F5F5F5F5F5F5F5F5F5F5F5F5F5F5F5F5F5F5F5F5E2E2F5F5F5F5F5F5F5F5F5F5F5F5F5F5F5F5E2F5F5F5F5F5F5F5F5F5F5F5F5F5F5F5F5F5F5F5F5F5F5F5F5F5F5F5F5F5F5F5F5F5F5F5F5F5E2F5E2E2E2F5E2F5F5F5F5F5F5F5F5F5F5F5F5F5F5F5F5F5F5
310
F5F5F5F5F5F5F5F5F5F5F5F5F5F5F5F5F5F5F5F5F5F5F5F5F5F5F5F5F5F5F5F5F5F5F5F5F5F5E2F5F5F5F5F5F5E2F5F5F5F5F5F5F5F5F5F5F5F5F5F5F5F5E2E2F5F5F5F5F5F5F5F5F5F5F5F5F5F5F5F5F5F5F5F5F5F5F5F5F5F5F5F5F5F5F5F5F5F5F5E2E2F5F5F5F5F5F5F5F5F5F5F5F5F5F5F5F5E2F5F5F5F5F5F5F5F5F5
310
F5F5F5F5F5F5F5F5F5F5F5F5F5F5F5F5F5F5F5F5F5F5F5F5F5F5F5F5E2F5E2E2E2F5E2F5F5F5F5F5F5F5F5F5F5F5F5F5F5F5F5F5F5F5F5F5F5F5F5F5F5F5F5F5F5F5F5F5F5F5F5F5F5F5F5F5F5F5F5F5F5F5F5F5F5F5F5F5F5F5F5E2F5F5F5F5F5F5E2F5F5F5F5F5F5F5F5F5F5F5F5F5F5F5F5E2E2F5F5F5F5F5F5F5F5F5F5
310
F5F5F5F5F5F5F5F5F5F5F5F5F5F5F5F5F5F5F5F5F5F5F5F5F5E2E2F5F5F5F5F5F5F5F5F5F5F5F5F5F5F5F5E2F5F5F5F5F5F5F5F5F5F5F5F5F5F5F5F5F5F5F5F5F5F5F5F5F5F5F5F5F5F5F5F5F5F5F5F5F5E2F5E2E2E2F5E2F5F5F5F5F5F5F5F5F5F5F5F5F5F5F5F5F5F5F5F5F5F5F5F5F5F5F5F5F5F5F5F5F5F5F5F5F5F5F5
310
F5F5F5F5F5F5F5F5F5F5F5F5F5F5F5F5F5E2F5F5F5F5F5F5E2F5F5F5F5F5F5F5F5F5F5F5F5F5F5F5F5E2E2F5F5F5F5F5F5F5F5F5F5F5F5F5F5F5F5F5F5F5F5F5F5F5F5F5F5F5F5F5F5F5F5F5F5F5E2E2F5F5F5F5F5F5F5F5F5F5F5F5F5F5F5F5E2F5F5F5F5F5F5F5F5F5F5F5F5F5F5F5F5F5F5F5F5F5F5F5F5F5F5F5F5F5F5
310
F5F5F5F5F5F5F5E2F5E2E2E2F5E2F5F5F5F5F5F5F5F5F5F5F5F5F5F5F5F5F5F5F5F5F5F5F5F5F5F5F5F5F5F5F5F5F5F5F5F5F5F5F5F5F5F5F5F5F5F5F5F5F5F5F5F5F5F5F5F5E2F5F5F5F5F5F5E2F5F5F5F5F5F5F5F5F5F5F5F5F5F5F5F5E2E2F5F5F5F5F5F5F5F5F5F5F5F5F5F5F5F5F5F5F5F5F5F5F5F5F5F5F5F5F5F5F5
310
F5F5F5F5E2E2F5F5F5F5F5F5F5F5F5F5F5F5F5F5F5F5E2F5F5F5F5F5F5F5F5F5F5F5F5F5F5F5F5F5F5F5F5F5F5F5F5F5F5F5F5F5F5F5F5F5F5F5F5F5E2F5E2E2E2F5E2F5F5F5F5F5F5F5F5F5F5F5F5F5F5F5F5F5F5F5F5F5F5F5F5F5F5F5F5F5F5F5F5F5F5F5F5F5F5F5F5F5F5F5F5F5F5F5F5F5F5F5F5E2E2E2F5E2F5F5F5
310
F5F5F5F5F5F5F5F5F5F5F5F5F5F5F5F5F5F5F5F5E2E2F5F5F5F5F5F5F5F5F5F5F5F5F5F5F5F5F5F5F5F5F5F5F5F5F5F5F5F5F5F5F5F5F5F5F5E2E2F5F5F5F5F5F5F5F5F5F5F5F5F5F5F5F5F5F5F5F5F5F5F5F5F5F5F5F5F5F5F5F5F5F5F5F5F5F5F5F5F5F5F5F5F5F5F5F5F5F5F5F5F5F5E2F5E2E2E2F5E2F5F5F5F5F5F5F5
310
F5F5F5F5F5F5F5F5F5F5F5F5F5F5F5F5F5F5F5F5F5F5F5F5F5F5F5F5F5F5F5F5F5F5F5F5F5F5F5F5F5F5F5F5F5E2E2E2F5E2F5F5F5F5F5F5E2F5F5F5F5F5F5F5F5F5F5F5F5F5F5F5F5E2E2F5F5F5F5F5F5F5F5F5F5F5F5F5F5F5F5F5F5F5F5F5F5F5F5F5F5F5F5F5F5F5F5F5F5F5E2E2F5F5F5F5F5F5F5F5F5F5F5F5F5F5F5
310
F5E2F5F5F5F5F5F5F5F5F5F5F5F5F5F5F5F5F5F5F5F5F5F5F5F5F5F5F5F5F5F5F5F5F5F5F5F5F5E2F5E2E2E2F5E2F5F5F5F5F5F5F5F5F5F5F5F5F5F5F5F5F5F5F5F5F5F5F5F5F5F5F5F5F5F5F5F5F5F5F5F5F5F5F5F5F5F5F5F5F5F5F5F5F5F5F5F5E2E2E2F5E2F5F5F5F5F5F5E2F5F5F5F5F5F5F5F5F5F5F5F5F5F5F5F5E2
310
E2F5F5F5F5F5F5F5F5F5F5F5F5F5F5F5F5F5F5F5F5F5F5F5F5F5F5F5F5F5F5F5F5F5F5F5E2E2F5F5F5F5F5F5F5F5F5F5F5F5F5F5F5F5E2F5F5F5F5F5F5F5F5F5F5F5F5F5F5F5F5F5F5F5F5F5F5F5F5F5F5F5F5F5F5F5F5F5F5F5F5F5E2F5E2E2E2F5E2F5F5F5F5F5F5F5F5F5F5F5F5F5F5F5F5F5F5F5F5F5F5F5F5F5F5F5F5
310
F5F5F5F5F5F5F5F5F5F5F5F5F5F5F5F5F5F5F5F5F5F5F5F5E2E2E2F5E2F5F5F5F5F5F5E2F5F5F5F5F5F5F5F5F5F5F5F5F5F5F5F5E2E2F5F5F5F5F5F5F5F5F5F5F5F5F5F5F5F5F5F5F5F5F5F5F5F5F5F5F5F5F5F5F5F5F5F5F5E2E2F5F5F5F5F5F5F5F5F5F5F5F5F5F5F5F5E2F5F5F5F5F5F5F5F5F5F5F5F5F5F5F5F5F5F5F5
310
F5F5F5F5F5F5F5F5F5F5F5F5F5F5F5F5F5F5E2F5E2E2E2F5E2F5F5F5F5F5F5F5F5F5F5F5F5F5F5F5F5F5F5F5F5F5F5F5F5F5F5F5F5F5F5F5F5F5F5F5F5F5F5F5F5F5F5F5F5F5F5F5F5F5F5F5F5E2E2E2F5E2F5F5F5F5F5F5E2F5F5F5F5F5F5F5F5F5F5F5F5F5F5F5F5E2E2F5F5F5F5F5F5F5F5F5F5F5F5F5F5F5F5F5F5F5F5
310
F5F5F5F5F5F5F5F5F5F5F5F5F5F5F5E2E2F5F5F5F5F5F5F5F5F5F5F5F5F5F5F5F5E2F5F5F5F5F5F5F5F5F5F5F5F5F5F5F5F5F5F5F5F5F5F5F5F5F5F5F5F5F5F5F5F5F5F5F5F5F5E2F5E2E2E2F5E2F5F5F5F5F5F5F5F5F5F5F5F5F5F5F5F5F5F5F5F5F5F5F5F5F5F5F5F5F5F5F5F5F5F5F5F5F5F5F5F5F5F5F5F5F5F5F5F5F5
310
F5F5F5F5F5F5F5E2F5F5F5F5F5F5E2F5F5F5F5F5F5F5F5F5F5F5F5F5F5F5F5E2E2F5F5F5F5F5F5F5F5F5F5F5F5F5F5F5F5F5F5F5F5F5F5F5F5F5F5F5F5F5F5F5F5F5F5F5E2E2F5F5F5F5F5F5F5F5F5F5F5F5F5F5F5F5E2F5F5F5F5F5F5F5F5F5F5F5F5F5F5F5F5F5F5F5F5F5F5F5F5F5F5F5F5F5F5F5F5F5F5F5F5F5E2F5E2
310
E2E2F5E2F5F5F5F5F5F5F5F5F5F5F5F5F5F5F5F5F5F5F5F5F5F5F5F5F5F5F5F5F5F5F5F5F5F5F5F5F5F5F5F5F5F5F5F5F5F5F5F5F5F5F5F5F5F5F5F5E2F5F5F5F5F5F5E2F5F5F5F5F5F5F5F5F5F5F5F5F5F5F5F5E2E2F5F5F5F5F5F5F5F5F5F5F5F5F5F5F5F5F5F5F5F5F5F5F5F5F5F5F5F5F5F5F5F5F5F5F5E2E2F5F5F5F5
310
F5F5F5F5F5F5F5F5F5F5F5F5E2F5F5F5F5F5F5F5F5F5F5F5F5F5F5F5F5F5F5F5F5F5F5F5F5F5F5F5F5F5F5F5F5F5F5F5F5F5E2F5E2E2E2F5E2F5F5F5F5F5F5F5F5F5F5F5F5F5F5F5F5F5F5F5F5F5F5F5F5F5F5F5F5F5F5F5F5F5F5F5F5F5F5F5F5F5F5F5F5F5F5F5F5F5F5F5F5F5F5F5F5E2F5F5F5F5F5F5E2F5F5F5F5F5F5
310
F5F5F5F5F5F5F5F5F5F5E2E2F5F5F5F5F5F5F5F5F5F5F5F5F5F5F5F5F5F5F5F5F5F5F5F5F5F5F5F5F5F5F5F5F5F5F5E2E2F5F5F5F5F5F5F5F5F5F5F5F5F5F5F5F5E2F5F5F5F5F5F5F5F5F5F5F5F5F5F5F5F5F5F5F5F5F5F5F5F5F5F5F5F5F5F5F5F5F5F5F5F5F5E2F5E2E2E2F5E2F5F5F5F5F5F5F5F5F5F5F5F5F5F5F5F5F5
310
F5F5F5F5F5F5F5F5F5F5F5F5F5F5F5F5F5F5F5F5F5F5F5F5F5F5F5F5F5F5F5F5F5F5F5F5F5F5F5E2F5F5F5F5F5F5E2F5F5F5F5F5F5F5F5F5F5F5F5F5F5F5F5E2E2F5F5F5F5F5F5F5F5F5F5F5F5F5F5F5F5F5F5F5F5F5F5F5F5F5F5F5F5F5F5F5F5F5F5F5E2E2F5F5F5F5F5F5F5F5F5F5F5F5F5F5F5F5E2F5F5F5F5F5F5F5F5
310
F5F5F5F5F5F5F5F5F5F5F5F5F5F5F5F5F5F5F5F5F5F5F5F5F5F5F5F5F5E2F5E2E2E2F5E2F5F5F5F5F5F5F5F5F5F5F5F5F5F5F5F5F5F5F5F5F5F5F5F5F5F5F5F5F5F5F5F5F5F5F5F5F5F5F5F5F5F5F5F5F5F5F5F5F5F5F5F5F5F5F5F5E2F5F5F5F5F5F5F5F5F5F5F5F5F5F5F5F5F5F5F5F5F5F5F5E2E2F5F5F5F5F5F5F5F5F5
310
F5F5F5F5F5F5F5F5F5F5F5F5F5F5F5F5F5F5F5F5F5F5F5F5F5F5E2E2F5F5F5F5F5F5F5F5F5F5F5F5F5F5F5F5F5F5F5F5F5F5F5F5F5F5F5F5F5F5F5F5F5F5F5F5F5F5F5F5F5F5F5F5F5F5F5F5F5F5F5F5F5F5E2F5E2E2E2F5E2F5F5F5F5F5F5F5F5F5F5F5F5F5F5F5F5F5F5F5F5F5F5F5F5F5F5F5F5F5F5F5F5F5F5F5F5F5F5
310
F5F5F5F5F5F5F5F5F5F5F5F5F5F5F5F5F5F5E2F5F5F5F5F5F5E2F5F5F5F5F5F5F5F5F5F5F5F5F5F5F5F5E2E2F5F5F5F5F5F5F5F5F5F5F5F5F5F5F5F5F5F5F5F5F5F5F5F5F5F5F5F5F5F5F5F5F5F5F5E2E2F5F5F5F5F5F5F5F5F5F5F5F5F5F5F5F5E2F5F5F5F5F5F5F5F5F5F5F5F5F5F5F5F5F5F5F5F5F5F5F5F5F5F5F5F5F5
310
F5F5F5F5F5F5F5F5E2F5E2E2E2F5E2F5F5F5F5F5F5F5F5F5F5F5F5F5F5F5F5F5F5F5F5F5F5F5F5F5F5F5F5F5F5F5F5F5F5F5F5F5F5F5F5F5F5F5F5F5F5F5F5F5F5F5F5F5F5F5F5E2F5F5F5F5F5F5E2F5F5F5F5F5F5F5F5F5F5F5F5F5F5F5F5E2E2F5F5F5F5F5F5F5F5F5F5F5F5F5F5F5F5F5F5F5F5F5F5F5F5F5F5F5F5F5F5
310
F5F5F5F5F5E2E2F5F5F5F5F5F5F5F5F5F5F5F5F5F5F5F5E2F5F5F5F5F5F5F5F5F5F5F5F5F5F5F5F5F5F5F5F5F5F5F5F5F5F5F5F5F5F5F5F5F5F5F5F5F5E2F5E2E2E2F5E2F5F5F5F5F5F5F5F5F5F5F5F5F5F5F5F5F5F5F5F5F5F5F5F5F5F5F5F5F5F5F5F5F5F5F5F5F5F5F5F5F5F5F5F5F5F5F5F5F5F5F5F5F5F5F5F5E2F5F5
310
F5F5F5F5E2F5F5F5F5F5F5F5F5F5F5F5F5F5F5F5F5E2E2F5F5F5F5F5F5F5F5F5F5F5F5F5F5F5F5F5F5F5F5F5F5F5F5F5F5F5F5F5F5F5F5F5F5F5E2E2F5F5F5F5F5F5F5F5F5F5F5F5F5F5F5F5E2F5F5F5F5F5F5F5F5F5F5F5F5F5F5F5F5F5F5F5F5F5F5F5F5F5F5F5F5F5F5F5F5F5F5F5F5F5E2F5E2E2E2F5E2F5F5F5F5F5F5
310
F5F5F5F5F5F5F5F5F5F5F5F5F5F5F5F5F5F5F5F5F5F5F5F5F5F5F5F5F5F5F5F5F5F5F5F5F5F5F5F5F5F5F5F5F5F5F5F5F5F5E2F5F5F5F5F5F5E2F5F5F5F5F5F5F5F5F5F5F5F5F5F5F5F5E2E2F5F5F5F5F5F5F5F5F5F5F5F5F5F5F5F5F5F5F5F5F5F5F5F5F5F5F5F5F5F5F5F5F5F5F5E2E2F5F5F5F5F5F5F5F5F5F5F5F5F5F5
310
F5F5E2F5F5F5F5F5F5F5F5F5F5F5F5F5F5F5F5F5F5F5F5F5F5F5F5F5F5F5F5F5F5F5F5F5F5F5F5F5E2F5E2E2E2F5E2F5F5F5F5F5F5F5F5F5F5F5F5F5F5F5F5F5F5F5F5F5F5F5F5F5F5F5F5F5F5F5F5F5F5F5F5F5F5F5F5F5F5F5F5F5F5F5F5F5F5F5F5F5F5F5F5E2F5F5F5F5F5F5E2F5F5F5F5F5F5F5F5F5F5F5F5F5F5F5E2
310
E2E2E2F5F5F5F5F5F5F5F5F5F5F5F5F5F5F5F5F5F5F5F5F5F5F5F5F5F5F5F5F5F5F5F5F5F5E2E2F5F5F5F5F5F5F5F5F5F5F5F5F5F5F5F5E2F5F5F5F5F5F5F5F5F5F5F5F5F5F5F5F5F5F5F5F5F5F5F5F5F5F5F5F5F5F5F5F5F5F5F5F5F5E2F5E2E2E2F5E2F5F5F5F5F5F5F5F5F5F5F5F5F5F5F5F5F5F5F5F5F5F5F5F5F5F5F5
310
F5F5F5F5F5F5F5F5F5F5F5F5F5F5F5F5F5F5F5F5F5F5F5F5F5F5F5F5F5E2F5F5F5F5F5F5E2F5F5F5F5F5F5F5F5F5F5F5F5F5F5F5E2F5F5E2F5F5F5F5F5F5F5F5F5F5F5F5F5F5F5F5F5F5F5F5F5F5F5F5F5F5F5F5F5F5F5F5F5F5E2E2F5F5F5F5F5F5F5F5F5F5F5F5F5F5F5F5E2F5F5F5F5F5F5F5F5F5F5F5F5F5F5F5F5F5F5
310
F5F5F5F5F5F5F5F5F5F5F5F5F5F5F5F5F5F5F5E2F5E2E2E2F5E2F5F5F5F5F5F5F5F5F5F5F5F5F5F5F5F5F5F5F5F5F5F5F5F5F5F5F5F5F5F5F5F5F5F5F5F5F5F5F5F5F5F5F5F5F5F5F5F5F5F5F5F5F5F5F5F5E2F5F5F5F5F5F5E2F5F5F5F5F5F5F5F5F5F5F5F5F5F5F5E2F5F5F5E2F5F5F5F5F5F5F5F5F5F5F5F5F5F5F5F5F5
310
F5F5F5F5F5F5F5F5F5F5F5F5F5F5F5F5E2E2F5F5F5F5F5F5F5F5F5F5F5F5F5F5F5F5E2F5F5F5F5F5F5F5F5F5F5F5F5F5F5F5F5F5F5F5F5F5F5F5F5F5F5F5F5F5F5F5F5F5F5F5F5F5E2F5E2E2E2F5E2F5F5F5F5F5F5F5F5F5F5F5F5F5F5F5F5F5F5F5F5F5F5F5F5F5F5F5F5F5F5F5F5F5F5F5F5F5F5F5F5F5F5F5F5F5F5F5F5
310
F5F5F5F5F5F5F5F5E2F5F5F5F5F5F5E2F5F5F5F5F5F5F5F5F5F5F5F5F5F5F5E2F5F5F5E2E2F5F5F5F5F5F5F5F5F5F5F5F5F5F5F5F5F5F5F5F5F5F5F5F5F5F5F5F5F5F5F5F5E2E2F5F5F5F5F5F5F5F5F5F5F5F5F5F5F5F5E2F5F5F5F5F5F5F5F5F5F5F5F5F5F5F5F5F5F5F5F5F5F5F5F5F5F5F5F5F5F5F5F5F5F5F5F5F5E2F5
310
E2E2E2F5E2F5F5F5F5F5F5F5F5F5F5F5F5F5F5F5F5F5F5F5F5F5F5F5F5F5F5F5F5F5F5F5F5F5F5F5F5F5F5F5F5F5F5F5F5F5F5F5F5F5F5F5F5F5F5F5F5E2F5F5F5F5F5F5F5F5F5F5F5F5F5F5F5F5F5F5F5F5F5F5E2F5F5F5F5E2E2F5F5F5F5F5F5F5F5F5F5F5F5F5F5F5F5F5F5F5F5F5F5F5F5F5F5F5F5F5F5F5E2E2F5F5F5
310
F5F5F5F5F5F5F5F5F5F5F5F5F5F5F5F5F5F5F5F5F5F5F5F5F5F5F5F5F5F5F5F5F5F5F5F5F5F5F5F5F5F5F5F5F5F5F5F5F5F5F5E2F5E2E2E2F5E2F5F5F5F5F5F5F5F5F5F5F5F5F5F5F5F5F5F5F5F5F5F5F5F5F5F5F5F5F5F5F5F5F5F5F5F5F5F5F5F5F5F5F5F5F5F5F5F5F5F5F5F5F5F5F5F5E2F5F5F5F5F5F5E2F5F5F5F5F5
310
F5F5F5F5F5F5F5F5F5F5E2F5F5F5F5F5E2E2E2E2F5F5F5F5F5F5F5F5F5F5F5F5F5F5F5F5F5F5F5F5F5F5F5F5F5F5E2E2E2E2F5F5F5F5F5F5F5F5F5F5F5F5F5F5F5F5E2F5F5F5F5F5F5F5F5F5F5F5F5F5F5F5F5F5F5F5F5F5F5F5F5F5F5F5F5F5F5F5F5F5F5F5F5F5E2F5E2E2E2F5E2F5F5F5F5F5F5F5F5F5F5F5F5F5F5F5F5
310
F5F5F5F5F5F5F5F5F5F5F5F5F5F5F5F5F5F5F5F5F5F5F5F5F5F5F5F5F5F5F5F5F5F5F5F5F5F5F5F5E2F5F5F5F5F5F5E2F5F5F5F5F5F5F5F5F5F5F5F5F5F5F5E2F5F5F5F5F5F5F5F5E2E2E2E2E2E2E2E2E2E2E2E2E2E2E2E2E2E2E2E2E2E2E2E2E2E2E2E2E2E2E2F5F5F5F5F5F5F5F5F5F5F5F5F5F5F5F5E2F5F5F5F5F5F5F5
310
F5F5F5F5F5F5F5F5F5F5F5F5F5F5F5F5F5F5F5F5F5F5F5F5F5F5F5F5F5F5E2F5E2E2E2F5E2F5F5F5F5F5F5F5F5F5F5F5F5F5F5F5F5F5F5F5F5F5F5F5F5F5F5F5F5F5F5F5F5F5F5F5F5F5F5F5F5F5F5F5F5F5F5F5F5F5F5F5F5F5F5F5F5E2F5F5F5F5F5F5E2F5F5F5F5F5F5F5F5F5F5F5F5F5F5F5F5E2F5F5F5F5F5F5E2E2E2
310
E2E2E2E2E2E2E2E2E2E2E2E2E2E2E2E2E2E2E2E2E2E2E2E2E2E2E2E2F5F5F5F5F5F5F5F5F5F5F5F5F5F5F5F5F5E2F5F5F5F5F5F5F5F5F5F5F5F5F5F5F5F5F5F5F5F5F5F5F5F5F5F5F5F5F5F5F5F5F5F5F5F5F5E2F5E2E2E2F5E2F5F5F5F5F5F5F5F5F5F5F5F5F5F5F5F5F5F5F5F5F5F5F5F5F5F5F5F5F5F5F5F5F5F5F5F5F5
310
F5F5F5F5F5F5F5F5F5F5F5F5F5F5F5F5F5F5F5E2F5F5F5F5F5F5E2F5F5F5F5F5F5F5F5F5F5F5F5F5F5F5F5E2E2E2E2E2E2E2E2F5F5F5F5F5F5F5F5F5F5F5F5F5F5F5F5F5F5F5F5F5F5F5F5F5F5F5F5F5F5F5F5F5F5F5F5F5F5F5F5F5F5F5F5F5F5F5E2F5F5F5F5F5F5F5F5F5F5F5F5F5F5F5F5F5F5F5F5F5F5F5F5F5F5F5F5
310
F5F5F5F5F5F5F5F5F5E2F5E2E2E2F5E2F5F5F5F5F5F5F5F5F5F5F5F5F5F5F5F5F5F5F5F5F5F5F5F5F5F5F5F5F5F5F5F5F5F5F5F5F5F5F5F5F5F5F5F5F5F5F5F5F5F5F5F5F5F5F5F5E2F5F5F5F5F5F5E2F5F5F5F5F5F5F5F5F5F5F5F5F5F5F5F5F5F5F5F5F5F5F5F5F5F5F5F5F5F5F5F5F5F5F5F5F5F5F5F5F5F5F5F5F5F5F5
310
F5F5F5F5F5F5F5F5F5F5F5F5F5F5F5F5F5F5F5F5F5F5F5F5E2F5F5F5F5F5F5F5F5F5F5F5F5F5F5F5F5F5F5F5F5F5F5F5F5F5F5F5F5F5F5F5F5F5F5F5F5F5E2F5E2E2E2F5E2F5F5F5F5F5F5F5F5F5F5F5F5F5F5F5F5F5F5F5F5F5F5F5F5F5F5F5F5F5F5F5F5F5F5F5F5F5F5F5F5F5F5F5F5F5F5F5F5F5F5F5F5F5F5F5F5E2F5
310
F5F5F5F5F5E2F5F5F5F5F5F5F5F5F5F5F5F5F5F5F5F5F5F5F5F5F5F5F5F5F5F5F5F5F5F5F5F5F5F5F5F5F5F5F5F5F5F5F5F5F5F5F5F5F5F5F5F5F5F5F5F5F5F5F5F5F5F5F5F5F5F5F5F5F5F5F5E2F5F5F5F5F5F5F5F5F5F5F5F5F5F5F5F5F5F5F5F5F5F5F5F5F5F5F5F5F5F5F5F5F5F5F5F5F5E2F5E2E2E2F5E2F5F5F5F5F5
310
F5F5F5F5F5F5F5F5F5F5F5F5F5F5F5F5F5F5F5F5F5F5F5F5F5F5F5F5F5F5F5F5F5F5F5F5F5F5F5F5F5F5F5F5F5F5F5F5F5F5F5E2F5F5F5F5F5F5E2F5F5F5F5F5F5F5F5F5F5F5F5F5F5F5F5F5F5F5F5F5F5F5F5F5F5F5F5F5F5F5F5F5F5F5F5F5F5F5F5F5F5F5F5F5F5F5F5F5F5F5F5F5F5F5F5F5F5F5F5F5F5F5F5F5F5F5F5
310
F5F5F5E2F5F5F5F5F5F5F5F5F5F5F5F5F5F5F5F5F5F5F5F5F5F5F5F5F5F5F5F5F5F5F5F5F5F5F5F5F5E2F5E2E2E2F5E2F5F5F5F5F5F5F5F5F5F5F5F5F5F5F5F5F5F5F5F5F5F5F5F5F5F5F5F5F5F5F5F5F5F5F5F5F5F5F5F5F5F5F5F5F5F5F5F5F5F5F5F5F5F5F5F5E2F5F5F5F5F5F5E2F5F5F5F5F5F5F5F5F5F5F5F5F5F5F5
310
F5F5F5F5F5F5F5F5F5F5F5F5F5F5F5F5F5F5F5F5F5F5F5F5F5F5F5F5F5F5F5F5F5F5F5F5F5F5F5F5F5F5F5F5F5F5F5F5F5F5F5F5F5F5F5F5E2F5F5F5F5F5F5F5F5F5F5F5F5F5F5F5F5F5F5F5F5F5F5F5F5F5F5F5F5F5F5F5F5F5F5F5F5F5E2F5E2E2E2F5E2F5F5F5F5F5F5F5F5F5F5F5F5F5F5F5F5F5F5F5F5F5F5F5F5F5F5
310
F5F5F5F5F5F5F5F5F5F5F5F5F5F5F5F5F5F5F5F5F5F5F5F5F5F5F5F5F5F5E2F5F5F5F5F5F5F5F5F5F5F5F5F5F5F5F5F5F5F5F5F5F5F5F5F5F5F5F5F5F5F5F5F5F5F5F5F5F5F5F5F5F5F5F5F5F5F5F5F5F5F5F5F5F5F5F5F5F5F5F5F5F5F5F5F5F5F5F5F5F5F5F5F5F5F5F5F5F5F5F5F5F5F5F5F5F5F5F5F5F5F5F5F5F5F5F5
310
F5F5F5F5F5F5F5F5F5F5F5F5F5F5F5F5F5F5F5F5E2F5E2E2E2F5E2F5F5F5F5F5F5F5F5F5F5F5F5F5F5F5F5F5F5F5F5F5F5F5F5F5F5F5F5F5F5F5F5F5F5F5F5F5F5F5F5F5F5F5F5F5F5F5F5F5F5F5F5F5F5F5F5E2F5F5F5F5F5F5E2F5F5F5F5F5F5F5F5F5F5F5F5F5F5F5F5F5F5F5F5F5F5F5F5F5F5F5F5F5F5F5F5F5F5F5F5
310
F5F5F5F5F5F5F5F5F5F5F5F5F5F5F5F5F5F5F5F5F5F5F5F5F5F5F5F5F5F5F5F5F5F5F5E2F5F5F5F5F5F5F5F5F5F5F5F5F5F5F5F5F5F5F5F5F5F5F5F5F5F5F5F5F5F5F5F5F5F5F5F5F5E2F5E2E2E2F5E2F5F5F5F5F5F5F5F5F5F5F5F5F5F5F5F5F5F5F5F5F5F5F5F5F5F5F5F5F5F5F5F5F5F5F5F5F5F5F5F5F5F5F5F5F5F5F5
310
F5F5F5F5F5F5F5F5F5E2F5F5F5F5F5F5E2F5F5F5F5F5F5F5F5F5F5F5F5F5F5F5F5F5F5F5F5F5F5F5F5F5F5F5F5F5F5F5F5F5F5F5F5F5F5F5F5F5F5F5F5F5F5F5F5F5F5F5F5F5F5F5F5F5F5F5F5F5F5F5F5F5F5F5F5F5F5F5E2F5F5F5F5F5F5F5F5F5F5F5F5F5F5F5F5F5F5F5F5F5F5F5F5F5F5F5F5F5F5F5F5F5F5F5F5F5E2
310
F5E2E2E2F5E2F5F5F5F5F5F5F5F5F5F5F5F5F5F5F5F5F5F5F5F5F5F5F5F5F5F5F5F5F5F5F5F5F5F5F5F5F5F5F5F5F5F5F5F5F5F5F5F5F5F5F5F5F5F5F5F5E2F5F5F5F5F5F5E2F5F5F5F5F5F5F5F5F5F5F5F5F5F5F5F5F5F5F5F5F5F5F5F5F5F5F5F5F5F5F5F5F5F5F5F5F5F5F5F5F5F5F5F5F5F5F5F5F5F5F5F5F5F5F5F5F5
310
F5F5F5F5F5F5F5F5F5F5F5F5F5F5E2F5F5F5F5F5F5F5F5F5F5F5F5F5F5F5F5F5F5F5F5F5F5F5F5F5F5F5F5F5F5F5F5F5F5F5F5F5E2F5E2E2E2F5E2F5F5F5F5F5F5F5F5F5F5F5F5F5F5F5F5F5F5F5F5F5F5F5F5F5F5F5F5F5F5F5F5F5F5F5F5F5F5F5F5F5F5F5F5F5F5F5F5F5F5F5F5F5F5F5F5E2F5F5F5F5F5F5E2F5F5F5F5
310
F5F5F5F5F5F5F5F5F5F5F5F5F5F5F5F5F5F5F5F5F5F5F5F5F5F5F5F5F5F5F5F5F5F5F5F5F5F5F5F5F5F5F5F5F5F5F5F5F5F5F5F5F5F5F5F5F5F5F5F5F5F5F5F5F5F5F5E2F5F5F5F5F5F5F5F5F5F5F5F5F5F5F5F5F5F5F5F5F5F5F5F5F5F5F5F5F5F5F5F5F5F5F5F5F5E2F5E2E2E2F5E2F5F5F5F5F5F5F5F5F5F5F5F5F5F5F5
310
F5F5F5F5F5F5F5F5F5F5F5F5F5F5F5F5F5F5F5F5F5F5F5F5F5F5F5F5F5F5F5F5F5F5F5F5F5F5F5F5F5E2F5F5F5F5F5F5E2F5F5F5F5F5F5F5F5F5F5F5F5F5F5F5F5F5F5F5F5F5F5F5F5F5F5F5F5F5F5F5F5F5F5F5F5F5F5F5F5F5F5F5F5F5F5F5F5F5F5F5F5F5F5F5F5F5F5F5F5F5F5F5F5F5F5F5F5F5F5F5E2F5F5F5F5F5F5
310
F5F5F5F5F5F5F5F5F5F5F5F5F5F5F5F5F5F5F5F5F5F5F5F5F5F5F5F5F5F5F5E2F5E2E2E2F5E2F5F5F5F5F5F5F5F5F5F5F5F5F5F5F5F5F5F5F5F5F5F5F5F5F5F5F5F5F5F5F5F5F5F5F5F5F5F5F5F5F5F5F5F5F5F5F5F5F5F5F5F5F5F5F5F5E2F5F5F5F5F5F5E2F5F5F5F5F5F5F5F5F5F5F5F5F5F5F5F5F5F5F5F5F5F5F5F5F5
310
F5F5F5F5F5F5F5F5F5F5F5F5F5F5F5F5F5F5F5F5F5F5F5F5F5F5F5F5F5F5F5F5F5F5F5F5F5F5F5F5F5F5F5F5F5F5E2F5F5F5F5F5F5F5F5F5F5F5F5F5F5F5F5F5F5F5F5F5F5F5F5F5F5F5F5F5F5F5F5F5F5F5F5F5E2F5E2E2E2F5E2F5F5F5F5F5F5F5F5F5F5F5F5F5F5F5F5F5F5F5F5F5F5F5F5F5F5F5F5F5F5F5F5F5F5F5F5
310
F5F5F5F5F5F5F5F5F5F5F5F5F5F5F5F5F5F5F5F5E2F5F5F5F5F5F5E2F5F5F5F5F5F5F5F5F5F5F5F5F5F5F5F5F5F5F5F5F5F5F5F5F5F5F5F5F5F5F5F5F5F5F5F5F5F5F5F5F5F5F5F5F5F5F5F5F5F5F5F5F5F5F5F5F5F5F5F5F5F5F5F5F5F5F5F5F5F5F5E2F5F5F5F5F5F5F5F5F5F5F5F5F5F5F5F5F5F5F5F5F5F5F5F5F5F5F5
310
F5F5F5F5F5F5F5F5F5F5E2F5E2E2E2F5E2F5F5F5F5F5F5F5F5F5F5F5F5F5F5F5F5F5F5F5F5F5F5F5F5F5F5F5F5F5F5F5F5F5F5F5F5F5F5F5F5F5F5F5F5F5F5F5F5F5F5F5F5F5F5F5F5E2F5F5F5F5F5F5E2F5F5F5F5F5F5F5F5F5F5F5F5F5F5F5F5F5F5F5F5F5F5F5F5F5F5F5F5F5F5F5F5F5F5F5F5F5F5F5F5F5F5F5F5F5F5
310
F5F5F5F5F5F5F5F5F5F5F5F5F5F5F5F5F5F5F5F5F5F5F5F5F5E2F5F5F5F5F5F5F5F5F5F5F5F5F5F5F5F5F5F5F5F5F5F5F5F5F5F5F5F5F5F5F5F5F5F5F5F5F5E2F5E2E2E2F5E2F5F5F5F5F5F5F5F5F5F5F5F5F5F5F5F5F5F5F5F5F5F5F5F5F5F5F5F5F5F5F5F5F5F5F5F5F5F5F5F5F5F5F5F5F5F5F5F5F5F5F5F5F5F5F5F5E2
310
F5F5F5F5F5F5F5F5F5F5F5F5F5F5F5F5F5F5F5F5F5F5F5F5F5F5F5F5F5F5F5F5F5F5F5F5F5F5F5F5F5F5F5F5F5F5F5F5F5F5F5F5F5F5F5F5F5F5F5F5F5F5F5F5F5F5F5F5F5F5F5F5F5F5F5F5F5F5F5F5F5F5F5F5F5F5F5F5F5F5F5F5F5F5F5F5F5F5F5F5F5F5F5F5F5F5F5F5F5F5F5F5F5F5F5F5E2F5E2E2E2F5E2F5F5F5F5
310
F5F5F5F5F5F5F5F5F5F5F5F5F5F5F5F5F5F5F5F5F5F5F5F5F5F5F5F5F5F5F5F5F5F5F5F5F5F5F5F5F5F5F5F5F5F5F5F5F5F5F5F5E2BEF5F5F5F5F5E2F5F5F5F5F5F5F5F5F5F5F5F5F5F5F5F5F5F5F5F5F5F5F5F5F5F5F5F5F5F5F5F5F5F5F5F5F5F5F5F5F5F5F5F5F5F5F5F5F5F5F5F5F5F5F5F5F5F5F5F5F5F5F5F5F5F5F5
310
F5F5F5F5E2F5F5F5F5F5F5F5F5F5F5F5F5F5F5F5F5F5F5F5F5F5F5F5F5F5F5F5F5F5F5F5F5F5F5F5F5F5E2F5E2E2E2F5E2F5F5F5F5F5F5F5F5F5F5F5F5F5F5F5F5F5F5F5F5F5F5F5F5F5F5F5F5F5F5F5F5F5F5F5F5F5F5F5F5F5F5F5F5F5F5F5F5F5F5F5F5F5F5E2E2E2E2E2F5F5F5F5E2E2F5E2E2E2E2E2E2E2E2F5E2E2E2
310
E2E2E2E2E2F5E2E2E2E2E2E2E2E2F5E2E2E2E2E2E2E2E2F5E2E2E2E2E2E2E2E2F5E2E2E2E2E2E2E2E2F5E2E2E2E2E2E2E2E2F5E2E2E2E2E2E2E2F5F5F5F5F5F5F5F5F5F5F5F5F5F5F5F5F5F5F5F5F5F5F5F5F5F5F5F5F5F5F5F5F5F5F5F5F5E2F5E2E2E2F5E2F5F5F5F5F5F5F5F5F5F5F5F5F5F5F5F5F5F5F5F5F5F5F5F5F5
310
F5F5F5F5F5F5F5F5F5F5F5F5F5F5F5F5F5F5F5F5F5F5F5F5F5F5F5F5F5F5F5E2F5F5F5F5F5F5F5F5F5F5F5F5F5F5F5F5F5F5F5F5F5F5F5F5F5F5F5F5F5F5F5F5F5F5F5F5F5F5F5F5F5F5F5F5F5F5F5F5F5F5F5F5F5F5F5F5F5F5F5F5F5F5F5F5F5F5F5F5F5F5F5F5F5F5F5F5F5F5F5F5F5F5F5F5F5F5F5F5F5F5F5F5F5F5F5
310
F5F5F5F5F5F5F5F5F5F5F5F5F5F5F5F5F5F5F5F5F5E2F5E2E2E2F5E2F5F5F5F5F5F5F5F5F5F5F5F5F5F5F5F5F5F5F5F5F5F5F5F5F5F5F5F5F5F5F5F5F5F5F5F5F5F5F5F5F5F5F5F5F5F5F5F5F5F5F5F5F5F5F5BEF5F5F5F5F5F5F5F5F5F5F5F5F5F5F5F5F5F5F5F5F5F5F5F5F5F5F5F5F5F5F5F5F5F5F5F5F5F5F5F5F5F5F5
310
F5F5F5F5F5F5F5F5F5F5F5F5F5F5F5F5F5F5F5F5F5F5F5F5F5F5F5F5F5F5F5F5F5F5F5F5F5F5F5F5F5F5F5F5F5F5F5F5F5F5F5F5F5F5F5F5F5F5F5F5F5F5F5F5F5F5F5F5F5F5F5F5F5F5E2F5E2E2E2F5E2F5F5F5F5F5F5F5F5F5F5F5F5F5F5F5F5F5F5F5F5F5F5F5F5F5F5F5F5F5F5F5F5F5F5F5F5F5F5F5F5F5F5F5F5F5F5
310
F5F5F5F5F5F5F5F5F5F5F5F5F5F5F5F5F5F5F5F5F5F5F5F5F5F5F5F5F5F5F5F5F5F5F5F5F5F5F5F5F5F5F5F5F5F5F5F5F5F5F5F5F5F5F5F5F5F5F5F5F5F5F5F5F5F5F5F5F5F5F5F5F5F5F5F5F5F5F5F5F5F5F5F5F5F5F5F5F5F5F5F5F5F5F5F5F5F5F5F5F5F5F5F5F5F5F5F5F5F5F5F5F5F5F5F5F5F5F5F5F5F5F5F5F5F5F5
310
E2F5E2E2E2F5E2F5F5F5F5F5F5F5F5F5F5F5F5F5F5F5F5F5F5F5F5F5F5F5F5F5F5F5F5F5F5F5F5F5F5F5F5F5F5F5F5F5F5F5F5F5F5F5F5F5F5F5F5F5F5F5F5F5F5F5F5F5F5F5F5F5F5F5F5F5F5F5F5F5F5F5F5F5F5F5F5F5F5F5F5F5F5F5F5F5F5F5F5F5F5F5F5F5F5F5F5F5F5F5F5F5F5F5F5F5F5F5F5F5F5F5F5F5F5F5F5
310
F5F5F5F5F5F5F5F5F5F5F5F5F5F5F5F5F5F5F5F5F5F5F5F5F5F5F5F5F5F5F5F5F5F5F5F5F5F5F5F5F5F5F5F5F5F5F5F5F5F5F5F5F5E2F5E2E2E2F5E2F5F5F5F5F5F5F5F5F5F5F5F5F5F5F5F5F5F5F5F5F5F5F5F5F5F5F5F5F5F5F5F5F5F5F5F5F5F5F5F5F5F5F5F5F5F5F5F5F5F5F5F5F5F5F5F5F5F5F5F5F5F5BEE2F5F5F5
310
F5F5F5F5F5F5F5F5F5F5F5F5F5F5F5F5F5F5F5F5F5F5F5F5F5F5F5F5F5F5F5F5F5F5F5F5F5F5F5F5F5F5F5F5F5F5F5F5F5F5F5F5F5F5F5F5F5F5F5F5F5F5F5F5F5F5F5BEE2F5F5F5F5F5F5F5F5F5F5F5F5F5F5F5F5F5F5F5F5F5F5F5F5F5F5F5F5F5F5F5F5F5F5F5F5F5E2F5E2E2E2F5E2F5F5F5F5F5F5F5F5F5F5F5F5F5F5
310
F5F5F5F5F5F5F5F5F5F5F5F5F5F5F5F5F5F5F5F5F5F5F5F5F5F5F5F5F5F5F5F5F5F5F5F5F5F5F5F5F5F5F5F5F5F5F5F5E2E2E2E2E2E2E2E2E2E2E2E2E2E2E2E2E2E2E2E2E2E2E2E2E2E2E2E2E2E2E2E2E2E2E2E2E2E2E2E2E2E2E2E2E2E2E2E2E2E2E2E2E2E2E2E2E2E2E2E2E2E2E2E2E2E2E2E2E2E2E2E2E2E2E2F5F5F5F5
310
F5F5F5F5F5F5F5F5F5F5F5F5F5F5F5F5F5F5F5F5F5F5F5F5F5F5F5F5F5F5F5F5E2F5E2E2E2F5E2F5F5F5F5F5F5F5F5F5F5F5F5F5F5F5F5F5F5F5F5F5F5F5F5F5F5F5F5F5F5F5F5F5F5F5F5F5F5F5F5F5F5F5F5F5F5F5F5F5F5F5F5F5F5F5F5F5F5F5F5F5F5F5BEF5F5F5F5F5F5F5F5F5F5F5F5F5F5F5F5F5F5F5F5F5F5F5F5
310
F5F5F5F5F5F5F5F5E2E2E2E2E2F5F5F5F5F5F5F5F5F5F5F5F5F5F5F5F5F5F5F5F5F5F5F5F5F5F5F5F5F5F5F5F5F5F5BEF5F5F5F5F5F5F5F5F5F5F5F5F5F5F5F5F5F5F5F5F5F5F5F5F5F5F5F5F5F5F5F5F5F5F5F5F5E2F5E2E2E2F5E2F5F5F5F5F5F5F5F5F5F5F5F5F5F5F5F5F5F5F5F5F5F5F5F5F5F5F5F5F5F5F5F5F5F5F5
310
F5F5F5F5F5F5F5F5F5F5F5F5F5F5F5F5F5F5F5F5F5F5F5F5F5F5F5F5E2BEF5F5F5F5F5F5F5F5F5F5F5F5F5F5F5F5F5F5F5F5F5F5F5F5F5F5F5F5F5F5F5E2E2E2E2E2F5F5F5F5F5F5F5F5F5F5F5F5F5F5F5F5F5F5F5F5F5F5F5F5F5F5F5F5F5F5F5F5F5F5E2BEF5F5F5F5F5F5F5F5F5F5F5F5F5F5F5F5F5F5F5F5F5F5F5F5F5
310
F5F5F5F5F5F5F5F5F5F5F5E2F5E2E2E2F5E2F5F5F5F5F5F5F5F5F5F5F5F5F5F5F5F5F5F5F5F5F5F5F5F5F5F5F5F5F5F5F5F5F5F5F5F5F5F5F5F5F5F5F5F5F5F5F5F5F5F5F5F5F5F5F5F5F5F5F5F5F5F5F5F5F5F5F5F5F5F5F5F5F5F5F5F5F5F5F5F5F5F5F5F5F5F5F5F5F5F5F5F5F5F5F5F5E2E2E2E2E2F5F5F5F5F5F5F5F5
310
F5F5F5F5F5F5F5F5F5F5F5F5F5F5F5F5F5F5F5F5F5F5F5F5F5F5F5F5F5F5F5F5F5F5F5F5F5F5F5F5F5F5F5F5F5F5F5F5F5F5F5F5F5F5F5F5F5F5F5F5F5F5F5F5E2F5E2E2E2F5E2F5F5F5F5F5F5F5F5F5F5F5F5F5F5F5F5F5F5F5F5F5F5F5F5F5F5F5F5F5F5F5F5F5F5F5F5F5F5F5F5F5F5F5F5F5F5F5F5F5F5F5F5F5F5F5F5
310
F5F5F5F5F5F5F5F5F5F5F5F5F5F5F5F5F5F5F5F5F5F5F5F5F5F5F5F5F5F5F5F5F5F5F5F5F5F5F5F5E2E2E2E2E2F5F5F5F5F5F5F5F5F5F5F5F5F5F5F5F5F5F5F5F5F5F5F5F5F5F5F5F5F5F5F5F5F5F5F5F5F5F5F5F5F5F5F5F5F5F5F5F5F5F5F5F5F5F5F5F5F5F5F5F5F5F5F5F5F5F5F5F5F5F5F5F5E2F5E2E2E2F5E2F5F5F5
310
F5F5F5F5F5F5F5F5F5F5F5F5F5F5F5F5F5F5F5F5F5F5F5F5F5F5F5F5F5F5F5F5F5F5F5F5F5F5F5F5F5F5F5F5F5F5F5F5F5F5F5F5F5F5F5F5F5F5F5F5F5F5F5F5F5F5F5F5F5F5F5F5F5F5F5F5F5F5F5F5F5F5F5F5F5F5F5F5F5F5F5F5F5F5F5F5F5F5F5F5F5F5F5F5F5F5F5F5F5F5F5F5F5F5F5F5F5F5F5F5F5F5F5F5F5F5F5
310
F5F5F5F5F5F5F5F5F5F5F5F5F5F5F5F5F5F5F5F5F5F5F5F5F5F5F5F5F5F5F5F5F5F5F5F5F5F5F5F5F5F5F5E2F5E2E2E2F5E2F5F5F5F5F5F5F5F5F5F5F5F5F5F5F5F5F5F5F5F5F5F5F5F5F5F5F5F5F5F5F5F5F5F5F5F5F5F5F5F5F5F5F5F5F5F5F5F5F5F5F5F5F5F5F5F5F5F5F5F5F5F5F5F5F5F5F5F5F5F5F5F5F5F5F5F5F5
310
F5F5F5F5F5F5F5F5F5F5F5F5F5F5F5F5F5F5F5F5F5F5F5F5F5F5F5F5F5F5F5F5F5F5F5F5F5F5F5F5F5F5F5F5F5F5F5F5F5F5F5F5F5F5F5F5F5F5F5F5F5F5F5F5F5F5F5F5F5F5F5F5F5F5F5F5F5F5F5F5F5F5F5F5F5F5F5F5F5F5F5F5F5F5F5F5E2F5E2E2E2F5E2F5F5F5F5F5F5F5F5F5F5F5F5F5F5F5F5F5F5F5F5F5F5F5F5
310
F5F5F5F5F5F5F5F5F5F5F5F5F5F5F5F5F5F5F5F5F5F5F5F5F5F5F5F5F5F5F5F5F5F5F5F5F5F5F5F5F5F5F5F5F5F5F5F5F5F5F5F5F5F5F5F5F5F5F5F5F5F5F5F5F5F5F5F5F5F5F5F5F5F5F5F5F5F5F5F5F5F5F5F5F5F5F5F5F5F5F5F5F5F5F5F5F5F5F5F5F5F5F5F5F5F5F5F5F5F5F5F5F5F5F5F5F5F5F5F5F5F5F5F5F5F5F5
310
F5F5F5F5F5F5F5F5F5F5F5F5F5F5F5F5F5F5F5F5F5F5E2F5E2E2E2F5E2F5F5F5F5F5F5F5F5F5F5F5F5F5F5F5F5F5F5F5F5F5F5F5F5F5F5F5F5F5F5F5F5F5F5F5F5F5F5F5F5F5F5F5F5F5F5F5F5F5F5F5F5F5F5F5F5F5F5F5F5F5F5F5F5F5F5F5F5F5F5F5F5F5F5F5F5F5F5F5F5F5F5F5F5F5F5F5F5F5F5F5F5F5F5F5F5F5F5
310
F5F5F5F5F5F5F5F5F5F5F5F5F5F5F5F5F5F5F5F5F5F5F5F5F5F5F5F5F5F5F5F5F5F5F5F5F5F5F5F5F5F5F5F5F5F5F5F5F5F5F5F5F5F5F5F5F5F5F5F5F5F5F5F5F5F5F5F5F5F5F5F5F5F5F5E2F5E2E2E2F5E2F5F5F5F5F5F5F5F5F5F5F5F5F5F5F5F5F5F5F5F5F5F5F5F5F5F5F5F5F5F5F5F5F5F5F5F5F5F5F5F5F5F5F5F5F5
310
F5F5F5F5F5F5F5F5F5F5F5F5F5F5F5F5F5F5F5F5F5F5F5F5F5F5F5F5F5F5F5F5F5F5F5F5F5F5F5F5F5F5F5F5F5F5F5F5F5F5F5F5F5F5F5F5F5F5F5F5F5F5F5F5F5F5F5F5F5F5F5F5F5F5F5F5F5F5F5F5F5F5F5F5F5F5F5F5F5F5F5F5F5F5F5F5F5F5F5F5F5F5F5F5F5F5F5F5F5F5F5F5F5F5F5F5F5F5F5F5F5F5F5F5F5F5F5
310
F5E2F5E2E2E2F5E2F5F5F5F5F5F5F5F5F5F5F5F5F5F5F5F5F5F5F5F5F5F5F5F5F5F5F5F5F5F5F5F5F5F5F5F5F5F5F5F5F5F5F5F5F5F5F5F5F5F5F5F5F5F5F5F5F5F5F5F5F5F5F5F5F5F5F5F5F5F5F5F5F5F5F5F5F5F5F5F5F5F5F5F5F5F5F5F5F5F5F5F5F5F5F5F5F5F5F5F5F5F5F5F5F5F5F5F5F5F5F5F5F5F5F5F5F5F5F5
310
F5F5F5F5F5F5F5F5F5F5F5F5F5F5F5F5F5F5F5F5F5F5F5F5F5F5F5F5F5F5F5F5F5F5F5F5F5F5F5F5F5F5F5F5F5F5F5F5F5F5F5F5F5F5E2F5E2E2E2F5E2F5F5F5F5F5F5F5F5F5F5F5F5F5F5F5F5F5F5F5F5F5F5F5F5F5F5F5F5F5F5F5F5F5F5F5F5F5F5F5F5F5F5F5F5F5F5F5F5F5F5F5F5F5F5F5F5F5F5F5F5F5F5F5F5F5F5
310
F5F5F5F5F5F5F5F5F5F5F5F5F5F5F5F5F5F5F5F5F5F5F5F5F5F5F5F5F5F5F5F5F5F5F5F5F5F5F5F5F5F5F5F5F5F5F5F5F5F5F5F5F5F5F5F5F5F5F5F5F5F5F5F5F5F5F5F5F5F5F5F5F5F5F5F5F5F5F5F5F5F5F5F5F5F5F5F5F5F5F5F5F5F5F5F5F5F5F5F5F5F5F5F5F5F5F5E2F5E2E2E2F5E2F5F5F5F5F5F5F5F5F5F5F5F5F5
310
F5F5F5F5F5F5F5F5F5F5F5F5F5F5F5F5F5F5F5F5F5F5F5F5F5F5F5F5F5F5F5F5F5F5F5F5F5F5F5F5F5F5F5F5F5F5F5F5F5F5F5F5F5F5F5F5F5F5F5F5F5F5F5F5F5F5F5F5F5F5F5F5F5F5F5F5F5F5F5F5F5F5F5F5F5F5F5F5F5F5F5F5F5F5F5F5F5F5F5F5F5F5F5F5F5F5F5F5F5F5F5F5F5F5F5F5F5F5F5F5F5F5F5F5F5F5F5
310
F5F5F5F5F5F5F5F5F5F5F5F5F5F5F5F5F5F5F5F5F5F5F5F5F5F5F5F5F5F5F5F5F5E2F5E2E2E2F5E2F5F5F5F5F5F5F5F5F5F5F5F5F5F5F5F5F5F5F5F5F5F5F5F5F5F5F5F5F5F5F5F5F5F5F5F5F5F5F5F5F5F5F5F5F5F5F5F5F5F5F5F5F5F5F5F5F5F5F5F5F5F5F5F5F5F5F5F5F5F5F5F5F5F5F5F5F5F5F5F5F5F5F5F5F5F5F5
310
F5F5F5F5F5F5F5F5F5F5F5F5F5F5F5F5F5F5F5F5F5F5F5F5F5F5F5F5F5F5F5F5F5F5F5F5F5F5F5F5F5F5F5F5F5F5F5F5F5F5F5F5F5F5F5F5F5F5F5F5F5F5F5F5F5F5F5F5F5F5F5F5F5F5F5F5F5F5F5F5F5F5F5F5F5F5E2F5E2E2E2F5E2F5F5F5F5F5F5F5F5F5F5F5F5F5F5F5F5F5F5F5F5F5F5F5F5F5F5F5F5F5F5F5F5F5F5
310
F5F5F5F5F5F5F5F5F5F5F5F5F5F5F5F5F5F5F5F5F5F5F5F5F5F5F5F5F5F5F5F5F5F5F5F5F5F5F5F5F5F5F5F5F5F5F5F5F5F5F5F5F5F5F5F5F5F5F5F5F5F5F5F5F5F5F5F5F5F5F5F5F5F5F5F5F5F5F5F5F5F5F5F5F5F5F5F5F5F5F5F5F5F5F5F5F5F5F5F5F5F5F5F5F5F5F5F5F5F5F5F5F5F5F5F5F5F5F5F5F5F5F5F5F5F5F5
310
F5F5F5F5F5F5F5F5F5F5F5F5E2F5E2E2E2F5E2E2E2E2E2E2E2E2E2E2E2E2E2E2E2E2E2E2E2E2E2E2E2E2E2E2E2E2E2E2E2E2E2E2E2E2E2E2E2E2E2E2E2E2E2E2E2E2E2E2E2E2E2E2E2E2E2E2E2E2E2E2E2E2E2E2E2E2E2E2E2E2E2E2E2E2E2E2E2E2E2E2E2E2E2E2E2E2E2E2E2E2E2E2E2E2E2E2E2E2E2E2E2E2E2E2E2E2E2
310
E2E2E2E2E2E2E2E2E2E2E2E2E2E2E2E2E2E2E2E2E2E2E2E2E2E2E2E2E2E2E2E2E2E2E2E2E2E2E2E2E2E2E2E2E2E2E2E2E2E2E2E2E2E2E2E2E2E2E2E2E2E2E2E2E2E2F5E2E2E2F5F5F5F5F5F5F5F5F5F5F5F5F5F5F5F5F5F5F5F5F5F5F5F5F5F5F5F5F5F5F5F5F5F5F5F5F5F5F5F5F5F5F5F5F5F5F5F5F5F5F5F5F5F5F5F5F5
310
F5F5F5F5F5F5F5F5F5F5F5F5F5F5F5F5F5F5F5F5F5F5F5F5F5F5F5F5F5F5F5F5F5F5F5F5F5F5F5F5F5F5F5F5F5F5F5F5F5F5F5F5F5F5F5F5F5F5F5F5F5F5F5F5F5F5F5F5F5F5F5F5F5F5F5F5F5F5F5F5F5F5F5F5F5F5F5F5F5F5F5F5F5F5F5F5F5F5F5F5F5F5F5F5F5F5F5F5F5F5F5F5F5F5F5F5F5F5F5F5E2EFE2E2E2E2E2
310
E2E2E2E2E2E2E2E2E2E2E2E2E2E2E2E2E2E2E2E2E2E2E2E2E2E2E2E2E2E2E2E2E2E2E2E2E2E2E2E2E2E2E2E2E2E2E2E2E2E2E2E2E2E2E2E2E2E2E2E2E2E2E2E2E2E2E2E2E2E2E2E2E2E2E2E2E2E2E2E2E2E2E2E2E2E2E2E2E2E2E2E2E2E2E2E2E2E2E2E2E2E2E2E2E2E2E2E2E2E2E2E2E2E2E2E2E2E2E2E2E2E2E2E2E2E2E2
310
E2E2E2E2E2E2E2E2E2E2E2E2E2E2E2E2E2E2E2E2E2E2E2E2E2E2E2E2E2E2E2E2E2E2E2E2E2E2E2E2E2E2E2E2E2E2E2EF
  0
XRECORD
  5
5CFF
102
{ACAD_REACTORS
330
5CFE
102
}
330
5CFE
100
AcDbXrecord
280
     1
102
MATERIAL
148
0.0
149
0.0
149
0.0
 93
        0
 94
      127
282
     0
 72
     1
 77
     1
171
     1
175
     1
179
     1
273
     0
  0
XRECORD
  5
5CFD
102
{ACAD_REACTORS
330
5CFC
102
}
330
5CFC
100
AcDbXrecord
280
     1
102
MATERIAL
148
0.0
149
0.0
149
0.0
 93
        0
 94
      127
282
     0
 72
     1
 77
     1
171
     1
175
     1
179
     1
273
     0
  0
XRECORD
  5
5D01
102
{ACAD_REACTORS
330
5D00
102
}
330
5D00
100
AcDbXrecord
280
     1
102
MATERIAL
148
0.0
149
0.0
149
0.0
 93
        0
 94
      127
282
     0
 72
     1
 77
     1
171
     1
175
     1
179
     1
273
     0
  0
CELLSTYLEMAP
  5
5CFB
102
{ACAD_REACTORS
330
4242
102
}
330
4242
100
AcDbCellStyleMap
 90
        3
300
CELLSTYLE
  1
TABLEFORMAT_BEGIN
 90
        5
170
     1
 91
        0
 92
    32768
 62
   257
 93
        1
300
CONTENTFORMAT
  1
CONTENTFORMAT_BEGIN
 90
        0
 91
        0
 92
      512
 93
        0
300

 40
0.0
140
1.0
 94
        5
 62
     0
340
11
144
0.25
309
CONTENTFORMAT_END
171
     0
 94
        6
 95
        1
302
GRIDFORMAT
  1
GRIDFORMAT_BEGIN
 90
        0
 91
        1
 62
     0
 92
       -2
340
0
 93
        0
 40
0.045
309
GRIDFORMAT_END
 95
        2
302
GRIDFORMAT
  1
GRIDFORMAT_BEGIN
 90
        0
 91
        1
 62
     0
 92
       -2
340
0
 93
        0
 40
0.045
309
GRIDFORMAT_END
 95
        4
302
GRIDFORMAT
  1
GRIDFORMAT_BEGIN
 90
        0
 91
        1
 62
     0
 92
       -2
340
0
 93
        0
 40
0.045
309
GRIDFORMAT_END
 95
        8
302
GRIDFORMAT
  1
GRIDFORMAT_BEGIN
 90
        0
 91
        1
 62
     0
 92
       -2
340
0
 93
        0
 40
0.045
309
GRIDFORMAT_END
 95
       16
302
GRIDFORMAT
  1
GRIDFORMAT_BEGIN
 90
        0
 91
        1
 62
     0
 92
       -2
340
0
 93
        0
 40
0.045
309
GRIDFORMAT_END
 95
       32
302
GRIDFORMAT
  1
GRIDFORMAT_BEGIN
 90
        0
 91
        1
 62
     0
 92
       -2
340
0
 93
        0
 40
0.045
309
GRIDFORMAT_END
309
TABLEFORMAT_END
  1
CELLSTYLE_BEGIN
 90
        1
 91
        1
300
_TITLE
309
CELLSTYLE_END
300
CELLSTYLE
  1
TABLEFORMAT_BEGIN
 90
        5
170
     1
 91
        0
 92
        0
 62
   257
 93
        1
300
CONTENTFORMAT
  1
CONTENTFORMAT_BEGIN
 90
        0
 91
        0
 92
      512
 93
        0
300

 40
0.0
140
1.0
 94
        5
 62
     0
340
11
144
0.18
309
CONTENTFORMAT_END
171
     0
 94
        6
 95
        1
302
GRIDFORMAT
  1
GRIDFORMAT_BEGIN
 90
        0
 91
        1
 62
     0
 92
       -2
340
0
 93
        0
 40
0.045
309
GRIDFORMAT_END
 95
        2
302
GRIDFORMAT
  1
GRIDFORMAT_BEGIN
 90
        0
 91
        1
 62
     0
 92
       -2
340
0
 93
        0
 40
0.045
309
GRIDFORMAT_END
 95
        4
302
GRIDFORMAT
  1
GRIDFORMAT_BEGIN
 90
        0
 91
        1
 62
     0
 92
       -2
340
0
 93
        0
 40
0.045
309
GRIDFORMAT_END
 95
        8
302
GRIDFORMAT
  1
GRIDFORMAT_BEGIN
 90
        0
 91
        1
 62
     0
 92
       -2
340
0
 93
        0
 40
0.045
309
GRIDFORMAT_END
 95
       16
302
GRIDFORMAT
  1
GRIDFORMAT_BEGIN
 90
        0
 91
        1
 62
     0
 92
       -2
340
0
 93
        0
 40
0.045
309
GRIDFORMAT_END
 95
       32
302
GRIDFORMAT
  1
GRIDFORMAT_BEGIN
 90
        0
 91
        1
 62
     0
 92
       -2
340
0
 93
        0
 40
0.045
309
GRIDFORMAT_END
309
TABLEFORMAT_END
  1
CELLSTYLE_BEGIN
 90
        2
 91
        1
300
_HEADER
309
CELLSTYLE_END
300
CELLSTYLE
  1
TABLEFORMAT_BEGIN
 90
        5
170
     1
 91
        0
 92
        0
 62
   257
 93
        1
300
CONTENTFORMAT
  1
CONTENTFORMAT_BEGIN
 90
        0
 91
        0
 92
      512
 93
        0
300

 40
0.0
140
1.0
 94
        2
 62
     0
340
11
144
0.18
309
CONTENTFORMAT_END
171
     0
 94
        6
 95
        1
302
GRIDFORMAT
  1
GRIDFORMAT_BEGIN
 90
        0
 91
        1
 62
     0
 92
       -2
340
0
 93
        0
 40
0.045
309
GRIDFORMAT_END
 95
        2
302
GRIDFORMAT
  1
GRIDFORMAT_BEGIN
 90
        0
 91
        1
 62
     0
 92
       -2
340
0
 93
        0
 40
0.045
309
GRIDFORMAT_END
 95
        4
302
GRIDFORMAT
  1
GRIDFORMAT_BEGIN
 90
        0
 91
        1
 62
     0
 92
       -2
340
0
 93
        0
 40
0.045
309
GRIDFORMAT_END
 95
        8
302
GRIDFORMAT
  1
GRIDFORMAT_BEGIN
 90
        0
 91
        1
 62
     0
 92
       -2
340
0
 93
        0
 40
0.045
309
GRIDFORMAT_END
 95
       16
302
GRIDFORMAT
  1
GRIDFORMAT_BEGIN
 90
        0
 91
        1
 62
     0
 92
       -2
340
0
 93
        0
 40
0.045
309
GRIDFORMAT_END
 95
       32
302
GRIDFORMAT
  1
GRIDFORMAT_BEGIN
 90
        0
 91
        1
 62
     0
 92
       -2
340
0
 93
        0
 40
0.045
309
GRIDFORMAT_END
309
TABLEFORMAT_END
  1
CELLSTYLE_BEGIN
 90
        3
 91
        2
300
_DATA
309
CELLSTYLE_END
  0
XRECORD
  5
5D02
102
{ACAD_REACTORS
330
4242
102
}
330
4242
100
AcDbXrecord
280
     1
102
ACAD_ROUNDTRIP_PRE2007_TABLESTYLE
 90
      512
 91
        0
  1

 92
      512
 93
        0
  2

 94
      512
 95
        0
  3

  0
XRECORD
  5
49B
102
{ACAD_REACTORS
330
49A
102
}
330
49A
100
AcDbXrecord
280
     1
102
RTVSPropertyOp0
 70
     1
102
RTVSPropertyOp1
 70
     1
102
RTVSPropertyOp2
 70
     1
102
RTVSPropertyOp3
 70
     1
102
RTVSPropertyOp4
 70
     1
102
RTVSPropertyOp5
 70
     1
102
RTVSPropertyOp6
 70
     1
102
RTVSPropertyOp7
 70
     1
102
RTVSPropertyOp8
 70
     1
102
RTVSPropertyOp9
 70
     1
102
RTVSPropertyOp10
 70
     1
102
RTVSPropertyOp11
 70
     1
102
RTVSPropertyOp12
 70
     1
102
RTVSPropertyOp13
 70
     1
102
RTVSPropertyOp14
 70
     1
102
RTVSPropertyOp15
 70
     1
102
RTVSPropertyOp16
 70
     1
102
RTVSPropertyOp17
 70
     1
102
RTVSPropertyOp18
 70
     1
102
RTVSPropertyOp19
 70
     1
102
RTVSPropertyOp20
 70
     1
102
RTVSPropertyOp21
 70
     1
102
RTVSPropertyOp22
 70
     1
102
RTVSPropertyOp23
 70
     1
102
RTVSPropertyOp24
 70
     1
102
RTVSPropertyOp25
 70
     1
102
RTVSPropertyOp26
 70
     1
102
RTVSPropertyOp27
 70
     1
  0
XRECORD
  5
A4A
102
{ACAD_REACTORS
330
A49
102
}
330
A49
100
AcDbXrecord
280
     1
102
RTVSPropertyOp0
 70
     1
102
RTVSPropertyOp1
 70
     1
102
RTVSPropertyOp2
 70
     1
102
RTVSPropertyOp3
 70
     1
102
RTVSPropertyOp4
 70
     1
102
RTVSPropertyOp5
 70
     1
102
RTVSPropertyOp6
 70
     1
102
RTVSPropertyOp7
 70
     1
102
RTVSPropertyOp8
 70
     1
102
RTVSPropertyOp9
 70
     1
102
RTVSPropertyOp10
 70
     1
102
RTVSPropertyOp11
 70
     1
102
RTVSPropertyOp12
 70
     1
102
RTVSPropertyOp13
 70
     1
102
RTVSPropertyOp14
 70
     1
102
RTVSPropertyOp15
 70
     1
102
RTVSPropertyOp16
 70
     1
102
RTVSPropertyOp17
 70
     1
102
RTVSPropertyOp18
 70
     1
102
RTVSPropertyOp19
 70
     1
102
RTVSPropertyOp20
 70
     1
102
RTVSPropertyOp21
 70
     1
102
RTVSPropertyOp22
 70
     1
102
RTVSPropertyOp23
 70
     1
102
RTVSPropertyOp24
 70
     1
102
RTVSPropertyOp25
 70
     1
102
RTVSPropertyOp26
 70
     1
102
RTVSPropertyOp27
 70
     1
  0
XRECORD
  5
4A1
102
{ACAD_REACTORS
330
4A0
102
}
330
4A0
100
AcDbXrecord
280
     1
102
RTVSPropertyOp0
 70
     1
102
RTVSPropertyOp1
 70
     1
102
RTVSPropertyOp2
 70
     1
102
RTVSPropertyOp3
 70
     1
102
RTVSPropertyOp4
 70
     1
102
RTVSPropertyOp5
 70
     1
102
RTVSPropertyOp6
 70
     1
102
RTVSPropertyOp7
 70
     1
102
RTVSPropertyOp8
 70
     1
102
RTVSPropertyOp9
 70
     1
102
RTVSPropertyOp10
 70
     1
102
RTVSPropertyOp11
 70
     1
102
RTVSPropertyOp12
 70
     1
102
RTVSPropertyOp13
 70
     1
102
RTVSPropertyOp14
 70
     1
102
RTVSPropertyOp15
 70
     1
102
RTVSPropertyOp16
 70
     1
102
RTVSPropertyOp17
 70
     1
102
RTVSPropertyOp18
 70
     1
102
RTVSPropertyOp19
 70
     1
102
RTVSPropertyOp20
 70
     1
102
RTVSPropertyOp21
 70
     1
102
RTVSPropertyOp22
 70
     1
102
RTVSPropertyOp23
 70
     1
102
RTVSPropertyOp24
 70
     1
102
RTVSPropertyOp25
 70
     1
102
RTVSPropertyOp26
 70
     1
102
RTVSPropertyOp27
 70
     1
  0
XRECORD
  5
4A9
102
{ACAD_REACTORS
330
4A8
102
}
330
4A8
100
AcDbXrecord
280
     1
102
RTVSPropertyOp0
 70
     1
102
RTVSPropertyOp1
 70
     1
102
RTVSPropertyOp2
 70
     1
102
RTVSPropertyOp3
 70
     1
102
RTVSPropertyOp4
 70
     1
102
RTVSPropertyOp5
 70
     1
102
RTVSPropertyOp6
 70
     1
102
RTVSPropertyOp7
 70
     1
102
RTVSPropertyOp8
 70
     1
102
RTVSPropertyOp9
 70
     1
102
RTVSPropertyOp10
 70
     1
102
RTVSPropertyOp11
 70
     1
102
RTVSPropertyOp12
 70
     1
102
RTVSPropertyOp13
 70
     1
102
RTVSPropertyOp14
 70
     1
102
RTVSPropertyOp15
 70
     1
102
RTVSPropertyOp16
 70
     1
102
RTVSPropertyOp17
 70
     1
102
RTVSPropertyOp18
 70
     1
102
RTVSPropertyOp19
 70
     1
102
RTVSPropertyOp20
 70
     1
102
RTVSPropertyOp21
 70
     1
102
RTVSPropertyOp22
 70
     1
102
RTVSPropertyOp23
 70
     1
102
RTVSPropertyOp24
 70
     1
102
RTVSPropertyOp25
 70
     1
102
RTVSPropertyOp26
 70
     1
102
RTVSPropertyOp27
 70
     1
  0
XRECORD
  5
4B1
102
{ACAD_REACTORS
330
4B0
102
}
330
4B0
100
AcDbXrecord
280
     1
102
RTVSPropertyOp0
 70
     1
102
RTVSPropertyOp1
 70
     1
102
RTVSPropertyOp2
 70
     1
102
RTVSPropertyOp3
 70
     1
102
RTVSPropertyOp4
 70
     1
102
RTVSPropertyOp5
 70
     1
102
RTVSPropertyOp6
 70
     1
102
RTVSPropertyOp7
 70
     1
102
RTVSPropertyOp8
 70
     1
102
RTVSPropertyOp9
 70
     1
102
RTVSPropertyOp10
 70
     1
102
RTVSPropertyOp11
 70
     1
102
RTVSPropertyOp12
 70
     1
102
RTVSPropertyOp13
 70
     1
102
RTVSPropertyOp14
 70
     1
102
RTVSPropertyOp15
 70
     1
102
RTVSPropertyOp16
 70
     1
102
RTVSPropertyOp17
 70
     1
102
RTVSPropertyOp18
 70
     1
102
RTVSPropertyOp19
 70
     1
102
RTVSPropertyOp20
 70
     1
102
RTVSPropertyOp21
 70
     1
102
RTVSPropertyOp22
 70
     1
102
RTVSPropertyOp23
 70
     1
102
RTVSPropertyOp24
 70
     1
102
RTVSPropertyOp25
 70
     1
102
RTVSPropertyOp26
 70
     1
102
RTVSPropertyOp27
 70
     1
  0
XRECORD
  5
4A7
102
{ACAD_REACTORS
330
4A6
102
}
330
4A6
100
AcDbXrecord
280
     1
102
RTVSPropertyOp0
 70
     1
102
RTVSPropertyOp1
 70
     1
102
RTVSPropertyOp2
 70
     1
102
RTVSPropertyOp3
 70
     1
102
RTVSPropertyOp4
 70
     1
102
RTVSPropertyOp5
 70
     1
102
RTVSPropertyOp6
 70
     1
102
RTVSPropertyOp7
 70
     1
102
RTVSPropertyOp8
 70
     1
102
RTVSPropertyOp9
 70
     1
102
RTVSPropertyOp10
 70
     1
102
RTVSPropertyOp11
 70
     1
102
RTVSPropertyOp12
 70
     1
102
RTVSPropertyOp13
 70
     1
102
RTVSPropertyOp14
 70
     1
102
RTVSPropertyOp15
 70
     1
102
RTVSPropertyOp16
 70
     1
102
RTVSPropertyOp17
 70
     1
102
RTVSPropertyOp18
 70
     1
102
RTVSPropertyOp19
 70
     1
102
RTVSPropertyOp20
 70
     1
102
RTVSPropertyOp21
 70
     1
102
RTVSPropertyOp22
 70
     1
102
RTVSPropertyOp23
 70
     1
102
RTVSPropertyOp24
 70
     1
102
RTVSPropertyOp25
 70
     1
102
RTVSPropertyOp26
 70
     1
102
RTVSPropertyOp27
 70
     1
  0
XRECORD
  5
4AF
102
{ACAD_REACTORS
330
4AE
102
}
330
4AE
100
AcDbXrecord
280
     1
102
RTVSPropertyOp0
 70
     1
102
RTVSPropertyOp1
 70
     1
102
RTVSPropertyOp2
 70
     1
102
RTVSPropertyOp3
 70
     1
102
RTVSPropertyOp4
 70
     1
102
RTVSPropertyOp5
 70
     1
102
RTVSPropertyOp6
 70
     1
102
RTVSPropertyOp7
 70
     1
102
RTVSPropertyOp8
 70
     1
102
RTVSPropertyOp9
 70
     1
102
RTVSPropertyOp10
 70
     1
102
RTVSPropertyOp11
 70
     1
102
RTVSPropertyOp12
 70
     1
102
RTVSPropertyOp13
 70
     1
102
RTVSPropertyOp14
 70
     1
102
RTVSPropertyOp15
 70
     1
102
RTVSPropertyOp16
 70
     1
102
RTVSPropertyOp17
 70
     1
102
RTVSPropertyOp18
 70
     1
102
RTVSPropertyOp19
 70
     1
102
RTVSPropertyOp20
 70
     1
102
RTVSPropertyOp21
 70
     1
102
RTVSPropertyOp22
 70
     1
102
RTVSPropertyOp23
 70
     1
102
RTVSPropertyOp24
 70
     1
102
RTVSPropertyOp25
 70
     1
102
RTVSPropertyOp26
 70
     1
102
RTVSPropertyOp27
 70
     1
  0
XRECORD
  5
493
102
{ACAD_REACTORS
330
492
102
}
330
492
100
AcDbXrecord
280
     1
102
RTVSPropertyOp0
 70
     1
102
RTVSPropertyOp1
 70
     1
102
RTVSPropertyOp2
 70
     1
102
RTVSPropertyOp3
 70
     1
102
RTVSPropertyOp4
 70
     1
102
RTVSPropertyOp5
 70
     1
102
RTVSPropertyOp6
 70
     1
102
RTVSPropertyOp7
 70
     1
102
RTVSPropertyOp8
 70
     1
102
RTVSPropertyOp9
 70
     1
102
RTVSPropertyOp10
 70
     1
102
RTVSPropertyOp11
 70
     1
102
RTVSPropertyOp12
 70
     1
102
RTVSPropertyOp13
 70
     1
102
RTVSPropertyOp14
 70
     1
102
RTVSPropertyOp15
 70
     1
102
RTVSPropertyOp16
 70
     1
102
RTVSPropertyOp17
 70
     1
102
RTVSPropertyOp18
 70
     1
102
RTVSPropertyOp19
 70
     1
102
RTVSPropertyOp20
 70
     1
102
RTVSPropertyOp21
 70
     1
102
RTVSPropertyOp22
 70
     1
102
RTVSPropertyOp23
 70
     1
102
RTVSPropertyOp24
 70
     1
102
RTVSPropertyOp25
 70
     1
102
RTVSPropertyOp26
 70
     1
102
RTVSPropertyOp27
 70
     1
  0
XRECORD
  5
495
102
{ACAD_REACTORS
330
494
102
}
330
494
100
AcDbXrecord
280
     1
102
RTVSPropertyOp0
 70
     1
102
RTVSPropertyOp1
 70
     1
102
RTVSPropertyOp2
 70
     1
102
RTVSPropertyOp3
 70
     1
102
RTVSPropertyOp4
 70
     1
102
RTVSPropertyOp5
 70
     1
102
RTVSPropertyOp6
 70
     1
102
RTVSPropertyOp7
 70
     1
102
RTVSPropertyOp8
 70
     1
102
RTVSPropertyOp9
 70
     1
102
RTVSPropertyOp10
 70
     1
102
RTVSPropertyOp11
 70
     1
102
RTVSPropertyOp12
 70
     1
102
RTVSPropertyOp13
 70
     1
102
RTVSPropertyOp14
 70
     1
102
RTVSPropertyOp15
 70
     1
102
RTVSPropertyOp16
 70
     1
102
RTVSPropertyOp17
 70
     1
102
RTVSPropertyOp18
 70
     1
102
RTVSPropertyOp19
 70
     1
102
RTVSPropertyOp20
 70
     1
102
RTVSPropertyOp21
 70
     1
102
RTVSPropertyOp22
 70
     1
102
RTVSPropertyOp23
 70
     1
102
RTVSPropertyOp24
 70
     1
102
RTVSPropertyOp25
 70
     1
102
RTVSPropertyOp26
 70
     1
102
RTVSPropertyOp27
 70
     1
  0
XRECORD
  5
497
102
{ACAD_REACTORS
330
496
102
}
330
496
100
AcDbXrecord
280
     1
102
RTVSPropertyOp0
 70
     1
102
RTVSPropertyOp1
 70
     1
102
RTVSPropertyOp2
 70
     1
102
RTVSPropertyOp3
 70
     1
102
RTVSPropertyOp4
 70
     1
102
RTVSPropertyOp5
 70
     1
102
RTVSPropertyOp6
 70
     1
102
RTVSPropertyOp7
 70
     1
102
RTVSPropertyOp8
 70
     1
102
RTVSPropertyOp9
 70
     1
102
RTVSPropertyOp10
 70
     1
102
RTVSPropertyOp11
 70
     1
102
RTVSPropertyOp12
 70
     1
102
RTVSPropertyOp13
 70
     1
102
RTVSPropertyOp14
 70
     1
102
RTVSPropertyOp15
 70
     1
102
RTVSPropertyOp16
 70
     1
102
RTVSPropertyOp17
 70
     1
102
RTVSPropertyOp18
 70
     1
102
RTVSPropertyOp19
 70
     1
102
RTVSPropertyOp20
 70
     1
102
RTVSPropertyOp21
 70
     1
102
RTVSPropertyOp22
 70
     1
102
RTVSPropertyOp23
 70
     1
102
RTVSPropertyOp24
 70
     1
102
RTVSPropertyOp25
 70
     1
102
RTVSPropertyOp26
 70
     1
102
RTVSPropertyOp27
 70
     1
  0
XRECORD
  5
499
102
{ACAD_REACTORS
330
498
102
}
330
498
100
AcDbXrecord
280
     1
102
RTVSPropertyOp0
 70
     1
102
RTVSPropertyOp1
 70
     1
102
RTVSPropertyOp2
 70
     1
102
RTVSPropertyOp3
 70
     1
102
RTVSPropertyOp4
 70
     1
102
RTVSPropertyOp5
 70
     1
102
RTVSPropertyOp6
 70
     1
102
RTVSPropertyOp7
 70
     1
102
RTVSPropertyOp8
 70
     1
102
RTVSPropertyOp9
 70
     1
102
RTVSPropertyOp10
 70
     1
102
RTVSPropertyOp11
 70
     1
102
RTVSPropertyOp12
 70
     1
102
RTVSPropertyOp13
 70
     1
102
RTVSPropertyOp14
 70
     1
102
RTVSPropertyOp15
 70
     1
102
RTVSPropertyOp16
 70
     1
102
RTVSPropertyOp17
 70
     1
102
RTVSPropertyOp18
 70
     1
102
RTVSPropertyOp19
 70
     1
102
RTVSPropertyOp20
 70
     1
102
RTVSPropertyOp21
 70
     1
102
RTVSPropertyOp22
 70
     1
102
RTVSPropertyOp23
 70
     1
102
RTVSPropertyOp24
 70
     1
102
RTVSPropertyOp25
 70
     1
102
RTVSPropertyOp26
 70
     1
102
RTVSPropertyOp27
 70
     1
  0
XRECORD
  5
4AD
102
{ACAD_REACTORS
330
4AC
102
}
330
4AC
100
AcDbXrecord
280
     1
102
RTVSPropertyOp0
 70
     1
102
RTVSPropertyOp1
 70
     1
102
RTVSPropertyOp2
 70
     1
102
RTVSPropertyOp3
 70
     1
102
RTVSPropertyOp4
 70
     1
102
RTVSPropertyOp5
 70
     1
102
RTVSPropertyOp6
 70
     1
102
RTVSPropertyOp7
 70
     1
102
RTVSPropertyOp8
 70
     1
102
RTVSPropertyOp9
 70
     1
102
RTVSPropertyOp10
 70
     1
102
RTVSPropertyOp11
 70
     1
102
RTVSPropertyOp12
 70
     1
102
RTVSPropertyOp13
 70
     1
102
RTVSPropertyOp14
 70
     1
102
RTVSPropertyOp15
 70
     1
102
RTVSPropertyOp16
 70
     1
102
RTVSPropertyOp17
 70
     1
102
RTVSPropertyOp18
 70
     1
102
RTVSPropertyOp19
 70
     1
102
RTVSPropertyOp20
 70
     1
102
RTVSPropertyOp21
 70
     1
102
RTVSPropertyOp22
 70
     1
102
RTVSPropertyOp23
 70
     1
102
RTVSPropertyOp24
 70
     1
102
RTVSPropertyOp25
 70
     1
102
RTVSPropertyOp26
 70
     1
102
RTVSPropertyOp27
 70
     1
  0
XRECORD
  5
A4E
102
{ACAD_REACTORS
330
A4D
102
}
330
A4D
100
AcDbXrecord
280
     1
102
RTVSPropertyOp0
 70
     1
102
RTVSPropertyOp1
 70
     1
102
RTVSPropertyOp2
 70
     1
102
RTVSPropertyOp3
 70
     1
102
RTVSPropertyOp4
 70
     1
102
RTVSPropertyOp5
 70
     1
102
RTVSPropertyOp6
 70
     1
102
RTVSPropertyOp7
 70
     1
102
RTVSPropertyOp8
 70
     1
102
RTVSPropertyOp9
 70
     1
102
RTVSPropertyOp10
 70
     1
102
RTVSPropertyOp11
 70
     1
102
RTVSPropertyOp12
 70
     1
102
RTVSPropertyOp13
 70
     1
102
RTVSPropertyOp14
 70
     1
102
RTVSPropertyOp15
 70
     1
102
RTVSPropertyOp16
 70
     1
102
RTVSPropertyOp17
 70
     1
102
RTVSPropertyOp18
 70
     1
102
RTVSPropertyOp19
 70
     1
102
RTVSPropertyOp20
 70
     1
102
RTVSPropertyOp21
 70
     1
102
RTVSPropertyOp22
 70
     1
102
RTVSPropertyOp23
 70
     1
102
RTVSPropertyOp24
 70
     1
102
RTVSPropertyOp25
 70
     1
102
RTVSPropertyOp26
 70
     1
102
RTVSPropertyOp27
 70
     1
  0
XRECORD
  5
4AB
102
{ACAD_REACTORS
330
4AA
102
}
330
4AA
100
AcDbXrecord
280
     1
102
RTVSPropertyOp0
 70
     1
102
RTVSPropertyOp1
 70
     1
102
RTVSPropertyOp2
 70
     1
102
RTVSPropertyOp3
 70
     1
102
RTVSPropertyOp4
 70
     1
102
RTVSPropertyOp5
 70
     1
102
RTVSPropertyOp6
 70
     1
102
RTVSPropertyOp7
 70
     1
102
RTVSPropertyOp8
 70
     1
102
RTVSPropertyOp9
 70
     1
102
RTVSPropertyOp10
 70
     1
102
RTVSPropertyOp11
 70
     1
102
RTVSPropertyOp12
 70
     1
102
RTVSPropertyOp13
 70
     1
102
RTVSPropertyOp14
 70
     1
102
RTVSPropertyOp15
 70
     1
102
RTVSPropertyOp16
 70
     1
102
RTVSPropertyOp17
 70
     1
102
RTVSPropertyOp18
 70
     1
102
RTVSPropertyOp19
 70
     1
102
RTVSPropertyOp20
 70
     1
102
RTVSPropertyOp21
 70
     1
102
RTVSPropertyOp22
 70
     1
102
RTVSPropertyOp23
 70
     1
102
RTVSPropertyOp24
 70
     1
102
RTVSPropertyOp25
 70
     1
102
RTVSPropertyOp26
 70
     1
102
RTVSPropertyOp27
 70
     1
  0
ENDSEC
  0
EOF
