  0
SECTION
  2
HEADER
  9
$ACADVER
  1
AC1018
  9
$ACADMAINTVER
 70
   104
  9
$DWGCODEPAGE
  3
ANSI_1250
  9
$LASTSAVEDBY
  1
bonzo
  9
$INSBASE
 10
0.0
 20
0.0
 30
0.0
  9
$EXTMIN
 10
6.318914805889474
 20
5.096628651200869
 30
0.0
  9
$EXTMAX
 10
14.90155357080469
 20
10.24198165223592
 30
0.0
  9
$LIMMIN
 10
0.0
 20
0.0
  9
$LIMMAX
 10
12.0
 20
9.0
  9
$ORTHOMODE
 70
     1
  9
$REGENMODE
 70
     1
  9
$FILLMODE
 70
     1
  9
$QTEXTMODE
 70
     0
  9
$MIRRTEXT
 70
     1
  9
$LTSCALE
 40
1.0
  9
$ATTMODE
 70
     1
  9
$TEXTSIZE
 40
0.2
  9
$TRACEWID
 40
0.05
  9
$TEXTSTYLE
  7
Standard
  9
$CLAYER
  8
WYMIAR
  9
$CELTYPE
  6
ByLayer
  9
$CECOLOR
 62
   256
  9
$CELTSCALE
 40
1.0
  9
$DISPSILH
 70
     0
  9
$DIMSCALE
 40
0.02
  9
$DIMASZ
 40
3.0
  9
$DIMEXO
 40
20.0
  9
$DIMDLI
 40
0.0
  9
$DIMRND
 40
0.1
  9
$DIMDLE
 40
0.0
  9
$DIMEXE
 40
5.0
  9
$DIMTP
 40
0.0
  9
$DIMTM
 40
0.0
  9
$DIMTXT
 40
9.0
  9
$DIMCEN
 40
12.0
  9
$DIMTSZ
 40
0.0
  9
$DIMTOL
 70
     0
  9
$DIMLIM
 70
     0
  9
$DIMTIH
 70
     0
  9
$DIMTOH
 70
     0
  9
$DIMSE1
 70
     1
  9
$DIMSE2
 70
     1
  9
$DIMTAD
 70
     1
  9
$DIMZIN
 70
     1
  9
$DIMBLK
  1

  9
$DIMASO
 70
     1
  9
$DIMSHO
 70
     1
  9
$DIMPOST
  1

  9
$DIMAPOST
  1

  9
$DIMALT
 70
     0
  9
$DIMALTD
 70
     4
  9
$DIMALTF
 40
1.0
  9
$DIMLFAC
 40
1.0
  9
$DIMTOFL
 70
     1
  9
$DIMTVP
 40
0.0
  9
$DIMTIX
 70
     1
  9
$DIMSOXD
 70
     0
  9
$DIMSAH
 70
     1
  9
$DIMBLK1
  1
MAR-STRZ
  9
$DIMBLK2
  1
MAR-STRZ
  9
$DIMSTYLE
  2
AR SKALA 1-50
  9
$DIMCLRD
 70
   256
  9
$DIMCLRE
 70
   256
  9
$DIMCLRT
 70
   256
  9
$DIMTFAC
 40
0.01
  9
$DIMGAP
 40
6.0
  9
$DIMJUST
 70
     0
  9
$DIMSD1
 70
     0
  9
$DIMSD2
 70
     0
  9
$DIMTOLJ
 70
     1
  9
$DIMTZIN
 70
     0
  9
$DIMALTZ
 70
     0
  9
$DIMALTTZ
 70
     0
  9
$DIMUPT
 70
     0
  9
$DIMDEC
 70
     2
  9
$DIMTDEC
 70
     2
  9
$DIMALTU
 70
     2
  9
$DIMALTTD
 70
     4
  9
$DIMTXSTY
  7
AR 01 SWIS
  9
$DIMAUNIT
 70
     0
  9
$DIMADEC
 70
     1
  9
$DIMALTRND
 40
0.0
  9
$DIMAZIN
 70
     0
  9
$DIMDSEP
 70
    46
  9
$DIMATFIT
 70
     3
  9
$DIMFRAC
 70
     0
  9
$DIMLDRBLK
  1
MAR-STRZ
  9
$DIMLUNIT
 70
     2
  9
$DIMLWD
 70
    -2
  9
$DIMLWE
 70
    -2
  9
$DIMTMOVE
 70
     2
  9
$LUNITS
 70
     2
  9
$LUPREC
 70
     4
  9
$SKETCHINC
 40
0.1
  9
$FILLETRAD
 40
0.0
  9
$AUNITS
 70
     0
  9
$AUPREC
 70
     0
  9
$MENU
  1
.
  9
$ELEVATION
 40
0.0
  9
$PELEVATION
 40
0.0
  9
$THICKNESS
 40
0.0
  9
$LIMCHECK
 70
     0
  9
$CHAMFERA
 40
0.5
  9
$CHAMFERB
 40
0.5
  9
$CHAMFERC
 40
1.0
  9
$CHAMFERD
 40
0.0
  9
$SKPOLY
 70
     0
  9
$TDCREATE
 40
2455956.457693160
  9
$TDUCREATE
 40
2455956.416026493
  9
$TDUPDATE
 40
2459273.508803368
  9
$TDUUPDATE
 40
2459273.467136702
  9
$TDINDWG
 40
0.1427630208
  9
$TDUSRTIMER
 40
0.1427630208
  9
$USRTIMER
 70
     1
  9
$ANGBASE
 50
0.0
  9
$ANGDIR
 70
     0
  9
$PDMODE
 70
     0
  9
$PDSIZE
 40
0.0
  9
$PLINEWID
 40
0.0
  9
$SPLFRAME
 70
     0
  9
$SPLINETYPE
 70
     6
  9
$SPLINESEGS
 70
     8
  9
$HANDSEED
  5
5A8F
  9
$SURFTAB1
 70
     6
  9
$SURFTAB2
 70
     6
  9
$SURFTYPE
 70
     6
  9
$SURFU
 70
     6
  9
$SURFV
 70
     6
  9
$UCSBASE
  2

  9
$UCSNAME
  2

  9
$UCSORG
 10
0.0
 20
0.0
 30
0.0
  9
$UCSXDIR
 10
1.0
 20
0.0
 30
0.0
  9
$UCSYDIR
 10
0.0
 20
1.0
 30
0.0
  9
$UCSORTHOREF
  2

  9
$UCSORTHOVIEW
 70
     0
  9
$UCSORGTOP
 10
0.0
 20
0.0
 30
0.0
  9
$UCSORGBOTTOM
 10
0.0
 20
0.0
 30
0.0
  9
$UCSORGLEFT
 10
0.0
 20
0.0
 30
0.0
  9
$UCSORGRIGHT
 10
0.0
 20
0.0
 30
0.0
  9
$UCSORGFRONT
 10
0.0
 20
0.0
 30
0.0
  9
$UCSORGBACK
 10
0.0
 20
0.0
 30
0.0
  9
$PUCSBASE
  2

  9
$PUCSNAME
  2

  9
$PUCSORG
 10
0.0
 20
0.0
 30
0.0
  9
$PUCSXDIR
 10
1.0
 20
0.0
 30
0.0
  9
$PUCSYDIR
 10
0.0
 20
1.0
 30
0.0
  9
$PUCSORTHOREF
  2

  9
$PUCSORTHOVIEW
 70
     0
  9
$PUCSORGTOP
 10
0.0
 20
0.0
 30
0.0
  9
$PUCSORGBOTTOM
 10
0.0
 20
0.0
 30
0.0
  9
$PUCSORGLEFT
 10
0.0
 20
0.0
 30
0.0
  9
$PUCSORGRIGHT
 10
0.0
 20
0.0
 30
0.0
  9
$PUCSORGFRONT
 10
0.0
 20
0.0
 30
0.0
  9
$PUCSORGBACK
 10
0.0
 20
0.0
 30
0.0
  9
$USERI1
 70
     0
  9
$USERI2
 70
     0
  9
$USERI3
 70
     0
  9
$USERI4
 70
     0
  9
$USERI5
 70
     0
  9
$USERR1
 40
0.0
  9
$USERR2
 40
0.0
  9
$USERR3
 40
0.0
  9
$USERR4
 40
0.0
  9
$USERR5
 40
0.0
  9
$WORLDVIEW
 70
     1
  9
$SHADEDGE
 70
     3
  9
$SHADEDIF
 70
    70
  9
$TILEMODE
 70
     1
  9
$MAXACTVP
 70
    64
  9
$PINSBASE
 10
0.0
 20
0.0
 30
0.0
  9
$PLIMCHECK
 70
     0
  9
$PEXTMIN
 10
6.561544945354853
 20
3.282189374834842
 30
0.0
  9
$PEXTMAX
 10
296.6096419909582
 20
206.4421558651099
 30
0.0
  9
$PLIMMIN
 10
3.386557152386103
 20
0.1071894225185588
  9
$PLIMMAX
 10
300.4395661855892
 20
209.9958460387295
  9
$UNITMODE
 70
     0
  9
$VISRETAIN
 70
     1
  9
$PLINEGEN
 70
     0
  9
$PSLTSCALE
 70
     0
  9
$TREEDEPTH
 70
  3020
  9
$CMLSTYLE
  2
Standard
  9
$CMLJUST
 70
     0
  9
$CMLSCALE
 40
1.0
  9
$PROXYGRAPHICS
 70
     1
  9
$MEASUREMENT
 70
     0
  9
$CELWEIGHT
370
    -1
  9
$ENDCAPS
280
     0
  9
$JOINSTYLE
280
     0
  9
$LWDISPLAY
290
     0
  9
$INSUNITS
 70
     1
  9
$HYPERLINKBASE
  1

  9
$STYLESHEET
  1

  9
$XEDIT
290
     1
  9
$CEPSNTYPE
380
     0
  9
$PSTYLEMODE
290
     1
  9
$FINGERPRINTGUID
  2
{1B330B5B-CE04-4EC8-B886-8C8BFC3A02BF}
  9
$VERSIONGUID
  2
{DC264E38-6283-451E-9479-2DA370079518}
  9
$EXTNAMES
290
     1
  9
$PSVPSCALE
 40
0.0
  9
$OLESTARTUP
290
     0
  9
$SORTENTS
280
   127
  9
$INDEXCTL
280
     0
  9
$HIDETEXT
280
     1
  9
$XCLIPFRAME
290
     0
  9
$HALOGAP
280
     0
  9
$OBSCOLOR
 70
   257
  9
$OBSLTYPE
280
     0
  9
$INTERSECTIONDISPLAY
280
     0
  9
$INTERSECTIONCOLOR
 70
   257
  9
$DIMASSOC
280
     2
  9
$PROJECTNAME
  1

  0
ENDSEC
  0
SECTION
  2
CLASSES
  0
CLASS
  1
ACDBDICTIONARYWDFLT
  2
AcDbDictionaryWithDefault
  3
ObjectDBX Classes
 90
        0
 91
        1
280
     0
281
     0
  0
CLASS
  1
VISUALSTYLE
  2
AcDbVisualStyle
  3
ObjectDBX Classes
 90
     4095
 91
       16
280
     0
281
     0
  0
CLASS
  1
MATERIAL
  2
AcDbMaterial
  3
ObjectDBX Classes
 90
     1153
 91
        3
280
     0
281
     0
  0
CLASS
  1
DICTIONARYVAR
  2
AcDbDictionaryVar
  3
ObjectDBX Classes
 90
        0
 91
        9
280
     0
281
     0
  0
CLASS
  1
TABLESTYLE
  2
AcDbTableStyle
  3
ObjectDBX Classes
 90
     4095
 91
        1
280
     0
281
     0
  0
CLASS
  1
SORTENTSTABLE
  2
AcDbSortentsTable
  3
ObjectDBX Classes
 90
        0
 91
        2
280
     0
281
     0
  0
CLASS
  1
DIMASSOC
  2
AcDbDimAssoc
  3
"AcDbDimAssoc|Product Desc:     AcDim ARX App For Dimension|Company:          Autodesk, Inc.|WEB Address:      www.autodesk.com"
 90
        0
 91
        4
280
     0
281
     0
  0
CLASS
  1
SCALE
  2
AcDbScale
  3
ObjectDBX Classes
 90
     1153
 91
       33
280
     0
281
     0
  0
CLASS
  1
MLEADERSTYLE
  2
AcDbMLeaderStyle
  3
ACDB_MLEADERSTYLE_CLASS
 90
     4095
 91
        1
280
     0
281
     0
  0
CLASS
  1
CELLSTYLEMAP
  2
AcDbCellStyleMap
  3
ObjectDBX Classes
 90
     1152
 91
        2
280
     0
281
     0
  0
ENDSEC
  0
SECTION
  2
TABLES
  0
TABLE
  2
VPORT
  5
8
102
{ACAD_XDICTIONARY
360
84C
102
}
330
0
100
AcDbSymbolTable
 70
     1
  0
VPORT
  5
29
330
8
100
AcDbSymbolTableRecord
100
AcDbViewportTableRecord
  2
*Active
 70
     0
 10
0.0
 20
0.0
 11
1.0
 21
1.0
 12
11.48410692466316
 22
7.30122469795708
 13
0.0
 23
0.0
 14
0.5
 24
0.5
 15
0.5
 25
0.5
 16
0.0
 26
0.0
 36
1.0
 17
0.0
 27
0.0
 37
-1000.0
 40
7.807063837631558
 41
2.060556464811783
 42
50.0
 43
4.148984367261674
 44
9.217858496371269
 50
0.0
 51
0.0
 71
     0
 72
   100
 73
     1
 74
     3
 75
     0
 76
     0
 77
     0
 78
     0
281
     0
 65
     1
110
0.0
120
0.0
130
0.0
111
1.0
121
0.0
131
0.0
112
0.0
122
1.0
132
0.0
 79
     0
146
0.0
  0
ENDTAB
  0
TABLE
  2
LTYPE
  5
5
330
0
100
AcDbSymbolTable
 70
     2
  0
LTYPE
  5
14
330
5
100
AcDbSymbolTableRecord
100
AcDbLinetypeTableRecord
  2
ByBlock
 70
     0
  3

 72
    65
 73
     0
 40
0.0
  0
LTYPE
  5
15
330
5
100
AcDbSymbolTableRecord
100
AcDbLinetypeTableRecord
  2
ByLayer
 70
     0
  3

 72
    65
 73
     0
 40
0.0
  0
LTYPE
  5
16
330
5
100
AcDbSymbolTableRecord
100
AcDbLinetypeTableRecord
  2
Continuous
 70
     0
  3
Solid line
 72
    65
 73
     0
 40
0.0
  0
LTYPE
  5
886
330
5
100
AcDbSymbolTableRecord
100
AcDbLinetypeTableRecord
  2
DASHED
 70
     0
  3
Dashed __ __ __ __ __ __ __ __ __ __ __ __ __ _
 72
    65
 73
     2
 40
0.75
 49
0.5
 74
     0
 49
-0.25
 74
     0
  0
ENDTAB
  0
TABLE
  2
LAYER
  5
2
102
{ACAD_XDICTIONARY
360
7D1
102
}
330
0
100
AcDbSymbolTable
 70
     4
  0
LAYER
  5
10
102
{ACAD_XDICTIONARY
360
423C
102
}
330
2
100
AcDbSymbolTableRecord
100
AcDbLayerTableRecord
  2
0
 70
     0
 62
     7
  6
Continuous
370
    80
390
F
  0
LAYER
  5
87B
102
{ACAD_XDICTIONARY
360
423E
102
}
330
2
100
AcDbSymbolTableRecord
100
AcDbLayerTableRecord
  2
STREFA BEZPIECZEŃSTWA
 70
     0
 62
     7
  6
DASHED
370
   100
390
F
1001
AcAecLayerStandard
1000

1000

  0
LAYER
  5
87D
102
{ACAD_XDICTIONARY
360
4240
102
}
330
2
100
AcDbSymbolTableRecord
100
AcDbLayerTableRecord
  2
WYMIAR
 70
     0
 62
     7
  6
Continuous
370
   100
390
F
1001
AcAecLayerStandard
1000

1000

  0
LAYER
  5
8CC
330
2
100
AcDbSymbolTableRecord
100
AcDbLayerTableRecord
  2
Defpoints
 70
     0
 62
     7
  6
Continuous
290
     0
370
     5
390
F
1001
RAK
1000
{ACET-LAYISO
1070
     0
1070
     7
1000
Continuous
1071
        5
1071
        0
1005
F
1000
ACET-LAYISO}
  0
ENDTAB
  0
TABLE
  2
STYLE
  5
3
330
0
100
AcDbSymbolTable
 70
     2
  0
STYLE
  5
11
330
3
100
AcDbSymbolTableRecord
100
AcDbTextStyleTableRecord
  2
Standard
 70
     0
 40
0.0
 41
1.0
 50
0.0
 71
     0
 42
0.2
  3
txt
  4

  0
STYLE
  5
8CE
330
3
100
AcDbSymbolTableRecord
100
AcDbTextStyleTableRecord
  2
AR 01 SWIS
 70
     0
 40
0.0
 41
1.0
 50
0.0
 71
     0
 42
55.0
  3

  4

1001
ACAD
1000
Swis721 Cn BT
1071
       34
  0
ENDTAB
  0
TABLE
  2
VIEW
  5
6
330
0
100
AcDbSymbolTable
 70
     0
  0
ENDTAB
  0
TABLE
  2
UCS
  5
7
330
0
100
AcDbSymbolTable
 70
     0
  0
ENDTAB
  0
TABLE
  2
APPID
  5
9
330
0
100
AcDbSymbolTable
 70
     9
  0
APPID
  5
12
330
9
100
AcDbSymbolTableRecord
100
AcDbRegAppTableRecord
  2
ACAD
 70
     0
  0
APPID
  5
7CB
330
9
100
AcDbSymbolTableRecord
100
AcDbRegAppTableRecord
  2
ACAD_PSEXT
 70
     0
  0
APPID
  5
875
330
9
100
AcDbSymbolTableRecord
100
AcDbRegAppTableRecord
  2
ACAD_EXEMPT_FROM_CAD_STANDARDS
 70
     0
  0
APPID
  5
87C
330
9
100
AcDbSymbolTableRecord
100
AcDbRegAppTableRecord
  2
AcAecLayerStandard
 70
     0
  0
APPID
  5
8D4
330
9
100
AcDbSymbolTableRecord
100
AcDbRegAppTableRecord
  2
RAK
 70
     0
  0
APPID
  5
8D5
330
9
100
AcDbSymbolTableRecord
100
AcDbRegAppTableRecord
  2
ACAD_DSTYLE_DIMJOGGED_JOGANGLE_SYMBOL
 70
     0
  0
APPID
  5
8D6
330
9
100
AcDbSymbolTableRecord
100
AcDbRegAppTableRecord
  2
ACAD_DSTYLE_DIMJAG
 70
     0
  0
APPID
  5
8D7
330
9
100
AcDbSymbolTableRecord
100
AcDbRegAppTableRecord
  2
ACAD_DSTYLE_DIMTALN
 70
     0
  0
APPID
  5
4236
330
9
100
AcDbSymbolTableRecord
100
AcDbRegAppTableRecord
  2
ACAD_MLEADERVER
 70
     0
  0
ENDTAB
  0
TABLE
  2
DIMSTYLE
  5
A
330
0
100
AcDbSymbolTable
 70
     2
100
AcDbDimStyleTable
 71
     1
340
8CF
  0
DIMSTYLE
105
8CF
102
{ACAD_REACTORS
330
51C9
330
51DD
102
}
330
A
100
AcDbSymbolTableRecord
100
AcDbDimStyleTableRecord
  2
AR SKALA 1-50
 70
     0
 40
0.02
 41
3.0
 42
20.0
 43
0.0
 44
5.0
 45
0.1
 73
     0
 74
     0
 75
     1
 76
     1
 77
     1
 78
     1
140
9.0
141
12.0
143
1.0
146
0.01
147
6.0
171
     4
172
     1
173
     1
174
     1
176
   256
177
   256
178
   256
179
     1
271
     2
272
     2
274
     4
279
     2
340
8CE
341
8BC
343
8BC
344
8BC
  0
DIMSTYLE
105
A46
330
A
100
AcDbSymbolTableRecord
100
AcDbDimStyleTableRecord
  2
Standard
 70
     0
340
11
  0
ENDTAB
  0
TABLE
  2
BLOCK_RECORD
  5
1
330
0
100
AcDbSymbolTable
 70
     6
  0
BLOCK_RECORD
  5
1F
102
{ACAD_XDICTIONARY
360
5F8
102
}
330
1
100
AcDbSymbolTableRecord
100
AcDbBlockTableRecord
  2
*Model_Space
340
22
  0
BLOCK_RECORD
  5
1B
330
1
100
AcDbSymbolTableRecord
100
AcDbBlockTableRecord
  2
*Paper_Space
340
1E
  0
BLOCK_RECORD
  5
8BC
330
1
100
AcDbSymbolTableRecord
100
AcDbBlockTableRecord
  2
MAR-STRZ
340
0
310
2800000020000000200000000100080000000000000400000000000000000000000000000000000000000000000080000080000000808000800000008000800080800000C0C0C000C0DCC000F0CAA6000020400000206000002080000020A0000020C0000020E00000400000004020000040400000406000004080000040A0
310
000040C0000040E00000600000006020000060400000606000006080000060A0000060C0000060E00000800000008020000080400000806000008080000080A0000080C0000080E00000A0000000A0200000A0400000A0600000A0800000A0A00000A0C00000A0E00000C0000000C0200000C0400000C0600000C0800000C0
310
A00000C0C00000C0E00000E0000000E0200000E0400000E0600000E0800000E0A00000E0C00000E0E00040000000400020004000400040006000400080004000A0004000C0004000E00040200000402020004020400040206000402080004020A0004020C0004020E000404000004040200040404000404060004040800040
310
40A0004040C0004040E00040600000406020004060400040606000406080004060A0004060C0004060E00040800000408020004080400040806000408080004080A0004080C0004080E00040A0000040A0200040A0400040A0600040A0800040A0A00040A0C00040A0E00040C0000040C0200040C0400040C0600040C08000
310
40C0A00040C0C00040C0E00040E0000040E0200040E0400040E0600040E0800040E0A00040E0C00040E0E00080000000800020008000400080006000800080008000A0008000C0008000E00080200000802020008020400080206000802080008020A0008020C0008020E00080400000804020008040400080406000804080
310
008040A0008040C0008040E00080600000806020008060400080606000806080008060A0008060C0008060E00080800000808020008080400080806000808080008080A0008080C0008080E00080A0000080A0200080A0400080A0600080A0800080A0A00080A0C00080A0E00080C0000080C0200080C0400080C0600080C0
310
800080C0A00080C0C00080C0E00080E0000080E0200080E0400080E0600080E0800080E0A00080E0C00080E0E000C0000000C0002000C0004000C0006000C0008000C000A000C000C000C000E000C0200000C0202000C0204000C0206000C0208000C020A000C020C000C020E000C0400000C0402000C0404000C0406000C0
310
408000C040A000C040C000C040E000C0600000C0602000C0604000C0606000C0608000C060A000C060C000C060E000C0800000C0802000C0804000C0806000C0808000C080A000C080C000C080E000C0A00000C0A02000C0A04000C0A06000C0A08000C0A0A000C0A0C000C0A0E000C0C00000C0C02000C0C04000C0C06000
310
C0C08000C0C0A000F0FBFF00A4A0A000808080000000FF0000FF000000FFFF00FF000000FF00FF00FFFF0000FFFFFF00000000000000000000000000000000000000000000000000000000000000000000000000000000000000000000000000FF000000000000000000000000000000000000000000000000000000000000
310
00FF00000000000000000000000000000000000000000000000000000000000000FF00000000000000000000000000000000000000000000000000000000000000FF00000000000000000000000000000000000000000000000000000000000000FF000000000000000000000000000000000000000000F900000000000000
310
0000FF00000000000000000000000000000000000000000000F90000000000000000FF0000000000000000000000000000000000000000000000F900000000000000FF000000000000000000000000000000000000000000000000F9000000000000FF00000000000000000000000000000000000000000000000000F90000
310
000000FF0000000000000000000000000000000000000000000000000000F900000000FF000000000000000000000000000000000000000000000000000000F9000000FF00000000000000000000000000000000000000000000000000000000F90000FF000000000000000000000000000000000000000000000000000000
310
0000F900FF000000000000000000000000000000000000000000000000000000000000F9FF00000000000000000000000000000000000000000000FFFFFFFFFFFFFFFFFFFFFFFFFFFFFFFFFFFF0000000000000000000000000000000000000000000000FFF900000000000000000000000000000000000000000000000000
310
0000000000FF00F90000000000000000000000000000000000000000000000000000000000FF0000F900000000000000000000000000000000000000000000000000000000FF000000F9000000000000000000000000000000000000000000000000000000FF00000000F90000000000000000000000000000000000000000
310
000000000000FF0000000000F900000000000000000000000000000000000000000000000000FF000000000000F9000000000000000000000000000000000000000000000000FF00000000000000F90000000000000000000000000000000000000000000000FF0000000000000000F9000000000000000000000000000000
310
00000000000000FF00000000000000000000000000000000000000000000000000000000000000FF00000000000000000000000000000000000000000000000000000000000000FF00000000000000000000000000000000000000000000000000000000000000FF0000000000000000000000000000000000000000000000
310
0000000000000000FF0000000000000000000000000000000000000000000000000000000000000000000000000000000000000000000000
102
{BLKREFS
331
51D6
331
51D7
331
51EA
331
51EB
331
56FF
331
5700
331
5709
331
570A
102
}
  0
BLOCK_RECORD
  5
51CA
330
1
100
AcDbSymbolTableRecord
100
AcDbBlockTableRecord
  2
*D1
340
0
  0
BLOCK_RECORD
  5
51DE
330
1
100
AcDbSymbolTableRecord
100
AcDbBlockTableRecord
  2
*D2
340
0
  0
BLOCK_RECORD
  5
56FC
330
1
100
AcDbSymbolTableRecord
100
AcDbBlockTableRecord
  2
*D3
340
0
  0
BLOCK_RECORD
  5
5706
330
1
100
AcDbSymbolTableRecord
100
AcDbBlockTableRecord
  2
*D4
340
0
  0
BLOCK_RECORD
  5
5710
102
{ACAD_XDICTIONARY
360
5A22
102
}
330
1
100
AcDbSymbolTableRecord
100
AcDbBlockTableRecord
  2
2.2.03
340
0
1001
ACAD
1000
DesignCenter Data
1002
{
1070
     1
1070
     1
1002
}
  0
ENDTAB
  0
ENDSEC
  0
SECTION
  2
BLOCKS
  0
BLOCK
  5
20
330
1F
100
AcDbEntity
  8
0
100
AcDbBlockBegin
  2
*Model_Space
 70
     0
 10
0.0
 20
0.0
 30
0.0
  3
*Model_Space
  1

  0
ENDBLK
  5
21
330
1F
100
AcDbEntity
  8
0
100
AcDbBlockEnd
  0
BLOCK
  5
1C
330
1B
100
AcDbEntity
 67
     1
  8
0
100
AcDbBlockBegin
  2
*Paper_Space
 70
     0
 10
0.0
 20
0.0
 30
0.0
  3
*Paper_Space
  1

  0
ENDBLK
  5
1D
330
1B
100
AcDbEntity
 67
     1
  8
0
100
AcDbBlockEnd
  0
BLOCK
  5
8BD
330
8BC
100
AcDbEntity
  8
0
100
AcDbBlockBegin
  2
MAR-STRZ
 70
     0
 10
0.0
 20
0.0
 30
0.0
  3
MAR-STRZ
  1

  0
LINE
  5
8BE
330
8BC
100
AcDbEntity
  8
0
100
AcDbLine
 10
0.0
 20
2.299999999999272
 30
0.0
 11
0.0
 21
-2.299999999999272
 31
0.0
  0
LINE
  5
8BF
330
8BC
100
AcDbEntity
  8
0
 62
    10
100
AcDbLine
 10
1.5
 20
1.5
 30
0.0
 11
-1.5
 21
-1.5
 31
0.0
  0
LINE
  5
8C0
330
8BC
100
AcDbEntity
  8
0
100
AcDbLine
 10
1.399999999999636
 20
0.0
 30
0.0
 11
-1.399999999999636
 21
0.0
 31
0.0
  0
ENDBLK
  5
8C1
330
8BC
100
AcDbEntity
  8
0
100
AcDbBlockEnd
  0
BLOCK
  5
51CB
330
51CA
100
AcDbEntity
  8
0
100
AcDbBlockBegin
  2
*D1
 70
     1
 10
0.0
 20
0.0
 30
0.0
  3
*D1
  1

  0
LINE
  5
51D5
330
51CA
100
AcDbEntity
  8
WYMIAR
370
    -2
100
AcDbLine
 10
7.371553570804693
 20
9.889676457430732
 30
0.0
 11
14.75155357080469
 21
9.889676457430732
 31
0.0
  0
INSERT
  5
51D6
330
51CA
100
AcDbEntity
  8
WYMIAR
370
    -2
100
AcDbBlockReference
  2
MAR-STRZ
 10
7.311553570804694
 20
9.889676457430732
 30
0.0
 41
0.06
 42
0.06
 43
0.06
 50
180.0
  0
INSERT
  5
51D7
330
51CA
100
AcDbEntity
  8
WYMIAR
370
    -2
100
AcDbBlockReference
  2
MAR-STRZ
 10
14.81155357080469
 20
9.889676457430732
 30
0.0
 41
0.06
 42
0.06
 43
0.06
  0
MTEXT
  5
51D8
330
51CA
100
AcDbEntity
  8
WYMIAR
100
AcDbMText
 10
11.06155357080469
 20
10.09967645743073
 30
0.0
 40
0.18
 41
0.0
 71
     5
 72
     1
  1
\A1;7.50
  7
AR 01 SWIS
 73
     1
 44
1.0
  0
POINT
  5
51D9
330
51CA
100
AcDbEntity
  8
Defpoints
 62
     0
100
AcDbPoint
 10
7.311553570804694
 20
9.373576526907294
 30
0.0
  0
POINT
  5
51DA
330
51CA
100
AcDbEntity
  8
Defpoints
 62
     0
100
AcDbPoint
 10
14.81155357080469
 20
9.373576526907298
 30
0.0
  0
POINT
  5
51DB
330
51CA
100
AcDbEntity
  8
Defpoints
 62
     0
100
AcDbPoint
 10
14.81155357080469
 20
9.889676457430732
 30
0.0
  0
ENDBLK
  5
51CC
330
51CA
100
AcDbEntity
  8
0
100
AcDbBlockEnd
  0
BLOCK
  5
51DF
330
51DE
100
AcDbEntity
  8
0
100
AcDbBlockBegin
  2
*D2
 70
     1
 10
0.0
 20
0.0
 30
0.0
  3
*D2
  1

  0
LINE
  5
51E9
330
51DE
100
AcDbEntity
  8
WYMIAR
370
    -2
100
AcDbLine
 10
6.67122000069467
 20
9.313576526907294
 30
0.0
 11
6.67122000069467
 21
5.933576526907294
 31
0.0
  0
INSERT
  5
51EA
330
51DE
100
AcDbEntity
  8
WYMIAR
370
    -2
100
AcDbBlockReference
  2
MAR-STRZ
 10
6.67122000069467
 20
9.373576526907294
 30
0.0
 41
0.06
 42
0.06
 43
0.06
 50
90.0
  0
INSERT
  5
51EB
330
51DE
100
AcDbEntity
  8
WYMIAR
370
    -2
100
AcDbBlockReference
  2
MAR-STRZ
 10
6.67122000069467
 20
5.873576526907294
 30
0.0
 41
0.06
 42
0.06
 43
0.06
 50
270.0
  0
MTEXT
  5
51EC
330
51DE
100
AcDbEntity
  8
WYMIAR
100
AcDbMText
 10
6.46122000069467
 20
7.623576526907296
 30
0.0
 40
0.18
 41
0.0
 71
     5
 72
     1
  1
\A1;3.50
  7
AR 01 SWIS
 11
0.0000000000000001
 21
1.0
 31
0.0
 73
     1
 44
1.0
  0
POINT
  5
51ED
330
51DE
100
AcDbEntity
  8
Defpoints
 62
     0
100
AcDbPoint
 10
7.311553570804694
 20
9.373576526907294
 30
0.0
  0
POINT
  5
51EE
330
51DE
100
AcDbEntity
  8
Defpoints
 62
     0
100
AcDbPoint
 10
7.311553570804694
 20
5.873576526907294
 30
0.0
  0
POINT
  5
51EF
330
51DE
100
AcDbEntity
  8
Defpoints
 62
     0
100
AcDbPoint
 10
6.67122000069467
 20
5.873576526907294
 30
0.0
  0
ENDBLK
  5
51E0
330
51DE
100
AcDbEntity
  8
0
100
AcDbBlockEnd
  0
BLOCK
  5
56FD
330
56FC
100
AcDbEntity
  8
0
100
AcDbBlockBegin
  2
*D3
 70
     1
 10
0.0
 20
0.0
 30
0.0
  3
*D3
  1

  0
LINE
  5
56FE
330
56FC
100
AcDbEntity
  8
WYMIAR
370
    -2
100
AcDbLine
 10
7.371553570804693
 20
9.889676457430732
 30
0.0
 11
14.75155357080469
 21
9.889676457430732
 31
0.0
  0
INSERT
  5
56FF
330
56FC
100
AcDbEntity
  8
WYMIAR
370
    -2
100
AcDbBlockReference
  2
MAR-STRZ
 10
7.311553570804694
 20
9.889676457430732
 30
0.0
 41
0.06
 42
0.06
 43
0.06
 50
180.0
  0
INSERT
  5
5700
330
56FC
100
AcDbEntity
  8
WYMIAR
370
    -2
100
AcDbBlockReference
  2
MAR-STRZ
 10
14.81155357080469
 20
9.889676457430732
 30
0.0
 41
0.06
 42
0.06
 43
0.06
  0
MTEXT
  5
5701
330
56FC
100
AcDbEntity
  8
WYMIAR
100
AcDbMText
 10
11.06155357080469
 20
10.09967645743073
 30
0.0
 40
0.18
 41
0.0
 71
     5
 72
     1
  1
\A1;7.50
  7
AR 01 SWIS
 73
     1
 44
1.0
  0
POINT
  5
5702
330
56FC
100
AcDbEntity
  8
Defpoints
 62
     0
100
AcDbPoint
 10
7.311553570804694
 20
9.373576526907294
 30
0.0
  0
POINT
  5
5703
330
56FC
100
AcDbEntity
  8
Defpoints
 62
     0
100
AcDbPoint
 10
14.81155357080469
 20
9.373576526907298
 30
0.0
  0
POINT
  5
5704
330
56FC
100
AcDbEntity
  8
Defpoints
 62
     0
100
AcDbPoint
 10
14.81155357080469
 20
9.889676457430732
 30
0.0
  0
ENDBLK
  5
5705
330
56FC
100
AcDbEntity
  8
0
100
AcDbBlockEnd
  0
BLOCK
  5
5707
330
5706
100
AcDbEntity
  8
0
100
AcDbBlockBegin
  2
*D4
 70
     1
 10
0.0
 20
0.0
 30
0.0
  3
*D4
  1

  0
LINE
  5
5708
330
5706
100
AcDbEntity
  8
WYMIAR
370
    -2
100
AcDbLine
 10
6.67122000069467
 20
9.313576526907294
 30
0.0
 11
6.67122000069467
 21
5.933576526907294
 31
0.0
  0
INSERT
  5
5709
330
5706
100
AcDbEntity
  8
WYMIAR
370
    -2
100
AcDbBlockReference
  2
MAR-STRZ
 10
6.67122000069467
 20
9.373576526907294
 30
0.0
 41
0.06
 42
0.06
 43
0.06
 50
90.0
  0
INSERT
  5
570A
330
5706
100
AcDbEntity
  8
WYMIAR
370
    -2
100
AcDbBlockReference
  2
MAR-STRZ
 10
6.67122000069467
 20
5.873576526907294
 30
0.0
 41
0.06
 42
0.06
 43
0.06
 50
270.0
  0
MTEXT
  5
570B
330
5706
100
AcDbEntity
  8
WYMIAR
100
AcDbMText
 10
6.46122000069467
 20
7.623576526907296
 30
0.0
 40
0.18
 41
0.0
 71
     5
 72
     1
  1
\A1;3.50
  7
AR 01 SWIS
 11
0.0000000000000001
 21
1.0
 31
0.0
 73
     1
 44
1.0
  0
POINT
  5
570C
330
5706
100
AcDbEntity
  8
Defpoints
 62
     0
100
AcDbPoint
 10
7.311553570804694
 20
9.373576526907294
 30
0.0
  0
POINT
  5
570D
330
5706
100
AcDbEntity
  8
Defpoints
 62
     0
100
AcDbPoint
 10
7.311553570804694
 20
5.873576526907294
 30
0.0
  0
POINT
  5
570E
330
5706
100
AcDbEntity
  8
Defpoints
 62
     0
100
AcDbPoint
 10
6.67122000069467
 20
5.873576526907294
 30
0.0
  0
ENDBLK
  5
570F
330
5706
100
AcDbEntity
  8
0
100
AcDbBlockEnd
  0
BLOCK
  5
5A24
330
5710
100
AcDbEntity
  8
0
100
AcDbBlockBegin
  2
2.2.03
 70
     0
 10
0.0
 20
0.0
 30
0.0
  3
2.2.03
  1

  0
LINE
  5
5711
330
5710
100
AcDbEntity
  8
0
100
AcDbLine
 10
10.16715194393706
 20
9.139742093894215
 30
0.0
 11
10.93160020981384
 21
9.139742093894186
 31
0.0
  0
LINE
  5
5712
330
5710
100
AcDbEntity
  8
0
100
AcDbLine
 10
11.11155357080469
 20
9.039742093894163
 30
0.0
 11
11.19150693179554
 21
9.039742093894163
 31
0.0
  0
LINE
  5
5713
330
5710
100
AcDbEntity
  8
0
100
AcDbLine
 10
10.09615849647703
 20
9.139742093894215
 30
0.0
 11
10.08490459509618
 21
9.138038385208647
 31
0.0
  0
LINE
  5
5714
330
5710
100
AcDbEntity
  8
0
100
AcDbLine
 10
10.08490459509618
 20
9.138038385208647
 30
0.0
 11
10.0744176284965
 21
9.133043364083436
 31
0.0
  0
LINE
  5
5715
330
5710
100
AcDbEntity
  8
0
100
AcDbLine
 10
10.0744176284965
 20
9.133043364083436
 30
0.0
 11
10.0654122661212
 21
9.125097432953525
 31
0.0
  0
LINE
  5
5716
330
5710
100
AcDbEntity
  8
0
100
AcDbLine
 10
10.0654122661212
 20
9.125097432953525
 30
0.0
 11
10.05850220853411
 21
9.114742093894209
 31
0.0
  0
LINE
  5
5717
330
5710
100
AcDbEntity
  8
0
100
AcDbLine
 10
10.05850220853411
 20
9.114742093894209
 30
0.0
 11
10.05415836474037
 21
9.102683046149325
 31
0.0
  0
LINE
  5
5718
330
5710
100
AcDbEntity
  8
0
100
AcDbLine
 10
10.05415836474037
 20
9.102683046149325
 30
0.0
 11
10.05267676051598
 21
9.089742093894203
 31
0.0
  0
LINE
  5
5719
330
5710
100
AcDbEntity
  8
0
100
AcDbLine
 10
10.05267676051598
 20
9.089742093894203
 30
0.0
 11
10.05415836474037
 21
9.076801141639082
 31
0.0
  0
LINE
  5
571A
330
5710
100
AcDbEntity
  8
0
100
AcDbLine
 10
10.05415836474037
 20
9.076801141639082
 30
0.0
 11
10.05850220853411
 21
9.064742093894198
 31
0.0
  0
LINE
  5
571B
330
5710
100
AcDbEntity
  8
0
100
AcDbLine
 10
10.0654122661212
 20
9.054386754834881
 30
0.0
 11
10.07441762849651
 21
9.046440823704971
 31
0.0
  0
LINE
  5
571C
330
5710
100
AcDbEntity
  8
0
100
AcDbLine
 10
10.05850220853411
 20
9.064742093894198
 30
0.0
 11
10.0654122661212
 21
9.054386754834881
 31
0.0
  0
LINE
  5
571D
330
5710
100
AcDbEntity
  8
0
100
AcDbLine
 10
10.08490459509618
 20
9.04144580257976
 30
0.0
 11
10.09615849647703
 21
9.039742093894192
 31
0.0
  0
LINE
  5
571E
330
5710
100
AcDbEntity
  8
0
100
AcDbLine
 10
10.07441762849651
 20
9.046440823704971
 30
0.0
 11
10.08490459509618
 21
9.04144580257976
 31
0.0
  0
LINE
  5
571F
330
5710
100
AcDbEntity
  8
0
100
AcDbLine
 10
12.02843024935674
 20
9.139742093894186
 30
0.0
 11
11.11155357080469
 21
9.139742093894186
 31
0.0
  0
LINE
  5
5720
330
5710
100
AcDbEntity
  8
0
100
AcDbLine
 10
11.01155357080469
 20
9.139742093894186
 30
0.0
 11
10.93160020981384
 21
9.139742093894186
 31
0.0
  0
LINE
  5
5721
330
5710
100
AcDbEntity
  8
0
100
AcDbLine
 10
12.02843024935674
 20
9.139742093894186
 30
0.0
 11
12.03968415073759
 21
9.138038385208618
 31
0.0
  0
LINE
  5
5722
330
5710
100
AcDbEntity
  8
0
100
AcDbLine
 10
12.03968415073759
 20
9.138038385208618
 30
0.0
 11
12.05017111733727
 21
9.133043364083407
 31
0.0
  0
LINE
  5
5723
330
5710
100
AcDbEntity
  8
0
100
AcDbLine
 10
12.05017111733727
 20
9.133043364083407
 30
0.0
 11
12.05917647971257
 21
9.125097432953497
 31
0.0
  0
LINE
  5
5724
330
5710
100
AcDbEntity
  8
0
100
AcDbLine
 10
12.05917647971257
 20
9.125097432953497
 30
0.0
 11
12.06608653729966
 21
9.11474209389418
 31
0.0
  0
LINE
  5
5725
330
5710
100
AcDbEntity
  8
0
100
AcDbLine
 10
12.06608653729966
 20
9.11474209389418
 30
0.0
 11
12.0704303810934
 21
9.102683046149296
 31
0.0
  0
LINE
  5
5726
330
5710
100
AcDbEntity
  8
0
100
AcDbLine
 10
12.0704303810934
 20
9.102683046149296
 30
0.0
 11
12.07191198531779
 21
9.089742093894175
 31
0.0
  0
LINE
  5
5727
330
5710
100
AcDbEntity
  8
0
100
AcDbLine
 10
12.07191198531779
 20
9.089742093894175
 30
0.0
 11
12.0704303810934
 21
9.076801141639053
 31
0.0
  0
LINE
  5
5728
330
5710
100
AcDbEntity
  8
0
100
AcDbLine
 10
12.0704303810934
 20
9.076801141639053
 30
0.0
 11
12.06608653729966
 21
9.064742093894169
 31
0.0
  0
LINE
  5
5729
330
5710
100
AcDbEntity
  8
0
100
AcDbLine
 10
12.05917647971257
 20
9.054386754834853
 30
0.0
 11
12.05017111733726
 21
9.046440823704942
 31
0.0
  0
LINE
  5
572A
330
5710
100
AcDbEntity
  8
0
100
AcDbLine
 10
12.06608653729966
 20
9.064742093894169
 30
0.0
 11
12.05917647971257
 21
9.054386754834853
 31
0.0
  0
LINE
  5
572B
330
5710
100
AcDbEntity
  8
0
100
AcDbLine
 10
12.03968415073759
 20
9.041445802579731
 30
0.0
 11
12.02843024935674
 21
9.039742093894192
 31
0.0
  0
LINE
  5
572C
330
5710
100
AcDbEntity
  8
0
100
AcDbLine
 10
12.05017111733726
 20
9.046440823704942
 30
0.0
 11
12.03968415073759
 21
9.041445802579731
 31
0.0
  0
LINE
  5
572D
330
5710
100
AcDbEntity
  8
0
100
AcDbLine
 10
12.02843024935674
 20
9.039742093894192
 30
0.0
 11
11.19150693179554
 21
9.039742093894163
 31
0.0
  0
LINE
  5
572E
330
5710
100
AcDbEntity
  8
0
100
AcDbLine
 10
11.01155357080469
 20
9.139742093894186
 30
0.0
 11
11.01155357080469
 21
9.126416961376706
 31
0.0
  0
LINE
  5
572F
330
5710
100
AcDbEntity
  8
0
100
AcDbLine
 10
11.01155357080469
 20
7.65289312901539
 30
0.0
 11
11.01155357080469
 21
7.626490321645698
 31
0.0
  0
LINE
  5
5730
330
5710
100
AcDbEntity
  8
0
100
AcDbLine
 10
11.01155357080469
 20
7.495562396155333
 30
0.0
 11
11.01155357080469
 21
6.570003913362193
 31
0.0
  0
LINE
  5
5731
330
5710
100
AcDbEntity
  8
0
100
AcDbLine
 10
11.11155357080469
 20
9.039742093894163
 30
0.0
 11
11.11155357080469
 21
9.026416961376712
 31
0.0
  0
LINE
  5
5732
330
5710
100
AcDbEntity
  8
0
100
AcDbLine
 10
11.11155357080469
 20
9.049621924157241
 30
0.0
 11
11.11155357080469
 21
9.036296791639761
 31
0.0
  0
LINE
  5
5733
330
5710
100
AcDbEntity
  8
0
100
AcDbLine
 10
11.01155357080469
 20
9.039742093894163
 30
0.0
 11
10.94491184674928
 21
9.039742093894163
 31
0.0
  0
LINE
  5
5734
330
5710
100
AcDbEntity
  8
0
100
AcDbLine
 10
11.01155357080469
 20
9.036296791639761
 30
0.0
 11
11.01155357080469
 21
8.860613393747888
 31
0.0
  0
LINE
  5
5735
330
5710
100
AcDbEntity
  8
0
100
AcDbLine
 10
11.11155357080469
 20
9.139742093894186
 30
0.0
 11
11.11155357080469
 21
9.039742093894163
 31
0.0
  0
LINE
  5
5736
330
5710
100
AcDbEntity
  8
0
100
AcDbLine
 10
11.01155357080469
 20
9.053067226411643
 30
0.0
 11
11.01155357080469
 21
9.039742093894163
 31
0.0
  0
LINE
  5
5737
330
5710
100
AcDbEntity
  8
0
100
AcDbLine
 10
11.01155357080469
 20
9.140742093894166
 30
0.0
 11
11.01155357080469
 21
8.939742093894169
 31
0.0
  0
ARC
  5
5738
330
5710
100
AcDbEntity
  8
0
100
AcDbCircle
 10
11.01655357080469
 20
9.140742093894166
 30
0.0
 40
0.005
100
AcDbArc
 50
90.0
 51
180.0
  0
LINE
  5
5739
330
5710
100
AcDbEntity
  8
0
100
AcDbLine
 10
11.11155357080469
 20
9.140742093894166
 30
0.0
 11
11.11155357080469
 21
7.681169480349127
 31
0.0
  0
ARC
  5
573A
330
5710
100
AcDbEntity
  8
0
100
AcDbCircle
 10
11.10655357080469
 20
9.140742093894166
 30
0.0
 40
0.005
100
AcDbArc
 50
0.0
 51
90.0
  0
LINE
  5
573B
330
5710
100
AcDbEntity
  8
0
100
AcDbLine
 10
11.01155357080469
 20
7.257834697784058
 30
0.0
 11
11.01155357080469
 21
7.2412238897173
 31
0.0
  0
LINE
  5
573C
330
5710
100
AcDbEntity
  8
0
100
AcDbLine
 10
11.01155357080469
 20
7.2412238897173
 30
0.0
 11
11.01155357080469
 21
7.231499054017742
 31
0.0
  0
LINE
  5
573D
330
5710
100
AcDbEntity
  8
0
100
AcDbLine
 10
11.11155357080469
 20
6.778499054017739
 30
0.0
 11
11.11155357080469
 21
6.757834697784058
 31
0.0
  0
LINE
  5
573E
330
5710
100
AcDbEntity
  8
0
100
AcDbLine
 10
11.01155357080469
 20
6.763724013941033
 30
0.0
 11
11.01155357080469
 21
6.226054232213376
 31
0.0
  0
LINE
  5
573F
330
5710
100
AcDbEntity
  8
0
100
AcDbLine
 10
11.01155357080469
 20
7.231499054017742
 30
0.0
 11
11.01155357080469
 21
6.788223889717325
 31
0.0
  0
LINE
  5
5740
330
5710
100
AcDbEntity
  8
0
100
AcDbLine
 10
11.11155357080469
 20
6.788223889717325
 30
0.0
 11
11.11155357080469
 21
6.778499054017739
 31
0.0
  0
LINE
  5
5741
330
5710
100
AcDbEntity
  8
0
100
AcDbLine
 10
11.10655357080469
 20
9.145742093894162
 30
0.0
 11
11.01655357080469
 21
9.145742093894162
 31
0.0
  0
LINE
  5
5742
330
5710
100
AcDbEntity
  8
0
100
AcDbLine
 10
11.11155357080469
 20
7.257834697784058
 30
0.0
 11
11.11155357080469
 21
7.2412238897173
 31
0.0
  0
LINE
  5
5743
330
5710
100
AcDbEntity
  8
0
100
AcDbLine
 10
11.11155357080469
 20
7.2412238897173
 30
0.0
 11
11.11155357080469
 21
7.231499054017742
 31
0.0
  0
LINE
  5
5744
330
5710
100
AcDbEntity
  8
0
100
AcDbLine
 10
11.01155357080469
 20
6.778499054017739
 30
0.0
 11
11.01155357080469
 21
6.757834697784058
 31
0.0
  0
LINE
  5
5745
330
5710
100
AcDbEntity
  8
0
100
AcDbLine
 10
11.11155357080469
 20
7.231499054017742
 30
0.0
 11
11.11155357080469
 21
6.788223889717325
 31
0.0
  0
LINE
  5
5746
330
5710
100
AcDbEntity
  8
0
100
AcDbLine
 10
11.01155357080469
 20
6.788223889717325
 30
0.0
 11
11.01155357080469
 21
6.778499054017739
 31
0.0
  0
LINE
  5
5747
330
5710
100
AcDbEntity
  8
0
100
AcDbLine
 10
11.96681684232184
 20
6.115262931370396
 30
0.0
 11
11.20236857644506
 21
6.115262931370396
 31
0.0
  0
LINE
  5
5748
330
5710
100
AcDbEntity
  8
0
100
AcDbLine
 10
11.01155357080469
 20
6.21526293137039
 30
0.0
 11
10.93160020981384
 21
6.21526293137039
 31
0.0
  0
LINE
  5
5749
330
5710
100
AcDbEntity
  8
0
100
AcDbLine
 10
12.02843024935674
 20
6.115262931370395
 30
0.0
 11
12.03968415073758
 21
6.116966640055935
 31
0.0
  0
LINE
  5
574A
330
5710
100
AcDbEntity
  8
0
100
AcDbLine
 10
12.03968415073758
 20
6.116966640055935
 30
0.0
 11
12.05017111733726
 21
6.121961661181174
 31
0.0
  0
LINE
  5
574B
330
5710
100
AcDbEntity
  8
0
100
AcDbLine
 10
12.05017111733726
 20
6.121961661181174
 30
0.0
 11
12.05917647971256
 21
6.129907592311056
 31
0.0
  0
LINE
  5
574C
330
5710
100
AcDbEntity
  8
0
100
AcDbLine
 10
12.05917647971256
 20
6.129907592311056
 30
0.0
 11
12.06608653729965
 21
6.140262931370401
 31
0.0
  0
LINE
  5
574D
330
5710
100
AcDbEntity
  8
0
100
AcDbLine
 10
12.06608653729965
 20
6.140262931370401
 30
0.0
 11
12.07043038109339
 21
6.152321979115285
 31
0.0
  0
LINE
  5
574E
330
5710
100
AcDbEntity
  8
0
100
AcDbLine
 10
12.07043038109339
 20
6.152321979115285
 30
0.0
 11
12.07191198531778
 21
6.165262931370406
 31
0.0
  0
LINE
  5
574F
330
5710
100
AcDbEntity
  8
0
100
AcDbLine
 10
12.07191198531778
 20
6.165262931370406
 30
0.0
 11
12.07043038109339
 21
6.178203883625528
 31
0.0
  0
LINE
  5
5750
330
5710
100
AcDbEntity
  8
0
100
AcDbLine
 10
12.07043038109339
 20
6.178203883625528
 30
0.0
 11
12.06608653729965
 21
6.190262931370412
 31
0.0
  0
LINE
  5
5751
330
5710
100
AcDbEntity
  8
0
100
AcDbLine
 10
12.05917647971256
 20
6.200618270429728
 30
0.0
 11
12.05017111733725
 21
6.20856420155961
 31
0.0
  0
LINE
  5
5752
330
5710
100
AcDbEntity
  8
0
100
AcDbLine
 10
12.06608653729965
 20
6.190262931370412
 30
0.0
 11
12.05917647971256
 21
6.200618270429728
 31
0.0
  0
LINE
  5
5753
330
5710
100
AcDbEntity
  8
0
100
AcDbLine
 10
12.03968415073758
 20
6.21355922268485
 30
0.0
 11
12.02843024935673
 21
6.215262931370389
 31
0.0
  0
LINE
  5
5754
330
5710
100
AcDbEntity
  8
0
100
AcDbLine
 10
12.05017111733725
 20
6.20856420155961
 30
0.0
 11
12.03968415073758
 21
6.21355922268485
 31
0.0
  0
LINE
  5
5755
330
5710
100
AcDbEntity
  8
0
100
AcDbLine
 10
11.96681684232184
 20
6.21526293137039
 30
0.0
 11
11.1781952948601
 21
6.21526293137039
 31
0.0
  0
LINE
  5
5756
330
5710
100
AcDbEntity
  8
0
100
AcDbLine
 10
10.09467689225264
 20
6.115262931370396
 30
0.0
 11
11.01155357080469
 21
6.115262931370396
 31
0.0
  0
LINE
  5
5757
330
5710
100
AcDbEntity
  8
0
100
AcDbLine
 10
11.11155357080469
 20
6.115262931370396
 30
0.0
 11
11.19150693179554
 21
6.115262931370396
 31
0.0
  0
LINE
  5
5758
330
5710
100
AcDbEntity
  8
0
100
AcDbLine
 10
10.09467689225264
 20
6.115262931370396
 30
0.0
 11
10.08342299087179
 21
6.116966640055935
 31
0.0
  0
LINE
  5
5759
330
5710
100
AcDbEntity
  8
0
100
AcDbLine
 10
10.08342299087179
 20
6.116966640055935
 30
0.0
 11
10.07293602427212
 21
6.121961661181175
 31
0.0
  0
LINE
  5
575A
330
5710
100
AcDbEntity
  8
0
100
AcDbLine
 10
10.07293602427212
 20
6.121961661181175
 30
0.0
 11
10.06393066189682
 21
6.129907592311057
 31
0.0
  0
LINE
  5
575B
330
5710
100
AcDbEntity
  8
0
100
AcDbLine
 10
10.06393066189682
 20
6.129907592311057
 30
0.0
 11
10.05702060430973
 21
6.140262931370402
 31
0.0
  0
LINE
  5
575C
330
5710
100
AcDbEntity
  8
0
100
AcDbLine
 10
10.05702060430973
 20
6.140262931370402
 30
0.0
 11
10.05267676051598
 21
6.152321979115257
 31
0.0
  0
LINE
  5
575D
330
5710
100
AcDbEntity
  8
0
100
AcDbLine
 10
10.05267676051598
 20
6.152321979115257
 30
0.0
 11
10.0511951562916
 21
6.165262931370379
 31
0.0
  0
LINE
  5
575E
330
5710
100
AcDbEntity
  8
0
100
AcDbLine
 10
10.0511951562916
 20
6.165262931370379
 30
0.0
 11
10.05267676051598
 21
6.178203883625529
 31
0.0
  0
LINE
  5
575F
330
5710
100
AcDbEntity
  8
0
100
AcDbLine
 10
10.05267676051598
 20
6.178203883625529
 30
0.0
 11
10.05702060430973
 21
6.190262931370384
 31
0.0
  0
LINE
  5
5760
330
5710
100
AcDbEntity
  8
0
100
AcDbLine
 10
10.06393066189682
 20
6.200618270429729
 30
0.0
 11
10.07293602427212
 21
6.208564201559611
 31
0.0
  0
LINE
  5
5761
330
5710
100
AcDbEntity
  8
0
100
AcDbLine
 10
10.05702060430973
 20
6.190262931370384
 30
0.0
 11
10.06393066189682
 21
6.200618270429729
 31
0.0
  0
LINE
  5
5762
330
5710
100
AcDbEntity
  8
0
100
AcDbLine
 10
10.08342299087179
 20
6.213559222684851
 30
0.0
 11
10.09467689225264
 21
6.21526293137039
 31
0.0
  0
LINE
  5
5763
330
5710
100
AcDbEntity
  8
0
100
AcDbLine
 10
10.07293602427212
 20
6.208564201559611
 30
0.0
 11
10.08342299087179
 21
6.213559222684851
 31
0.0
  0
LINE
  5
5764
330
5710
100
AcDbEntity
  8
0
100
AcDbLine
 10
10.09467689225264
 20
6.21526293137039
 30
0.0
 11
10.93160020981384
 21
6.21526293137039
 31
0.0
  0
LINE
  5
5765
330
5710
100
AcDbEntity
  8
0
100
AcDbLine
 10
11.11155357080469
 20
6.115262931370396
 30
0.0
 11
11.11155357080469
 21
6.128588063887876
 31
0.0
  0
LINE
  5
5766
330
5710
100
AcDbEntity
  8
0
100
AcDbLine
 10
11.11155357080469
 20
6.295259924799204
 30
0.0
 11
11.11155357080469
 21
6.321662732168896
 31
0.0
  0
LINE
  5
5767
330
5710
100
AcDbEntity
  8
0
100
AcDbLine
 10
11.11155357080469
 20
6.450624353774991
 30
0.0
 11
11.11155357080469
 21
6.570003913362193
 31
0.0
  0
LINE
  5
5768
330
5710
100
AcDbEntity
  8
0
100
AcDbLine
 10
11.01155357080469
 20
6.21526293137039
 30
0.0
 11
11.01155357080469
 21
6.22858806388787
 31
0.0
  0
LINE
  5
5769
330
5710
100
AcDbEntity
  8
0
100
AcDbLine
 10
11.01155357080469
 20
6.269131463448769
 30
0.0
 11
11.01155357080469
 21
6.282456595966249
 31
0.0
  0
LINE
  5
576A
330
5710
100
AcDbEntity
  8
0
100
AcDbLine
 10
11.11155357080469
 20
6.21526293137039
 30
0.0
 11
11.1781952948601
 21
6.21526293137039
 31
0.0
  0
LINE
  5
576B
330
5710
100
AcDbEntity
  8
0
100
AcDbLine
 10
11.11155357080469
 20
6.282456595966249
 30
0.0
 11
11.11155357080469
 21
6.458139993858151
 31
0.0
  0
LINE
  5
576C
330
5710
100
AcDbEntity
  8
0
100
AcDbLine
 10
11.01155357080469
 20
6.115262931370396
 30
0.0
 11
11.01155357080469
 21
6.21526293137039
 31
0.0
  0
LINE
  5
576D
330
5710
100
AcDbEntity
  8
0
100
AcDbLine
 10
11.11155357080469
 20
6.20193779885291
 30
0.0
 11
11.11155357080469
 21
6.21526293137039
 31
0.0
  0
LINE
  5
576E
330
5710
100
AcDbEntity
  8
0
100
AcDbLine
 10
11.11155357080469
 20
6.115262931370396
 30
0.0
 11
11.11155357080469
 21
6.315262931370384
 31
0.0
  0
ARC
  5
576F
330
5710
100
AcDbEntity
  8
0
100
AcDbCircle
 10
11.10655357080469
 20
6.115262931370396
 30
0.0
 40
0.005
100
AcDbArc
 50
270.0
 51
0.0
  0
LINE
  5
5770
330
5710
100
AcDbEntity
  8
0
100
AcDbLine
 10
11.01155357080469
 20
6.115262931370396
 30
0.0
 11
11.01155357080469
 21
6.765690317825304
 31
0.0
  0
ARC
  5
5771
330
5710
100
AcDbEntity
  8
0
100
AcDbCircle
 10
11.01655357080469
 20
6.115262931370396
 30
0.0
 40
0.005
100
AcDbArc
 50
180.0
 51
270.0
  0
LINE
  5
5772
330
5710
100
AcDbEntity
  8
0
100
AcDbLine
 10
11.11155357080469
 20
6.7598010016683
 30
0.0
 11
11.11155357080469
 21
6.776411809735058
 31
0.0
  0
LINE
  5
5773
330
5710
100
AcDbEntity
  8
0
100
AcDbLine
 10
11.11155357080469
 20
6.776411809735058
 30
0.0
 11
11.11155357080469
 21
6.786136645434616
 31
0.0
  0
LINE
  5
5774
330
5710
100
AcDbEntity
  8
0
100
AcDbLine
 10
11.01155357080469
 20
7.239136645434619
 30
0.0
 11
11.01155357080469
 21
7.259801001668328
 31
0.0
  0
LINE
  5
5775
330
5710
100
AcDbEntity
  8
0
100
AcDbLine
 10
11.11155357080469
 20
6.143088471343436
 30
0.0
 11
11.11155357080469
 21
6.517349136631978
 31
0.0
  0
LINE
  5
5776
330
5710
100
AcDbEntity
  8
0
100
AcDbLine
 10
11.01155357080469
 20
6.143088471343408
 30
0.0
 11
11.01155357080469
 21
6.680758253071094
 31
0.0
  0
LINE
  5
5777
330
5710
100
AcDbEntity
  8
0
100
AcDbLine
 10
11.01155357080469
 20
6.786136645434616
 30
0.0
 11
11.01155357080469
 21
7.229411809735061
 31
0.0
  0
LINE
  5
5778
330
5710
100
AcDbEntity
  8
0
100
AcDbLine
 10
11.01155357080469
 20
7.229411809735061
 30
0.0
 11
11.01155357080469
 21
7.239136645434619
 31
0.0
  0
LINE
  5
5779
330
5710
100
AcDbEntity
  8
0
100
AcDbLine
 10
11.01655357080469
 20
6.1102629313704
 30
0.0
 11
11.10655357080469
 21
6.1102629313704
 31
0.0
  0
LINE
  5
577A
330
5710
100
AcDbEntity
  8
0
100
AcDbLine
 10
11.01155357080469
 20
6.7598010016683
 30
0.0
 11
11.01155357080469
 21
6.776411809735058
 31
0.0
  0
LINE
  5
577B
330
5710
100
AcDbEntity
  8
0
100
AcDbLine
 10
11.01155357080469
 20
6.776411809735058
 30
0.0
 11
11.01155357080469
 21
6.786136645434616
 31
0.0
  0
LINE
  5
577C
330
5710
100
AcDbEntity
  8
0
100
AcDbLine
 10
11.11155357080469
 20
7.239136645434619
 30
0.0
 11
11.11155357080469
 21
7.259801001668328
 31
0.0
  0
LINE
  5
577D
330
5710
100
AcDbEntity
  8
0
100
AcDbLine
 10
11.11155357080469
 20
6.786136645434616
 30
0.0
 11
11.11155357080469
 21
7.229411809735061
 31
0.0
  0
LINE
  5
577E
330
5710
100
AcDbEntity
  8
0
100
AcDbLine
 10
11.11155357080469
 20
7.229411809735061
 30
0.0
 11
11.11155357080469
 21
7.239136645434619
 31
0.0
  0
LINE
  5
577F
330
5710
100
AcDbEntity
  8
0
100
AcDbLine
 10
10.16715194393707
 20
9.039742093894192
 30
0.0
 11
10.94491184674928
 21
9.039742093894163
 31
0.0
  0
LINE
  5
5780
330
5710
100
AcDbEntity
  8
0
100
AcDbLine
 10
11.01155357080469
 20
7.626490321645698
 30
0.0
 11
11.01155357080469
 21
7.495562396155333
 31
0.0
  0
LINE
  5
5781
330
5710
100
AcDbEntity
  8
0
100
AcDbLine
 10
10.16715194393706
 20
9.139742093894215
 30
0.0
 11
10.09615849647703
 21
9.139742093894215
 31
0.0
  0
LINE
  5
5782
330
5710
100
AcDbEntity
  8
0
100
AcDbLine
 10
10.16715194393707
 20
9.039742093894192
 30
0.0
 11
10.09615849647703
 21
9.039742093894192
 31
0.0
  0
LINE
  5
5783
330
5710
100
AcDbEntity
  8
0
100
AcDbLine
 10
12.02843024935673
 20
6.215262931370389
 30
0.0
 11
11.96681684232184
 21
6.21526293137039
 31
0.0
  0
LINE
  5
5784
330
5710
100
AcDbEntity
  8
0
100
AcDbLine
 10
12.02843024935674
 20
6.115262931370395
 30
0.0
 11
11.96681684232184
 21
6.115262931370396
 31
0.0
  0
LINE
  5
5785
330
5710
100
AcDbEntity
  8
0
100
AcDbLine
 10
11.20236857644506
 20
6.115262931370396
 30
0.0
 11
11.19150693179554
 21
6.115262931370396
 31
0.0
  0
LINE
  5
5786
330
5710
100
AcDbEntity
  8
0
100
AcDbLine
 10
11.11155357080469
 20
6.450624353774991
 30
0.0
 11
11.11155357080469
 21
6.321662732168896
 31
0.0
  0
CIRCLE
  5
5787
330
5710
100
AcDbEntity
  8
0
100
AcDbCircle
 10
11.06327929714634
 20
7.310281827121235
 30
0.0
 40
0.0115550249724841
  0
CIRCLE
  5
5788
330
5710
100
AcDbEntity
  8
0
100
AcDbCircle
 10
11.06327929714634
 20
7.368234922779164
 30
0.0
 40
0.0115550249724841
  0
CIRCLE
  5
5789
330
5710
100
AcDbEntity
  8
0
100
AcDbCircle
 10
11.06126889933178
 20
6.623122004284125
 30
0.0
 40
0.0115550249724841
  0
CIRCLE
  5
578A
330
5710
100
AcDbEntity
  8
0
100
AcDbCircle
 10
11.06126889933178
 20
6.681075099942054
 30
0.0
 40
0.0115550249724841
  0
LINE
  5
578B
330
5710
100
AcDbEntity
  8
STREFA BEZPIECZEŃSTWA
100
AcDbLine
 10
7.311553570804694
 20
5.873576526907294
 30
0.0
 11
7.311553570804694
 21
9.373576526907294
 31
0.0
  0
LINE
  5
578C
330
5710
100
AcDbEntity
  8
STREFA BEZPIECZEŃSTWA
100
AcDbLine
 10
7.311553570804694
 20
9.373576526907294
 30
0.0
 11
14.81155357080469
 21
9.373576526907298
 31
0.0
  0
LINE
  5
578D
330
5710
100
AcDbEntity
  8
STREFA BEZPIECZEŃSTWA
100
AcDbLine
 10
14.81155357080469
 20
9.373576526907298
 30
0.0
 11
14.8115535708047
 21
5.873576526907292
 31
0.0
  0
LINE
  5
578E
102
{ACAD_REACTORS
330
57BA
102
}
330
5710
100
AcDbEntity
  8
STREFA BEZPIECZEŃSTWA
100
AcDbLine
 10
14.8115535708047
 20
5.873576526907292
 30
0.0
 11
7.311553570804694
 21
5.873576526907294
 31
0.0
  0
LINE
  5
578F
330
5710
100
AcDbEntity
  8
0
100
AcDbLine
 10
11.11155357080469
 20
6.570003913362193
 30
0.0
 11
11.11155357080469
 21
7.65289312901539
 31
0.0
  0
LINE
  5
5790
330
5710
100
AcDbEntity
  8
0
100
AcDbLine
 10
11.1115535708047
 20
7.484996020390752
 30
0.0
 11
11.1115535708047
 21
7.511398827760444
 31
0.0
  0
LINE
  5
5791
330
5710
100
AcDbEntity
  8
0
100
AcDbLine
 10
11.1115535708047
 20
7.642326753250809
 30
0.0
 11
11.1115535708047
 21
8.567885236043951
 31
0.0
  0
LINE
  5
5792
330
5710
100
AcDbEntity
  8
0
100
AcDbLine
 10
11.11155357080469
 20
7.880054451622084
 30
0.0
 11
11.11155357080469
 21
7.896665259688843
 31
0.0
  0
LINE
  5
5793
330
5710
100
AcDbEntity
  8
0
100
AcDbLine
 10
11.11155357080469
 20
7.896665259688843
 30
0.0
 11
11.11155357080469
 21
7.906390095388401
 31
0.0
  0
LINE
  5
5794
330
5710
100
AcDbEntity
  8
0
100
AcDbLine
 10
11.01155357080469
 20
8.359390095388404
 30
0.0
 11
11.01155357080469
 21
8.380054451622084
 31
0.0
  0
LINE
  5
5795
330
5710
100
AcDbEntity
  8
0
100
AcDbLine
 10
11.11155357080469
 20
8.487835709069118
 30
0.0
 11
11.11155357080469
 21
9.025505490796776
 31
0.0
  0
LINE
  5
5796
330
5710
100
AcDbEntity
  8
0
100
AcDbLine
 10
11.11155357080469
 20
7.906390095388401
 30
0.0
 11
11.11155357080469
 21
8.349665259688817
 31
0.0
  0
LINE
  5
5797
330
5710
100
AcDbEntity
  8
0
100
AcDbLine
 10
11.01155357080469
 20
8.349665259688817
 30
0.0
 11
11.01155357080469
 21
8.359390095388404
 31
0.0
  0
LINE
  5
5798
330
5710
100
AcDbEntity
  8
0
100
AcDbLine
 10
11.01155357080469
 20
7.880054451622084
 30
0.0
 11
11.01155357080469
 21
7.896665259688843
 31
0.0
  0
LINE
  5
5799
330
5710
100
AcDbEntity
  8
0
100
AcDbLine
 10
11.01155357080469
 20
7.896665259688843
 30
0.0
 11
11.01155357080469
 21
7.906390095388401
 31
0.0
  0
LINE
  5
579A
330
5710
100
AcDbEntity
  8
0
100
AcDbLine
 10
11.11155357080469
 20
8.359390095388404
 30
0.0
 11
11.11155357080469
 21
8.380054451622084
 31
0.0
  0
LINE
  5
579B
330
5710
100
AcDbEntity
  8
0
100
AcDbLine
 10
11.01155357080469
 20
7.906390095388401
 30
0.0
 11
11.01155357080469
 21
8.349665259688817
 31
0.0
  0
LINE
  5
579C
330
5710
100
AcDbEntity
  8
0
100
AcDbLine
 10
11.11155357080469
 20
8.349665259688817
 30
0.0
 11
11.11155357080469
 21
8.359390095388404
 31
0.0
  0
LINE
  5
579D
330
5710
100
AcDbEntity
  8
0
100
AcDbLine
 10
11.01155357080469
 20
8.842629224606939
 30
0.0
 11
11.01155357080469
 21
8.816226417237247
 31
0.0
  0
LINE
  5
579E
330
5710
100
AcDbEntity
  8
0
100
AcDbLine
 10
11.01155357080469
 20
8.687264795631152
 30
0.0
 11
11.01155357080469
 21
8.567885236043951
 31
0.0
  0
LINE
  5
579F
330
5710
100
AcDbEntity
  8
0
100
AcDbLine
 10
11.01155357080469
 20
9.018312622498841
 30
0.0
 11
11.01155357080469
 21
8.842629224606939
 31
0.0
  0
LINE
  5
57A0
330
5710
100
AcDbEntity
  8
0
100
AcDbLine
 10
11.11155357080469
 20
9.039742093894163
 30
0.0
 11
11.11155357080469
 21
8.389314707439256
 31
0.0
  0
LINE
  5
57A1
330
5710
100
AcDbEntity
  8
0
100
AcDbLine
 10
11.01155357080469
 20
8.378088147737843
 30
0.0
 11
11.01155357080469
 21
8.361477339671084
 31
0.0
  0
LINE
  5
57A2
330
5710
100
AcDbEntity
  8
0
100
AcDbLine
 10
11.01155357080469
 20
8.361477339671084
 30
0.0
 11
11.01155357080469
 21
8.351752503971527
 31
0.0
  0
LINE
  5
57A3
330
5710
100
AcDbEntity
  8
0
100
AcDbLine
 10
11.11155357080469
 20
7.898752503971524
 30
0.0
 11
11.11155357080469
 21
7.878088147737814
 31
0.0
  0
LINE
  5
57A4
330
5710
100
AcDbEntity
  8
0
100
AcDbLine
 10
11.01155357080469
 20
9.011916553921123
 30
0.0
 11
11.01155357080469
 21
8.637655888632581
 31
0.0
  0
LINE
  5
57A5
330
5710
100
AcDbEntity
  8
0
100
AcDbLine
 10
11.11155357080469
 20
9.011916553921151
 30
0.0
 11
11.11155357080469
 21
8.474246772193465
 31
0.0
  0
LINE
  5
57A6
330
5710
100
AcDbEntity
  8
0
100
AcDbLine
 10
11.11155357080469
 20
8.351752503971527
 30
0.0
 11
11.11155357080469
 21
7.908477339671081
 31
0.0
  0
LINE
  5
57A7
330
5710
100
AcDbEntity
  8
0
100
AcDbLine
 10
11.11155357080469
 20
7.908477339671081
 30
0.0
 11
11.11155357080469
 21
7.898752503971524
 31
0.0
  0
LINE
  5
57A8
330
5710
100
AcDbEntity
  8
0
100
AcDbLine
 10
11.11155357080469
 20
8.378088147737843
 30
0.0
 11
11.11155357080469
 21
8.361477339671084
 31
0.0
  0
LINE
  5
57A9
330
5710
100
AcDbEntity
  8
0
100
AcDbLine
 10
11.11155357080469
 20
8.361477339671084
 30
0.0
 11
11.11155357080469
 21
8.351752503971527
 31
0.0
  0
LINE
  5
57AA
330
5710
100
AcDbEntity
  8
0
100
AcDbLine
 10
11.01155357080469
 20
7.898752503971524
 30
0.0
 11
11.01155357080469
 21
7.878088147737814
 31
0.0
  0
LINE
  5
57AB
330
5710
100
AcDbEntity
  8
0
100
AcDbLine
 10
11.01155357080469
 20
8.351752503971527
 30
0.0
 11
11.01155357080469
 21
7.908477339671081
 31
0.0
  0
LINE
  5
57AC
330
5710
100
AcDbEntity
  8
0
100
AcDbLine
 10
11.01155357080469
 20
7.908477339671081
 30
0.0
 11
11.01155357080469
 21
7.898752503971524
 31
0.0
  0
LINE
  5
57AD
330
5710
100
AcDbEntity
  8
0
100
AcDbLine
 10
11.1115535708047
 20
7.511398827760444
 30
0.0
 11
11.1115535708047
 21
7.642326753250809
 31
0.0
  0
LINE
  5
57AE
330
5710
100
AcDbEntity
  8
0
100
AcDbLine
 10
11.01155357080469
 20
8.687264795631152
 30
0.0
 11
11.01155357080469
 21
8.816226417237247
 31
0.0
  0
CIRCLE
  5
57AF
330
5710
100
AcDbEntity
  8
0
100
AcDbCircle
 10
11.05982784446305
 20
7.916248433810775
 30
0.0
 40
0.0115550249724841
  0
CIRCLE
  5
57B0
330
5710
100
AcDbEntity
  8
0
100
AcDbCircle
 10
11.05982784446305
 20
7.858295338152846
 30
0.0
 40
0.0115550249724841
  0
CIRCLE
  5
57B1
330
5710
100
AcDbEntity
  8
0
100
AcDbCircle
 10
11.0618382422776
 20
8.603408256647885
 30
0.0
 40
0.0115550249724841
  0
CIRCLE
  5
57B2
330
5710
100
AcDbEntity
  8
0
100
AcDbCircle
 10
11.0618382422776
 20
8.545455160989956
 30
0.0
 40
0.0115550249724841
  0
LINE
  5
57B3
330
5710
100
AcDbEntity
  8
0
100
AcDbLine
 10
11.01155357080469
 20
8.567885236043951
 30
0.0
 11
11.01155357080469
 21
7.484996020390754
 31
0.0
  0
LINE
  5
57B4
102
{ACAD_REACTORS
330
57B7
330
57BA
102
}
330
5710
100
AcDbEntity
  8
STREFA BEZPIECZEŃSTWA
100
AcDbLine
 10
7.311553570804694
 20
9.373576526907294
 30
0.0
 11
14.81155357080469
 21
9.373576526907298
 31
0.0
  0
DIMENSION
  5
57B5
102
{ACAD_XDICTIONARY
360
57B6
102
}
102
{ACAD_REACTORS
330
57B7
102
}
330
5710
100
AcDbEntity
  8
WYMIAR
100
AcDbDimension
  2
*D3
 10
14.81155357080469
 20
9.889676457430732
 30
0.0
 11
11.06155357080469
 21
10.09967645743073
 31
0.0
 70
    32
 71
     5
 42
7.500000000000001
  3
AR SKALA 1-50
100
AcDbAlignedDimension
 13
7.311553570804694
 23
9.373576526907294
 33
0.0
 14
14.81155357080469
 24
9.373576526907298
 34
0.0
100
AcDbRotatedDimension
  0
DIMENSION
  5
57B8
102
{ACAD_XDICTIONARY
360
57B9
102
}
102
{ACAD_REACTORS
330
57BA
102
}
330
5710
100
AcDbEntity
  8
WYMIAR
100
AcDbDimension
  2
*D4
 10
6.67122000069467
 20
5.873576526907294
 30
0.0
 11
6.46122000069467
 21
7.623576526907296
 31
0.0
 70
    32
 71
     5
 42
3.5
  3
AR SKALA 1-50
100
AcDbAlignedDimension
 13
7.311553570804694
 23
9.373576526907294
 33
0.0
 14
7.311553570804694
 24
5.873576526907294
 34
0.0
 50
90.0
100
AcDbRotatedDimension
  0
LINE
  5
57BB
330
5710
100
AcDbEntity
  8
0
100
AcDbLine
 10
10.94717012855885
 20
7.224437395204425
 30
0.0
 11
10.94788699787289
 21
7.223536501032604
 31
0.0
  0
LINE
  5
57BC
330
5710
100
AcDbEntity
  8
0
100
AcDbLine
 10
10.94652239938121
 20
7.228056897120744
 30
0.0
 11
10.94646376040171
 21
7.226777324402483
 31
0.0
  0
LINE
  5
57BD
330
5710
100
AcDbEntity
  8
0
100
AcDbLine
 10
10.95025257622876
 20
7.232294961595492
 30
0.0
 11
10.94920149674518
 21
7.231958455796068
 31
0.0
  0
LINE
  5
57BE
330
5710
100
AcDbEntity
  8
0
100
AcDbLine
 10
10.9482434123937
 20
7.231313892473529
 30
0.0
 11
10.94744361503957
 21
7.230405197553118
 31
0.0
  0
LINE
  5
57BF
330
5710
100
AcDbEntity
  8
0
100
AcDbLine
 10
10.94878644324488
 20
7.222901491636854
 30
0.0
 11
10.9498071689591
 21
7.222575641858121
 31
0.0
  0
LINE
  5
57C0
330
5710
100
AcDbEntity
  8
0
100
AcDbLine
 10
10.94788699787289
 20
7.223536501032604
 30
0.0
 11
10.94878644324488
 21
7.222901491636854
 31
0.0
  0
LINE
  5
57C1
330
5710
100
AcDbEntity
  8
0
100
AcDbLine
 10
10.9466846887618
 20
7.225542779703339
 30
0.0
 11
10.94717012855885
 21
7.224437395204425
 31
0.0
  0
LINE
  5
57C2
330
5710
100
AcDbEntity
  8
0
100
AcDbLine
 10
10.94646376040171
 20
7.226777324402483
 30
0.0
 11
10.9466846887618
 21
7.225542779703339
 31
0.0
  0
LINE
  5
57C3
330
5710
100
AcDbEntity
  8
0
100
AcDbLine
 10
10.94685660955074
 20
7.229294297092017
 30
0.0
 11
10.94652239938121
 21
7.228056897120744
 31
0.0
  0
LINE
  5
57C4
330
5710
100
AcDbEntity
  8
0
100
AcDbLine
 10
10.94744361503957
 20
7.230405197553118
 30
0.0
 11
10.94685660955074
 21
7.229294297092017
 31
0.0
  0
LINE
  5
57C5
330
5710
100
AcDbEntity
  8
0
100
AcDbLine
 10
10.94920149674518
 20
7.231958455796068
 30
0.0
 11
10.9482434123937
 21
7.231313892473529
 31
0.0
  0
LINE
  5
57C6
330
5710
100
AcDbEntity
  8
0
100
AcDbLine
 10
10.95132502151463
 20
7.232300477557679
 30
0.0
 11
10.95025257622876
 21
7.232294961595492
 31
0.0
  0
LINE
  5
57C7
330
5710
100
AcDbEntity
  8
0
100
AcDbLine
 10
11.18454395186145
 20
6.75641128562443
 30
0.0
 11
11.18541176379236
 21
6.75817103413896
 31
0.0
  0
LINE
  5
57C8
330
5710
100
AcDbEntity
  8
0
100
AcDbLine
 10
11.18345387090906
 20
6.754779864189309
 30
0.0
 11
11.18454395186145
 21
6.75641128562443
 31
0.0
  0
LINE
  5
57C9
330
5710
100
AcDbEntity
  8
0
100
AcDbLine
 10
10.9440535708047
 20
7.246901666681218
 30
0.0
 11
10.94581331931922
 21
7.24776947861212
 31
0.0
  0
LINE
  5
57CA
330
5710
100
AcDbEntity
  8
0
100
AcDbLine
 10
11.11155357080469
 20
6.748911285624437
 30
0.0
 11
11.17155357080469
 21
6.748911285624437
 31
0.0
  0
LINE
  5
57CB
330
5710
100
AcDbEntity
  8
0
100
AcDbLine
 10
10.94242214936956
 20
7.245811585728823
 30
0.0
 11
10.94094696908689
 21
7.244517887342247
 31
0.0
  0
LINE
  5
57CC
330
5710
100
AcDbEntity
  8
0
100
AcDbLine
 10
11.18216017252249
 20
6.753304683906627
 30
0.0
 11
11.18345387090906
 21
6.754779864189309
 31
0.0
  0
LINE
  5
57CD
330
5710
100
AcDbEntity
  8
0
100
AcDbLine
 10
10.94581331931922
 20
7.24776947861212
 30
0.0
 11
10.94767128512816
 21
7.248400173018772
 31
0.0
  0
LINE
  5
57CE
330
5710
100
AcDbEntity
  8
0
100
AcDbLine
 10
11.17905357080469
 20
6.750920904567657
 30
0.0
 11
11.18068499223982
 21
6.75201098552008
 31
0.0
  0
LINE
  5
57CF
330
5710
100
AcDbEntity
  8
0
100
AcDbLine
 10
10.93965327070033
 20
7.243042707059565
 30
0.0
 11
10.93856318974793
 21
7.241411285624444
 31
0.0
  0
LINE
  5
57D0
330
5710
100
AcDbEntity
  8
0
100
AcDbLine
 10
11.18541176379236
 20
6.75817103413896
 30
0.0
 11
11.18604245819902
 21
6.760028999947898
 31
0.0
  0
LINE
  5
57D1
330
5710
100
AcDbEntity
  8
0
100
AcDbLine
 10
11.17543585648123
 20
6.749422398230102
 30
0.0
 11
11.17351146368799
 21
6.749039612703818
 31
0.0
  0
LINE
  5
57D2
330
5710
100
AcDbEntity
  8
0
100
AcDbLine
 10
11.1864252437253
 20
6.761953392741126
 30
0.0
 11
11.18655357080469
 21
6.763911285624452
 31
0.0
  0
LINE
  5
57D3
330
5710
100
AcDbEntity
  8
0
100
AcDbLine
 10
11.18604245819902
 20
6.760028999947898
 30
0.0
 11
11.1864252437253
 21
6.761953392741126
 31
0.0
  0
LINE
  5
57D4
330
5710
100
AcDbEntity
  8
0
100
AcDbLine
 10
10.9440535708047
 20
7.246901666681218
 30
0.0
 11
10.94242214936956
 21
7.245811585728823
 31
0.0
  0
LINE
  5
57D5
330
5710
100
AcDbEntity
  8
0
100
AcDbLine
 10
11.17905357080469
 20
6.750920904567657
 30
0.0
 11
11.17729382229017
 21
6.750053092636754
 31
0.0
  0
LINE
  5
57D6
330
5710
100
AcDbEntity
  8
0
100
AcDbLine
 10
10.94767128512816
 20
7.248400173018772
 30
0.0
 11
10.94959567792139
 21
7.248782958545056
 31
0.0
  0
LINE
  5
57D7
330
5710
100
AcDbEntity
  8
0
100
AcDbLine
 10
11.17729382229017
 20
6.750053092636754
 30
0.0
 11
11.17543585648123
 21
6.749422398230102
 31
0.0
  0
LINE
  5
57D8
330
5710
100
AcDbEntity
  8
0
100
AcDbLine
 10
10.94959567792139
 20
7.248782958545056
 30
0.0
 11
10.9515535708047
 21
7.248911285624437
 31
0.0
  0
LINE
  5
57D9
330
5710
100
AcDbEntity
  8
0
100
AcDbLine
 10
11.18068499223982
 20
6.75201098552008
 30
0.0
 11
11.18216017252249
 21
6.753304683906627
 31
0.0
  0
LINE
  5
57DA
330
5710
100
AcDbEntity
  8
0
100
AcDbLine
 10
10.93856318974793
 20
7.241411285624444
 30
0.0
 11
10.93769537781703
 21
7.239651537109914
 31
0.0
  0
LINE
  5
57DB
330
5710
100
AcDbEntity
  8
0
100
AcDbLine
 10
11.01155357080469
 20
7.248911285624437
 30
0.0
 11
10.9515535708047
 21
7.248911285624437
 31
0.0
  0
LINE
  5
57DC
330
5710
100
AcDbEntity
  8
0
100
AcDbLine
 10
10.93706468341036
 20
7.237793571300976
 30
0.0
 11
10.93668189788409
 21
7.235869178507748
 31
0.0
  0
LINE
  5
57DD
330
5710
100
AcDbEntity
  8
0
100
AcDbLine
 10
10.94094696908689
 20
7.244517887342247
 30
0.0
 11
10.93965327070033
 21
7.243042707059565
 31
0.0
  0
LINE
  5
57DE
330
5710
100
AcDbEntity
  8
0
100
AcDbLine
 10
10.93668189788409
 20
7.235869178507748
 30
0.0
 11
10.9365535708047
 21
7.233911285624422
 31
0.0
  0
LINE
  5
57DF
330
5710
100
AcDbEntity
  8
0
100
AcDbLine
 10
11.17351146368799
 20
6.749039612703818
 30
0.0
 11
11.17155357080469
 21
6.748911285624437
 31
0.0
  0
LINE
  5
57E0
330
5710
100
AcDbEntity
  8
0
100
AcDbLine
 10
10.93769537781703
 20
7.239651537109914
 30
0.0
 11
10.93706468341036
 21
7.237793571300976
 31
0.0
  0
LINE
  5
57E1
330
5710
100
AcDbEntity
  8
0
100
AcDbLine
 10
10.98667406044054
 20
7.222575641858121
 30
0.0
 11
10.95649821960281
 21
7.222575641858121
 31
0.0
  0
LINE
  5
57E2
330
5710
100
AcDbEntity
  8
0
100
AcDbLine
 10
10.95649821960281
 20
7.222575641858121
 30
0.0
 11
10.9498071689591
 21
7.222575641858121
 31
0.0
  0
LINE
  5
57E3
330
5710
100
AcDbEntity
  8
0
100
AcDbLine
 10
10.98667406044054
 20
7.232300477557679
 30
0.0
 11
10.95201903322335
 21
7.23230683273595
 31
0.0
  0
LINE
  5
57E4
330
5710
100
AcDbEntity
  8
0
100
AcDbLine
 10
10.95201903322335
 20
7.23230683273595
 30
0.0
 11
10.95132502151463
 21
7.232300477557679
 31
0.0
  0
LINE
  5
57E5
330
5710
100
AcDbEntity
  8
0
100
AcDbLine
 10
11.11155357080469
 20
6.769575641858118
 30
0.0
 11
11.14261813140458
 21
6.769575641858118
 31
0.0
  0
LINE
  5
57E6
330
5710
100
AcDbEntity
  8
0
100
AcDbLine
 10
11.14261813140458
 20
6.769575641858118
 30
0.0
 11
11.14842046228613
 21
6.769575641858118
 31
0.0
  0
LINE
  5
57E7
330
5710
100
AcDbEntity
  8
0
100
AcDbLine
 10
11.11155357080469
 20
6.779300477557704
 30
0.0
 11
11.14319195424077
 21
6.779300477557704
 31
0.0
  0
LINE
  5
57E8
330
5710
100
AcDbEntity
  8
0
100
AcDbLine
 10
11.14319195424077
 20
6.779300477557704
 30
0.0
 11
11.14690260973061
 21
6.779300477557704
 31
0.0
  0
LINE
  5
57E9
330
5710
100
AcDbEntity
  8
0
100
AcDbLine
 10
10.9365535708047
 20
7.233911285624422
 30
0.0
 11
10.9365535708047
 21
6.763911285624452
 31
0.0
  0
LINE
  5
57EA
330
5710
100
AcDbEntity
  8
0
100
AcDbLine
 10
10.93856318974792
 20
6.75641128562443
 30
0.0
 11
10.93769537781703
 21
6.75817103413896
 31
0.0
  0
LINE
  5
57EB
330
5710
100
AcDbEntity
  8
0
100
AcDbLine
 10
10.93965327070032
 20
6.754779864189309
 30
0.0
 11
10.93856318974792
 21
6.75641128562443
 31
0.0
  0
LINE
  5
57EC
330
5710
100
AcDbEntity
  8
0
100
AcDbLine
 10
11.17905357080469
 20
7.246901666681218
 30
0.0
 11
11.17729382229017
 21
7.24776947861212
 31
0.0
  0
LINE
  5
57ED
330
5710
100
AcDbEntity
  8
0
100
AcDbLine
 10
11.01155357080469
 20
6.748911285624437
 30
0.0
 11
10.95155357080469
 21
6.748911285624437
 31
0.0
  0
LINE
  5
57EE
330
5710
100
AcDbEntity
  8
0
100
AcDbLine
 10
11.18068499223982
 20
7.245811585728823
 30
0.0
 11
11.18216017252249
 21
7.244517887342247
 31
0.0
  0
LINE
  5
57EF
330
5710
100
AcDbEntity
  8
0
100
AcDbLine
 10
10.94094696908689
 20
6.753304683906627
 30
0.0
 11
10.93965327070032
 21
6.754779864189309
 31
0.0
  0
LINE
  5
57F0
330
5710
100
AcDbEntity
  8
0
100
AcDbLine
 10
11.17729382229017
 20
7.24776947861212
 30
0.0
 11
11.17543585648123
 21
7.248400173018772
 31
0.0
  0
LINE
  5
57F1
330
5710
100
AcDbEntity
  8
0
100
AcDbLine
 10
10.94405357080469
 20
6.750920904567657
 30
0.0
 11
10.94242214936956
 21
6.75201098552008
 31
0.0
  0
LINE
  5
57F2
330
5710
100
AcDbEntity
  8
0
100
AcDbLine
 10
11.18345387090906
 20
7.243042707059565
 30
0.0
 11
11.18454395186146
 21
7.241411285624444
 31
0.0
  0
LINE
  5
57F3
330
5710
100
AcDbEntity
  8
0
100
AcDbLine
 10
10.93769537781703
 20
6.75817103413896
 30
0.0
 11
10.93706468341036
 21
6.760028999947898
 31
0.0
  0
LINE
  5
57F4
330
5710
100
AcDbEntity
  8
0
100
AcDbLine
 10
10.94767128512816
 20
6.749422398230102
 30
0.0
 11
10.94959567792139
 21
6.749039612703818
 31
0.0
  0
LINE
  5
57F5
330
5710
100
AcDbEntity
  8
0
100
AcDbLine
 10
10.93668189788409
 20
6.761953392741126
 30
0.0
 11
10.9365535708047
 21
6.763911285624452
 31
0.0
  0
LINE
  5
57F6
330
5710
100
AcDbEntity
  8
0
100
AcDbLine
 10
10.93706468341036
 20
6.760028999947898
 30
0.0
 11
10.93668189788409
 21
6.761953392741126
 31
0.0
  0
LINE
  5
57F7
330
5710
100
AcDbEntity
  8
0
100
AcDbLine
 10
11.17905357080469
 20
7.246901666681218
 30
0.0
 11
11.18068499223982
 21
7.245811585728823
 31
0.0
  0
LINE
  5
57F8
330
5710
100
AcDbEntity
  8
0
100
AcDbLine
 10
10.94405357080469
 20
6.750920904567657
 30
0.0
 11
10.94581331931921
 21
6.750053092636754
 31
0.0
  0
LINE
  5
57F9
330
5710
100
AcDbEntity
  8
0
100
AcDbLine
 10
11.17543585648123
 20
7.248400173018772
 30
0.0
 11
11.17351146368799
 21
7.248782958545056
 31
0.0
  0
LINE
  5
57FA
330
5710
100
AcDbEntity
  8
0
100
AcDbLine
 10
10.94581331931921
 20
6.750053092636754
 30
0.0
 11
10.94767128512816
 21
6.749422398230102
 31
0.0
  0
LINE
  5
57FB
330
5710
100
AcDbEntity
  8
0
100
AcDbLine
 10
11.17351146368799
 20
7.248782958545056
 30
0.0
 11
11.17155357080469
 21
7.248911285624437
 31
0.0
  0
LINE
  5
57FC
330
5710
100
AcDbEntity
  8
0
100
AcDbLine
 10
10.94242214936956
 20
6.75201098552008
 30
0.0
 11
10.94094696908689
 21
6.753304683906627
 31
0.0
  0
LINE
  5
57FD
330
5710
100
AcDbEntity
  8
0
100
AcDbLine
 10
11.18454395186146
 20
7.241411285624444
 30
0.0
 11
11.18541176379236
 21
7.239651537109914
 31
0.0
  0
LINE
  5
57FE
330
5710
100
AcDbEntity
  8
0
100
AcDbLine
 10
11.11155357080469
 20
7.248911285624437
 30
0.0
 11
11.17155357080469
 21
7.248911285624437
 31
0.0
  0
LINE
  5
57FF
330
5710
100
AcDbEntity
  8
0
100
AcDbLine
 10
11.18604245819903
 20
7.237793571300976
 30
0.0
 11
11.1864252437253
 21
7.235869178507748
 31
0.0
  0
LINE
  5
5800
330
5710
100
AcDbEntity
  8
0
100
AcDbLine
 10
11.18216017252249
 20
7.244517887342247
 30
0.0
 11
11.18345387090906
 21
7.243042707059565
 31
0.0
  0
LINE
  5
5801
330
5710
100
AcDbEntity
  8
0
100
AcDbLine
 10
11.1864252437253
 20
7.235869178507748
 30
0.0
 11
11.18655357080469
 21
7.233911285624422
 31
0.0
  0
LINE
  5
5802
330
5710
100
AcDbEntity
  8
0
100
AcDbLine
 10
10.94959567792139
 20
6.749039612703818
 30
0.0
 11
10.95155357080469
 21
6.748911285624437
 31
0.0
  0
LINE
  5
5803
330
5710
100
AcDbEntity
  8
0
100
AcDbLine
 10
11.18541176379236
 20
7.239651537109914
 30
0.0
 11
11.18604245819903
 21
7.237793571300976
 31
0.0
  0
LINE
  5
5804
330
5710
100
AcDbEntity
  8
0
100
AcDbLine
 10
11.01155357080469
 20
6.769575641858118
 30
0.0
 11
10.9804890102048
 21
6.769575641858118
 31
0.0
  0
LINE
  5
5805
330
5710
100
AcDbEntity
  8
0
100
AcDbLine
 10
10.9804890102048
 20
6.769575641858118
 30
0.0
 11
10.97468667932325
 21
6.769575641858118
 31
0.0
  0
LINE
  5
5806
330
5710
100
AcDbEntity
  8
0
100
AcDbLine
 10
11.01155357080469
 20
6.779300477557704
 30
0.0
 11
10.97991518736861
 21
6.779300477557704
 31
0.0
  0
LINE
  5
5807
330
5710
100
AcDbEntity
  8
0
100
AcDbLine
 10
10.97991518736861
 20
6.779300477557704
 30
0.0
 11
10.97620453187877
 21
6.779300477557704
 31
0.0
  0
LINE
  5
5808
330
5710
100
AcDbEntity
  8
0
100
AcDbLine
 10
11.18655357080469
 20
7.233911285624422
 30
0.0
 11
11.18655357080469
 21
6.763911285624452
 31
0.0
  0
LINE
  5
5809
330
5710
100
AcDbEntity
  8
0
100
AcDbLine
 10
10.94788699787289
 20
7.229252374100514
 30
0.0
 11
10.94878644324488
 21
7.229887383496265
 31
0.0
  0
LINE
  5
580A
330
5710
100
AcDbEntity
  8
0
100
AcDbLine
 10
10.94744361503957
 20
7.222383677580001
 30
0.0
 11
10.94685660955074
 21
7.22349457804113
 31
0.0
  0
LINE
  5
580B
330
5710
100
AcDbEntity
  8
0
100
AcDbLine
 10
10.94646376040171
 20
7.226011550730664
 30
0.0
 11
10.9466846887618
 21
7.22724609542978
 31
0.0
  0
LINE
  5
580C
330
5710
100
AcDbEntity
  8
0
100
AcDbLine
 10
10.94878644324488
 20
7.229887383496265
 30
0.0
 11
10.9498071689591
 21
7.230213233274998
 31
0.0
  0
LINE
  5
580D
330
5710
100
AcDbEntity
  8
0
100
AcDbLine
 10
10.93856318974793
 20
7.243377589508686
 30
0.0
 11
10.93769537781703
 21
7.241617840994184
 31
0.0
  0
LINE
  5
580E
330
5710
100
AcDbEntity
  8
0
100
AcDbLine
 10
10.93965327070033
 20
7.245009010943835
 30
0.0
 11
10.93856318974793
 21
7.243377589508686
 31
0.0
  0
LINE
  5
580F
330
5710
100
AcDbEntity
  8
0
100
AcDbLine
 10
11.17905357080469
 20
6.752887208451927
 30
0.0
 11
11.17729382229017
 21
6.752019396521024
 31
0.0
  0
LINE
  5
5810
330
5710
100
AcDbEntity
  8
0
100
AcDbLine
 10
11.01155357080469
 20
7.250877589508707
 30
0.0
 11
10.9515535708047
 21
7.250877589508707
 31
0.0
  0
LINE
  5
5811
330
5710
100
AcDbEntity
  8
0
100
AcDbLine
 10
11.18068499223982
 20
6.753977289404321
 30
0.0
 11
11.18216017252249
 21
6.755270987790897
 31
0.0
  0
LINE
  5
5812
330
5710
100
AcDbEntity
  8
0
100
AcDbLine
 10
10.94094696908689
 20
7.246484191226517
 30
0.0
 11
10.93965327070033
 21
7.245009010943835
 31
0.0
  0
LINE
  5
5813
330
5710
100
AcDbEntity
  8
0
100
AcDbLine
 10
11.17729382229017
 20
6.752019396521024
 30
0.0
 11
11.17543585648123
 21
6.751388702114343
 31
0.0
  0
LINE
  5
5814
330
5710
100
AcDbEntity
  8
0
100
AcDbLine
 10
10.9440535708047
 20
7.248867970565459
 30
0.0
 11
10.94242214936956
 21
7.247777889613065
 31
0.0
  0
LINE
  5
5815
330
5710
100
AcDbEntity
  8
0
100
AcDbLine
 10
11.18345387090906
 20
6.756746168073551
 30
0.0
 11
11.18454395186145
 21
6.7583775895087
 31
0.0
  0
LINE
  5
5816
330
5710
100
AcDbEntity
  8
0
100
AcDbLine
 10
10.93769537781703
 20
7.241617840994184
 30
0.0
 11
10.93706468341036
 21
7.239759875185246
 31
0.0
  0
LINE
  5
5817
330
5710
100
AcDbEntity
  8
0
100
AcDbLine
 10
10.94767128512816
 20
7.250366476903042
 30
0.0
 11
10.94959567792139
 21
7.250749262429298
 31
0.0
  0
LINE
  5
5818
330
5710
100
AcDbEntity
  8
0
100
AcDbLine
 10
10.93668189788409
 20
7.237835482391989
 30
0.0
 11
10.9365535708047
 21
7.235877589508692
 31
0.0
  0
LINE
  5
5819
330
5710
100
AcDbEntity
  8
0
100
AcDbLine
 10
10.93706468341036
 20
7.239759875185246
 30
0.0
 11
10.93668189788409
 21
7.237835482391989
 31
0.0
  0
LINE
  5
581A
330
5710
100
AcDbEntity
  8
0
100
AcDbLine
 10
11.17905357080469
 20
6.752887208451927
 30
0.0
 11
11.18068499223982
 21
6.753977289404321
 31
0.0
  0
LINE
  5
581B
330
5710
100
AcDbEntity
  8
0
100
AcDbLine
 10
10.9440535708047
 20
7.248867970565459
 30
0.0
 11
10.94581331931922
 21
7.249735782496362
 31
0.0
  0
LINE
  5
581C
330
5710
100
AcDbEntity
  8
0
100
AcDbLine
 10
11.17543585648123
 20
6.751388702114343
 30
0.0
 11
11.17351146368799
 21
6.751005916588088
 31
0.0
  0
LINE
  5
581D
330
5710
100
AcDbEntity
  8
0
100
AcDbLine
 10
10.94581331931922
 20
7.249735782496362
 30
0.0
 11
10.94767128512816
 21
7.250366476903042
 31
0.0
  0
LINE
  5
581E
330
5710
100
AcDbEntity
  8
0
100
AcDbLine
 10
11.17351146368799
 20
6.751005916588088
 30
0.0
 11
11.17155357080469
 21
6.750877589508679
 31
0.0
  0
LINE
  5
581F
330
5710
100
AcDbEntity
  8
0
100
AcDbLine
 10
10.94242214936956
 20
7.247777889613065
 30
0.0
 11
10.94094696908689
 21
7.246484191226517
 31
0.0
  0
LINE
  5
5820
330
5710
100
AcDbEntity
  8
0
100
AcDbLine
 10
11.18454395186145
 20
6.7583775895087
 30
0.0
 11
11.18541176379236
 21
6.760137338023202
 31
0.0
  0
LINE
  5
5821
330
5710
100
AcDbEntity
  8
0
100
AcDbLine
 10
11.11155357080469
 20
6.750877589508679
 30
0.0
 11
11.17155357080469
 21
6.750877589508679
 31
0.0
  0
LINE
  5
5822
330
5710
100
AcDbEntity
  8
0
100
AcDbLine
 10
11.18604245819902
 20
6.761995303832168
 30
0.0
 11
11.1864252437253
 21
6.763919696625396
 31
0.0
  0
LINE
  5
5823
330
5710
100
AcDbEntity
  8
0
100
AcDbLine
 10
11.18216017252249
 20
6.755270987790897
 30
0.0
 11
11.18345387090906
 21
6.756746168073551
 31
0.0
  0
LINE
  5
5824
330
5710
100
AcDbEntity
  8
0
100
AcDbLine
 10
11.1864252437253
 20
6.763919696625396
 30
0.0
 11
11.18655357080469
 21
6.765877589508694
 31
0.0
  0
LINE
  5
5825
330
5710
100
AcDbEntity
  8
0
100
AcDbLine
 10
10.94959567792139
 20
7.250749262429298
 30
0.0
 11
10.9515535708047
 21
7.250877589508707
 31
0.0
  0
LINE
  5
5826
330
5710
100
AcDbEntity
  8
0
100
AcDbLine
 10
11.18541176379236
 20
6.760137338023202
 30
0.0
 11
11.18604245819902
 21
6.761995303832168
 31
0.0
  0
LINE
  5
5827
330
5710
100
AcDbEntity
  8
0
100
AcDbLine
 10
10.94717012855885
 20
7.228351479928694
 30
0.0
 11
10.94788699787289
 21
7.229252374100514
 31
0.0
  0
LINE
  5
5828
330
5710
100
AcDbEntity
  8
0
100
AcDbLine
 10
10.9466846887618
 20
7.22724609542978
 30
0.0
 11
10.94717012855885
 21
7.228351479928694
 31
0.0
  0
LINE
  5
5829
330
5710
100
AcDbEntity
  8
0
100
AcDbLine
 10
10.94652239938121
 20
7.224731978012375
 30
0.0
 11
10.94646376040171
 21
7.226011550730664
 31
0.0
  0
LINE
  5
582A
330
5710
100
AcDbEntity
  8
0
100
AcDbLine
 10
10.94685660955074
 20
7.22349457804113
 30
0.0
 11
10.94652239938121
 21
7.224731978012375
 31
0.0
  0
LINE
  5
582B
330
5710
100
AcDbEntity
  8
0
100
AcDbLine
 10
10.9482434123937
 20
7.221474982659618
 30
0.0
 11
10.94744361503957
 21
7.222383677580001
 31
0.0
  0
LINE
  5
582C
330
5710
100
AcDbEntity
  8
0
100
AcDbLine
 10
10.94920149674518
 20
7.22083041933708
 30
0.0
 11
10.9482434123937
 21
7.221474982659618
 31
0.0
  0
LINE
  5
582D
330
5710
100
AcDbEntity
  8
0
100
AcDbLine
 10
10.95025257622876
 20
7.220493913537627
 30
0.0
 11
10.94920149674518
 21
7.22083041933708
 31
0.0
  0
LINE
  5
582E
330
5710
100
AcDbEntity
  8
0
100
AcDbLine
 10
10.95132502151463
 20
7.22048839757544
 30
0.0
 11
10.95025257622876
 21
7.220493913537627
 31
0.0
  0
LINE
  5
582F
330
5710
100
AcDbEntity
  8
0
100
AcDbLine
 10
11.11155357080469
 20
6.777213233274995
 30
0.0
 11
11.14172941164242
 21
6.777213233274995
 31
0.0
  0
LINE
  5
5830
330
5710
100
AcDbEntity
  8
0
100
AcDbLine
 10
11.14172941164242
 20
6.777213233274995
 30
0.0
 11
11.14842046228613
 21
6.777213233274995
 31
0.0
  0
LINE
  5
5831
330
5710
100
AcDbEntity
  8
0
100
AcDbLine
 10
11.11155357080469
 20
6.767488397575437
 30
0.0
 11
11.14620859802188
 21
6.767482042397165
 31
0.0
  0
LINE
  5
5832
330
5710
100
AcDbEntity
  8
0
100
AcDbLine
 10
11.14620859802188
 20
6.767482042397165
 30
0.0
 11
11.14690260973061
 21
6.767488397575437
 31
0.0
  0
LINE
  5
5833
330
5710
100
AcDbEntity
  8
0
100
AcDbLine
 10
10.98667406044054
 20
7.230213233274998
 30
0.0
 11
10.95560949984065
 21
7.230213233274998
 31
0.0
  0
LINE
  5
5834
330
5710
100
AcDbEntity
  8
0
100
AcDbLine
 10
10.95560949984065
 20
7.230213233274998
 30
0.0
 11
10.9498071689591
 21
7.230213233274998
 31
0.0
  0
LINE
  5
5835
330
5710
100
AcDbEntity
  8
0
100
AcDbLine
 10
10.98667406044054
 20
7.22048839757544
 30
0.0
 11
10.95503567700446
 21
7.22048839757544
 31
0.0
  0
LINE
  5
5836
330
5710
100
AcDbEntity
  8
0
100
AcDbLine
 10
10.95503567700446
 20
7.22048839757544
 30
0.0
 11
10.95132502151463
 21
7.22048839757544
 31
0.0
  0
LINE
  5
5837
330
5710
100
AcDbEntity
  8
0
100
AcDbLine
 10
10.9365535708047
 20
6.765877589508694
 30
0.0
 11
10.9365535708047
 21
7.235877589508692
 31
0.0
  0
LINE
  5
5838
330
5710
100
AcDbEntity
  8
0
100
AcDbLine
 10
10.97620453187877
 20
6.767488397575437
 30
0.0
 11
10.97513208659291
 21
6.767493913537652
 31
0.0
  0
LINE
  5
5839
330
5710
100
AcDbEntity
  8
0
100
AcDbLine
 10
11.18454395186146
 20
7.243377589508686
 30
0.0
 11
11.18541176379236
 21
7.241617840994184
 31
0.0
  0
LINE
  5
583A
330
5710
100
AcDbEntity
  8
0
100
AcDbLine
 10
11.18345387090906
 20
7.245009010943835
 30
0.0
 11
11.18454395186146
 21
7.243377589508686
 31
0.0
  0
LINE
  5
583B
330
5710
100
AcDbEntity
  8
0
100
AcDbLine
 10
10.94405357080469
 20
6.752887208451927
 30
0.0
 11
10.94581331931921
 21
6.752019396521024
 31
0.0
  0
LINE
  5
583C
330
5710
100
AcDbEntity
  8
0
100
AcDbLine
 10
11.11155357080469
 20
7.250877589508707
 30
0.0
 11
11.17155357080469
 21
7.250877589508707
 31
0.0
  0
LINE
  5
583D
330
5710
100
AcDbEntity
  8
0
100
AcDbLine
 10
10.94242214936956
 20
6.753977289404321
 30
0.0
 11
10.94094696908689
 21
6.755270987790897
 31
0.0
  0
LINE
  5
583E
330
5710
100
AcDbEntity
  8
0
100
AcDbLine
 10
11.18216017252249
 20
7.246484191226517
 30
0.0
 11
11.18345387090906
 21
7.245009010943835
 31
0.0
  0
LINE
  5
583F
330
5710
100
AcDbEntity
  8
0
100
AcDbLine
 10
10.94581331931921
 20
6.752019396521024
 30
0.0
 11
10.94767128512816
 21
6.751388702114343
 31
0.0
  0
LINE
  5
5840
330
5710
100
AcDbEntity
  8
0
100
AcDbLine
 10
11.17905357080469
 20
7.248867970565459
 30
0.0
 11
11.18068499223982
 21
7.247777889613065
 31
0.0
  0
LINE
  5
5841
330
5710
100
AcDbEntity
  8
0
100
AcDbLine
 10
10.93965327070032
 20
6.756746168073551
 30
0.0
 11
10.93856318974792
 21
6.7583775895087
 31
0.0
  0
LINE
  5
5842
330
5710
100
AcDbEntity
  8
0
100
AcDbLine
 10
11.18541176379236
 20
7.241617840994184
 30
0.0
 11
11.18604245819903
 21
7.239759875185246
 31
0.0
  0
LINE
  5
5843
330
5710
100
AcDbEntity
  8
0
100
AcDbLine
 10
11.17543585648123
 20
7.250366476903042
 30
0.0
 11
11.17351146368799
 21
7.250749262429298
 31
0.0
  0
LINE
  5
5844
330
5710
100
AcDbEntity
  8
0
100
AcDbLine
 10
11.1864252437253
 20
7.237835482391989
 30
0.0
 11
11.18655357080469
 21
7.235877589508692
 31
0.0
  0
LINE
  5
5845
330
5710
100
AcDbEntity
  8
0
100
AcDbLine
 10
11.18604245819903
 20
7.239759875185246
 30
0.0
 11
11.1864252437253
 21
7.237835482391989
 31
0.0
  0
LINE
  5
5846
330
5710
100
AcDbEntity
  8
0
100
AcDbLine
 10
10.94405357080469
 20
6.752887208451927
 30
0.0
 11
10.94242214936956
 21
6.753977289404321
 31
0.0
  0
LINE
  5
5847
330
5710
100
AcDbEntity
  8
0
100
AcDbLine
 10
11.17905357080469
 20
7.248867970565459
 30
0.0
 11
11.17729382229017
 21
7.249735782496362
 31
0.0
  0
LINE
  5
5848
330
5710
100
AcDbEntity
  8
0
100
AcDbLine
 10
10.94767128512816
 20
6.751388702114343
 30
0.0
 11
10.94959567792139
 21
6.751005916588088
 31
0.0
  0
LINE
  5
5849
330
5710
100
AcDbEntity
  8
0
100
AcDbLine
 10
11.17729382229017
 20
7.249735782496362
 30
0.0
 11
11.17543585648123
 21
7.250366476903042
 31
0.0
  0
LINE
  5
584A
330
5710
100
AcDbEntity
  8
0
100
AcDbLine
 10
10.94959567792139
 20
6.751005916588088
 30
0.0
 11
10.95155357080469
 21
6.750877589508679
 31
0.0
  0
LINE
  5
584B
330
5710
100
AcDbEntity
  8
0
100
AcDbLine
 10
11.18068499223982
 20
7.247777889613065
 30
0.0
 11
11.18216017252249
 21
7.246484191226517
 31
0.0
  0
LINE
  5
584C
330
5710
100
AcDbEntity
  8
0
100
AcDbLine
 10
10.93856318974792
 20
6.7583775895087
 30
0.0
 11
10.93769537781703
 21
6.760137338023202
 31
0.0
  0
LINE
  5
584D
330
5710
100
AcDbEntity
  8
0
100
AcDbLine
 10
11.01155357080469
 20
6.750877589508679
 30
0.0
 11
10.95155357080469
 21
6.750877589508679
 31
0.0
  0
LINE
  5
584E
330
5710
100
AcDbEntity
  8
0
100
AcDbLine
 10
10.93706468341036
 20
6.761995303832168
 30
0.0
 11
10.93668189788409
 21
6.763919696625396
 31
0.0
  0
LINE
  5
584F
330
5710
100
AcDbEntity
  8
0
100
AcDbLine
 10
10.94094696908689
 20
6.755270987790897
 30
0.0
 11
10.93965327070032
 21
6.756746168073551
 31
0.0
  0
LINE
  5
5850
330
5710
100
AcDbEntity
  8
0
100
AcDbLine
 10
10.93668189788409
 20
6.763919696625396
 30
0.0
 11
10.9365535708047
 21
6.765877589508694
 31
0.0
  0
LINE
  5
5851
330
5710
100
AcDbEntity
  8
0
100
AcDbLine
 10
11.17351146368799
 20
7.250749262429298
 30
0.0
 11
11.17155357080469
 21
7.250877589508707
 31
0.0
  0
LINE
  5
5852
330
5710
100
AcDbEntity
  8
0
100
AcDbLine
 10
10.93769537781703
 20
6.760137338023202
 30
0.0
 11
10.93706468341036
 21
6.761995303832168
 31
0.0
  0
LINE
  5
5853
330
5710
100
AcDbEntity
  8
0
100
AcDbLine
 10
11.01155357080469
 20
6.777213233274995
 30
0.0
 11
10.98137772996697
 21
6.777213233274995
 31
0.0
  0
LINE
  5
5854
330
5710
100
AcDbEntity
  8
0
100
AcDbLine
 10
10.98137772996697
 20
6.777213233274995
 30
0.0
 11
10.97468667932325
 21
6.777213233274995
 31
0.0
  0
LINE
  5
5855
330
5710
100
AcDbEntity
  8
0
100
AcDbLine
 10
11.01155357080469
 20
6.767488397575437
 30
0.0
 11
10.9768985435875
 21
6.767482042397165
 31
0.0
  0
LINE
  5
5856
330
5710
100
AcDbEntity
  8
0
100
AcDbLine
 10
10.9768985435875
 20
6.767482042397165
 30
0.0
 11
10.97620453187877
 21
6.767488397575437
 31
0.0
  0
LINE
  5
5857
330
5710
100
AcDbEntity
  8
0
100
AcDbLine
 10
11.18655357080469
 20
6.765877589508694
 30
0.0
 11
11.18655357080469
 21
7.235877589508692
 31
0.0
  0
LINE
  5
5858
330
5710
100
AcDbEntity
  8
0
100
AcDbLine
 10
10.98667406044054
 20
7.232300477557679
 30
0.0
 11
11.01155357080469
 21
7.232300477557679
 31
0.0
  0
LINE
  5
5859
330
5710
100
AcDbEntity
  8
0
100
AcDbLine
 10
10.98667406044054
 20
7.230213233274998
 30
0.0
 11
11.01155357080469
 21
7.230213233274998
 31
0.0
  0
LINE
  5
585A
330
5710
100
AcDbEntity
  8
0
100
AcDbLine
 10
10.98667406044054
 20
7.222575641858121
 30
0.0
 11
11.01155357080469
 21
7.222575641858121
 31
0.0
  0
LINE
  5
585B
330
5710
100
AcDbEntity
  8
0
100
AcDbLine
 10
10.98667406044054
 20
7.22048839757544
 30
0.0
 11
11.01155357080469
 21
7.22048839757544
 31
0.0
  0
LINE
  5
585C
330
5710
100
AcDbEntity
  8
0
100
AcDbLine
 10
10.94717012855885
 20
6.771437395204435
 30
0.0
 11
10.94788699787289
 21
6.770536501032615
 31
0.0
  0
LINE
  5
585D
330
5710
100
AcDbEntity
  8
0
100
AcDbLine
 10
10.94652239938121
 20
6.775056897120754
 30
0.0
 11
10.94646376040171
 21
6.773777324402494
 31
0.0
  0
LINE
  5
585E
330
5710
100
AcDbEntity
  8
0
100
AcDbLine
 10
10.95025257622876
 20
6.779294961595502
 30
0.0
 11
10.94920149674518
 21
6.778958455796078
 31
0.0
  0
LINE
  5
585F
330
5710
100
AcDbEntity
  8
0
100
AcDbLine
 10
10.9482434123937
 20
6.77831389247354
 30
0.0
 11
10.94744361503957
 21
6.777405197553128
 31
0.0
  0
LINE
  5
5860
330
5710
100
AcDbEntity
  8
0
100
AcDbLine
 10
10.94878644324488
 20
6.769901491636864
 30
0.0
 11
10.9498071689591
 21
6.769575641858131
 31
0.0
  0
LINE
  5
5861
330
5710
100
AcDbEntity
  8
0
100
AcDbLine
 10
10.94788699787289
 20
6.770536501032615
 30
0.0
 11
10.94878644324488
 21
6.769901491636864
 31
0.0
  0
LINE
  5
5862
330
5710
100
AcDbEntity
  8
0
100
AcDbLine
 10
10.9466846887618
 20
6.772542779703349
 30
0.0
 11
10.94717012855885
 21
6.771437395204435
 31
0.0
  0
LINE
  5
5863
330
5710
100
AcDbEntity
  8
0
100
AcDbLine
 10
10.94646376040171
 20
6.773777324402494
 30
0.0
 11
10.9466846887618
 21
6.772542779703349
 31
0.0
  0
LINE
  5
5864
330
5710
100
AcDbEntity
  8
0
100
AcDbLine
 10
10.94685660955074
 20
6.776294297092028
 30
0.0
 11
10.94652239938121
 21
6.775056897120754
 31
0.0
  0
LINE
  5
5865
330
5710
100
AcDbEntity
  8
0
100
AcDbLine
 10
10.94744361503957
 20
6.777405197553128
 30
0.0
 11
10.94685660955074
 21
6.776294297092028
 31
0.0
  0
LINE
  5
5866
330
5710
100
AcDbEntity
  8
0
100
AcDbLine
 10
10.94920149674518
 20
6.778958455796078
 30
0.0
 11
10.9482434123937
 21
6.77831389247354
 31
0.0
  0
LINE
  5
5867
330
5710
100
AcDbEntity
  8
0
100
AcDbLine
 10
10.95132502151463
 20
6.779300477557689
 30
0.0
 11
10.95025257622876
 21
6.779294961595502
 31
0.0
  0
LINE
  5
5868
330
5710
100
AcDbEntity
  8
0
100
AcDbLine
 10
10.98667406044054
 20
6.769575641858131
 30
0.0
 11
10.95649821960281
 21
6.769575641858131
 31
0.0
  0
LINE
  5
5869
330
5710
100
AcDbEntity
  8
0
100
AcDbLine
 10
10.95649821960281
 20
6.769575641858131
 30
0.0
 11
10.9498071689591
 21
6.769575641858131
 31
0.0
  0
LINE
  5
586A
330
5710
100
AcDbEntity
  8
0
100
AcDbLine
 10
10.98667406044054
 20
6.779300477557689
 30
0.0
 11
10.95201903322335
 21
6.779306832735961
 31
0.0
  0
LINE
  5
586B
330
5710
100
AcDbEntity
  8
0
100
AcDbLine
 10
10.95201903322335
 20
6.779306832735961
 30
0.0
 11
10.95132502151463
 21
6.779300477557689
 31
0.0
  0
LINE
  5
586C
330
5710
100
AcDbEntity
  8
0
100
AcDbLine
 10
11.14290256566886
 20
6.769575641858131
 30
0.0
 11
11.17307840650658
 21
6.769575641858131
 31
0.0
  0
LINE
  5
586D
330
5710
100
AcDbEntity
  8
0
100
AcDbLine
 10
11.17307840650658
 20
6.769575641858131
 30
0.0
 11
11.1773122673149
 21
6.769575641858131
 31
0.0
  0
LINE
  5
586E
330
5710
100
AcDbEntity
  8
0
100
AcDbLine
 10
11.14290256566886
 20
6.779300477557689
 30
0.0
 11
11.1676363253032
 21
6.77930501333401
 31
0.0
  0
LINE
  5
586F
330
5710
100
AcDbEntity
  8
0
100
AcDbLine
 10
10.94788699787289
 20
6.776252374100525
 30
0.0
 11
10.94878644324488
 21
6.776887383496275
 31
0.0
  0
LINE
  5
5870
330
5710
100
AcDbEntity
  8
0
100
AcDbLine
 10
10.94744361503957
 20
6.769383677580012
 30
0.0
 11
10.94685660955074
 21
6.77049457804114
 31
0.0
  0
LINE
  5
5871
330
5710
100
AcDbEntity
  8
0
100
AcDbLine
 10
10.94646376040171
 20
6.773011550730674
 30
0.0
 11
10.9466846887618
 21
6.77424609542979
 31
0.0
  0
LINE
  5
5872
330
5710
100
AcDbEntity
  8
0
100
AcDbLine
 10
10.94878644324488
 20
6.776887383496275
 30
0.0
 11
10.9498071689591
 21
6.777213233275008
 31
0.0
  0
LINE
  5
5873
330
5710
100
AcDbEntity
  8
0
100
AcDbLine
 10
10.94717012855885
 20
6.775351479928704
 30
0.0
 11
10.94788699787289
 21
6.776252374100525
 31
0.0
  0
LINE
  5
5874
330
5710
100
AcDbEntity
  8
0
100
AcDbLine
 10
10.9466846887618
 20
6.77424609542979
 30
0.0
 11
10.94717012855885
 21
6.775351479928704
 31
0.0
  0
LINE
  5
5875
330
5710
100
AcDbEntity
  8
0
100
AcDbLine
 10
10.94652239938121
 20
6.771731978012385
 30
0.0
 11
10.94646376040171
 21
6.773011550730674
 31
0.0
  0
LINE
  5
5876
330
5710
100
AcDbEntity
  8
0
100
AcDbLine
 10
10.94685660955074
 20
6.77049457804114
 30
0.0
 11
10.94652239938121
 21
6.771731978012385
 31
0.0
  0
LINE
  5
5877
330
5710
100
AcDbEntity
  8
0
100
AcDbLine
 10
10.9482434123937
 20
6.768474982659628
 30
0.0
 11
10.94744361503957
 21
6.769383677580012
 31
0.0
  0
LINE
  5
5878
330
5710
100
AcDbEntity
  8
0
100
AcDbLine
 10
10.94920149674518
 20
6.76783041933709
 30
0.0
 11
10.9482434123937
 21
6.768474982659628
 31
0.0
  0
LINE
  5
5879
330
5710
100
AcDbEntity
  8
0
100
AcDbLine
 10
10.95025257622876
 20
6.767493913537637
 30
0.0
 11
10.94920149674518
 21
6.76783041933709
 31
0.0
  0
LINE
  5
587A
330
5710
100
AcDbEntity
  8
0
100
AcDbLine
 10
10.95132502151463
 20
6.76748839757545
 30
0.0
 11
10.95025257622876
 21
6.767493913537637
 31
0.0
  0
LINE
  5
587B
330
5710
100
AcDbEntity
  8
0
100
AcDbLine
 10
10.98667406044054
 20
6.777213233275008
 30
0.0
 11
10.95560949984065
 21
6.777213233275008
 31
0.0
  0
LINE
  5
587C
330
5710
100
AcDbEntity
  8
0
100
AcDbLine
 10
10.95560949984065
 20
6.777213233275008
 30
0.0
 11
10.9498071689591
 21
6.777213233275008
 31
0.0
  0
LINE
  5
587D
330
5710
100
AcDbEntity
  8
0
100
AcDbLine
 10
10.98667406044054
 20
6.76748839757545
 30
0.0
 11
10.95503567700446
 21
6.76748839757545
 31
0.0
  0
LINE
  5
587E
330
5710
100
AcDbEntity
  8
0
100
AcDbLine
 10
10.95503567700446
 20
6.76748839757545
 30
0.0
 11
10.95132502151463
 21
6.76748839757545
 31
0.0
  0
LINE
  5
587F
330
5710
100
AcDbEntity
  8
0
100
AcDbLine
 10
11.18213301106983
 20
6.769383677580012
 30
0.0
 11
11.18272001655866
 21
6.77049457804114
 31
0.0
  0
LINE
  5
5880
330
5710
100
AcDbEntity
  8
0
100
AcDbLine
 10
11.18305422672819
 20
6.771731978012385
 30
0.0
 11
11.18311286570769
 21
6.773011550730674
 31
0.0
  0
LINE
  5
5881
330
5710
100
AcDbEntity
  8
0
100
AcDbLine
 10
11.18272001655866
 20
6.77049457804114
 30
0.0
 11
11.18305422672819
 21
6.771731978012385
 31
0.0
  0
LINE
  5
5882
330
5710
100
AcDbEntity
  8
0
100
AcDbLine
 10
11.1813332137157
 20
6.768474982659628
 30
0.0
 11
11.18213301106983
 21
6.769383677580012
 31
0.0
  0
LINE
  5
5883
330
5710
100
AcDbEntity
  8
0
100
AcDbLine
 10
11.18037512936423
 20
6.76783041933709
 30
0.0
 11
11.1813332137157
 21
6.768474982659628
 31
0.0
  0
LINE
  5
5884
330
5710
100
AcDbEntity
  8
0
100
AcDbLine
 10
11.17932404988064
 20
6.767493913537637
 30
0.0
 11
11.18037512936423
 21
6.76783041933709
 31
0.0
  0
LINE
  5
5885
330
5710
100
AcDbEntity
  8
0
100
AcDbLine
 10
11.17825160459478
 20
6.76748839757545
 30
0.0
 11
11.17932404988064
 21
6.767493913537637
 31
0.0
  0
LINE
  5
5886
330
5710
100
AcDbEntity
  8
0
100
AcDbLine
 10
11.14290256566886
 20
6.777213233275008
 30
0.0
 11
11.1696167111556
 21
6.777213233275007
 31
0.0
  0
LINE
  5
5887
330
5710
100
AcDbEntity
  8
0
100
AcDbLine
 10
11.14290256566886
 20
6.76748839757545
 30
0.0
 11
11.17454094910494
 21
6.76748839757545
 31
0.0
  0
LINE
  5
5888
330
5710
100
AcDbEntity
  8
0
100
AcDbLine
 10
11.17454094910494
 20
6.76748839757545
 30
0.0
 11
11.17825160459478
 21
6.76748839757545
 31
0.0
  0
LINE
  5
5889
330
5710
100
AcDbEntity
  8
0
100
AcDbLine
 10
10.98667406044054
 20
6.779300477557689
 30
0.0
 11
11.01155357080469
 21
6.779300477557689
 31
0.0
  0
LINE
  5
588A
330
5710
100
AcDbEntity
  8
0
100
AcDbLine
 10
10.98667406044054
 20
6.777213233275008
 30
0.0
 11
11.01155357080469
 21
6.777213233275008
 31
0.0
  0
LINE
  5
588B
330
5710
100
AcDbEntity
  8
0
100
AcDbLine
 10
10.98667406044054
 20
6.769575641858131
 30
0.0
 11
11.01155357080469
 21
6.769575641858131
 31
0.0
  0
LINE
  5
588C
330
5710
100
AcDbEntity
  8
0
100
AcDbLine
 10
10.98667406044054
 20
6.76748839757545
 30
0.0
 11
11.01155357080469
 21
6.76748839757545
 31
0.0
  0
LINE
  5
588D
330
5710
100
AcDbEntity
  8
0
100
AcDbLine
 10
11.14290256566886
 20
6.779300477557689
 30
0.0
 11
11.11155357080469
 21
6.779300477557704
 31
0.0
  0
LINE
  5
588E
330
5710
100
AcDbEntity
  8
0
100
AcDbLine
 10
11.14290256566886
 20
6.777213233275008
 30
0.0
 11
11.11155357080469
 21
6.777213233275008
 31
0.0
  0
LINE
  5
588F
330
5710
100
AcDbEntity
  8
0
100
AcDbLine
 10
11.14290256566886
 20
6.769575641858131
 30
0.0
 11
11.11155357080469
 21
6.769575641858131
 31
0.0
  0
LINE
  5
5890
330
5710
100
AcDbEntity
  8
0
100
AcDbLine
 10
11.14290256566886
 20
6.76748839757545
 30
0.0
 11
11.11155357080469
 21
6.76748839757545
 31
0.0
  0
LINE
  5
5891
330
5710
100
AcDbEntity
  8
0
100
AcDbLine
 10
11.18311286570769
 20
6.979300477557704
 30
0.0
 11
11.18311286570769
 21
6.773777324402494
 31
0.0
  0
LINE
  5
5892
330
5710
100
AcDbEntity
  8
0
100
AcDbLine
 10
11.18102562142502
 20
6.796327065048131
 30
0.0
 11
11.18102562142502
 21
6.827391625648021
 31
0.0
  0
LINE
  5
5893
330
5710
100
AcDbEntity
  8
0
100
AcDbLine
 10
11.17130078572543
 20
6.796327065048131
 30
0.0
 11
11.17130078572543
 21
6.827965448484209
 31
0.0
  0
LINE
  5
5894
330
5710
100
AcDbEntity
  8
0
100
AcDbLine
 10
11.17338803000814
 20
6.796327065048131
 30
0.0
 11
11.17338803000814
 21
6.826502905885855
 31
0.0
  0
LINE
  5
5895
330
5710
100
AcDbEntity
  8
0
100
AcDbLine
 10
11.1831128657077
 20
6.796327065048131
 30
0.0
 11
11.18311922088597
 21
6.830982092265322
 31
0.0
  0
LINE
  5
5896
330
5710
100
AcDbEntity
  8
0
100
AcDbLine
 10
11.17130078572545
 20
6.827676059912298
 30
0.0
 11
11.17130078572543
 21
6.796327065048131
 31
0.0
  0
LINE
  5
5897
330
5710
100
AcDbEntity
  8
0
100
AcDbLine
 10
11.17338803000813
 20
6.827676059912298
 30
0.0
 11
11.17338803000813
 21
6.796327065048131
 31
0.0
  0
LINE
  5
5898
330
5710
100
AcDbEntity
  8
0
100
AcDbLine
 10
11.18102562142501
 20
6.827676059912298
 30
0.0
 11
11.18102562142501
 21
6.796327065048131
 31
0.0
  0
LINE
  5
5899
330
5710
100
AcDbEntity
  8
0
100
AcDbLine
 10
11.18311286570769
 20
6.827676059912298
 30
0.0
 11
11.18311286570769
 21
6.796327065048131
 31
0.0
  0
LINE
  5
589A
330
5710
100
AcDbEntity
  8
0
100
AcDbLine
 10
11.18102562142501
 20
6.796327065048131
 30
0.0
 11
11.181025621425
 21
6.773751447193648
 31
0.0
  0
LINE
  5
589B
330
5710
100
AcDbEntity
  8
0
100
AcDbLine
 10
11.17130078572543
 20
6.796327065048131
 30
0.0
 11
11.17130078572542
 21
6.783406011455551
 31
0.0
  0
LINE
  5
589C
330
5710
100
AcDbEntity
  8
0
100
AcDbLine
 10
11.17338803000814
 20
6.796327065048131
 30
0.0
 11
11.17338803000815
 21
6.782349233254462
 31
0.0
  0
LINE
  5
589D
330
5710
100
AcDbEntity
  8
0
100
AcDbLine
 10
11.18311286570769
 20
6.773777324402494
 30
0.0
 11
11.18311286570769
 21
6.773011550730674
 31
0.0
  0
LINE
  5
589E
330
5710
100
AcDbEntity
  8
0
100
AcDbLine
 10
11.18012122070389
 20
6.771465403403251
 30
0.0
 11
11.18070822619272
 21
6.772576303864379
 31
0.0
  0
LINE
  5
589F
330
5710
100
AcDbEntity
  8
0
100
AcDbLine
 10
11.18070822619272
 20
6.772576303864379
 30
0.0
 11
11.18104243636225
 21
6.773813703835624
 31
0.0
  0
LINE
  5
58A0
330
5710
100
AcDbEntity
  8
0
100
AcDbLine
 10
11.17932142334976
 20
6.770556708482867
 30
0.0
 11
11.18012122070389
 21
6.771465403403251
 31
0.0
  0
LINE
  5
58A1
330
5710
100
AcDbEntity
  8
0
100
AcDbLine
 10
11.17836333899829
 20
6.769912145160329
 30
0.0
 11
11.17932142334976
 21
6.770556708482867
 31
0.0
  0
LINE
  5
58A2
330
5710
100
AcDbEntity
  8
0
100
AcDbLine
 10
11.1773122595147
 20
6.769575639360876
 30
0.0
 11
11.17836333899829
 21
6.769912145160329
 31
0.0
  0
LINE
  5
58A3
330
5710
100
AcDbEntity
  8
0
100
AcDbLine
 10
11.17242566454459
 20
6.779102994820128
 30
0.0
 11
11.17301267003342
 21
6.780213895281256
 31
0.0
  0
LINE
  5
58A4
330
5710
100
AcDbEntity
  8
0
100
AcDbLine
 10
11.17334688020295
 20
6.781451295252502
 30
0.0
 11
11.17340551918245
 21
6.782730867970791
 31
0.0
  0
LINE
  5
58A5
330
5710
100
AcDbEntity
  8
0
100
AcDbLine
 10
11.17301267003342
 20
6.780213895281256
 30
0.0
 11
11.17334688020295
 21
6.781451295252502
 31
0.0
  0
LINE
  5
58A6
330
5710
100
AcDbEntity
  8
0
100
AcDbLine
 10
11.17162586719047
 20
6.778194299899745
 30
0.0
 11
11.17242566454459
 21
6.779102994820128
 31
0.0
  0
LINE
  5
58A7
330
5710
100
AcDbEntity
  8
0
100
AcDbLine
 10
11.17066778283899
 20
6.777549736577206
 30
0.0
 11
11.17162586719047
 21
6.778194299899745
 31
0.0
  0
LINE
  5
58A8
330
5710
100
AcDbEntity
  8
0
100
AcDbLine
 10
11.1696167033554
 20
6.777213230777753
 30
0.0
 11
11.17066778283899
 21
6.777549736577206
 31
0.0
  0
LINE
  5
58A9
330
5710
100
AcDbEntity
  8
0
100
AcDbLine
 10
11.17041387417865
 20
6.781184720643367
 30
0.0
 11
11.17100087966748
 21
6.782295621104496
 31
0.0
  0
LINE
  5
58AA
330
5710
100
AcDbEntity
  8
0
100
AcDbLine
 10
11.17100087966748
 20
6.782295621104496
 30
0.0
 11
11.17133508983701
 21
6.783533021075741
 31
0.0
  0
LINE
  5
58AB
330
5710
100
AcDbEntity
  8
0
100
AcDbLine
 10
11.16961407682453
 20
6.780276025722984
 30
0.0
 11
11.17041387417865
 21
6.781184720643367
 31
0.0
  0
LINE
  5
58AC
330
5710
100
AcDbEntity
  8
0
100
AcDbLine
 10
11.16865599247305
 20
6.779631462400446
 30
0.0
 11
11.16961407682453
 21
6.780276025722984
 31
0.0
  0
LINE
  5
58AD
330
5710
100
AcDbEntity
  8
0
100
AcDbLine
 10
11.16760491298946
 20
6.779294956600993
 30
0.0
 11
11.16865599247305
 21
6.779631462400446
 31
0.0
  0
LINE
  5
58AE
330
5710
100
AcDbEntity
  8
0
100
AcDbLine
 10
11.18102562142502
 20
6.827391625648021
 30
0.0
 11
11.18102562142502
 21
6.979300477557705
 31
0.0
  0
LINE
  5
58AF
330
5710
100
AcDbEntity
  8
0
100
AcDbLine
 10
11.17130078572543
 20
6.979300477557698
 30
0.0
 11
11.17130078572543
 21
6.827965448484209
 31
0.0
  0
LINE
  5
58B0
330
5710
100
AcDbEntity
  8
0
100
AcDbLine
 10
11.17338803000813
 20
6.827676059912298
 30
0.0
 11
11.17338803000813
 21
6.979300477557705
 31
0.0
  0
LINE
  5
58B1
330
5710
100
AcDbEntity
  8
0
100
AcDbLine
 10
11.11155357080469
 20
7.230213233274998
 30
0.0
 11
11.14261813140458
 21
7.230213233274998
 31
0.0
  0
LINE
  5
58B2
330
5710
100
AcDbEntity
  8
0
100
AcDbLine
 10
11.14261813140458
 20
7.230213233274998
 30
0.0
 11
11.14842046228613
 21
7.230213233274998
 31
0.0
  0
LINE
  5
58B3
330
5710
100
AcDbEntity
  8
0
100
AcDbLine
 10
11.11155357080469
 20
7.220488397575412
 30
0.0
 11
11.14319195424077
 21
7.220488397575412
 31
0.0
  0
LINE
  5
58B4
330
5710
100
AcDbEntity
  8
0
100
AcDbLine
 10
11.14319195424077
 20
7.220488397575412
 30
0.0
 11
11.14690260973061
 21
7.220488397575412
 31
0.0
  0
LINE
  5
58B5
330
5710
100
AcDbEntity
  8
0
100
AcDbLine
 10
11.11155357080469
 20
7.222575641858121
 30
0.0
 11
11.14172941164242
 21
7.222575641858121
 31
0.0
  0
LINE
  5
58B6
330
5710
100
AcDbEntity
  8
0
100
AcDbLine
 10
11.14172941164242
 20
7.222575641858121
 30
0.0
 11
11.14842046228613
 21
7.222575641858121
 31
0.0
  0
LINE
  5
58B7
330
5710
100
AcDbEntity
  8
0
100
AcDbLine
 10
11.11155357080469
 20
7.232300477557679
 30
0.0
 11
11.14620859802188
 21
7.23230683273595
 31
0.0
  0
LINE
  5
58B8
330
5710
100
AcDbEntity
  8
0
100
AcDbLine
 10
11.14620859802188
 20
7.23230683273595
 30
0.0
 11
11.14690260973061
 21
7.232300477557679
 31
0.0
  0
LINE
  5
58B9
330
5710
100
AcDbEntity
  8
0
100
AcDbLine
 10
11.14290256566886
 20
7.230213233274985
 30
0.0
 11
11.17307840650658
 21
7.230213233274985
 31
0.0
  0
LINE
  5
58BA
330
5710
100
AcDbEntity
  8
0
100
AcDbLine
 10
11.17307840650658
 20
7.230213233274985
 30
0.0
 11
11.1773122673149
 21
7.230213233274985
 31
0.0
  0
LINE
  5
58BB
330
5710
100
AcDbEntity
  8
0
100
AcDbLine
 10
11.14290256566886
 20
7.220488397575427
 30
0.0
 11
11.1676363253032
 21
7.220483861799106
 31
0.0
  0
LINE
  5
58BC
330
5710
100
AcDbEntity
  8
0
100
AcDbLine
 10
11.18213301106983
 20
7.230405197553104
 30
0.0
 11
11.18272001655866
 21
7.229294297091976
 31
0.0
  0
LINE
  5
58BD
330
5710
100
AcDbEntity
  8
0
100
AcDbLine
 10
11.18305422672819
 20
7.228056897120731
 30
0.0
 11
11.18311286570769
 21
7.226777324402442
 31
0.0
  0
LINE
  5
58BE
330
5710
100
AcDbEntity
  8
0
100
AcDbLine
 10
11.18272001655866
 20
7.229294297091976
 30
0.0
 11
11.18305422672819
 21
7.228056897120731
 31
0.0
  0
LINE
  5
58BF
330
5710
100
AcDbEntity
  8
0
100
AcDbLine
 10
11.1813332137157
 20
7.231313892473488
 30
0.0
 11
11.18213301106983
 21
7.230405197553104
 31
0.0
  0
LINE
  5
58C0
330
5710
100
AcDbEntity
  8
0
100
AcDbLine
 10
11.18037512936423
 20
7.231958455796026
 30
0.0
 11
11.1813332137157
 21
7.231313892473488
 31
0.0
  0
LINE
  5
58C1
330
5710
100
AcDbEntity
  8
0
100
AcDbLine
 10
11.17932404988064
 20
7.232294961595479
 30
0.0
 11
11.18037512936423
 21
7.231958455796026
 31
0.0
  0
LINE
  5
58C2
330
5710
100
AcDbEntity
  8
0
100
AcDbLine
 10
11.17825160459478
 20
7.232300477557665
 30
0.0
 11
11.17932404988064
 21
7.232294961595479
 31
0.0
  0
LINE
  5
58C3
330
5710
100
AcDbEntity
  8
0
100
AcDbLine
 10
11.14290256566886
 20
7.222575641858107
 30
0.0
 11
11.1696167111556
 21
7.222575641858108
 31
0.0
  0
LINE
  5
58C4
330
5710
100
AcDbEntity
  8
0
100
AcDbLine
 10
11.14290256566886
 20
7.232300477557665
 30
0.0
 11
11.17454094910494
 21
7.232300477557665
 31
0.0
  0
LINE
  5
58C5
330
5710
100
AcDbEntity
  8
0
100
AcDbLine
 10
11.17454094910494
 20
7.232300477557665
 30
0.0
 11
11.17825160459478
 21
7.232300477557665
 31
0.0
  0
LINE
  5
58C6
330
5710
100
AcDbEntity
  8
0
100
AcDbLine
 10
11.14290256566886
 20
7.220488397575427
 30
0.0
 11
11.11155357080469
 21
7.220488397575412
 31
0.0
  0
LINE
  5
58C7
330
5710
100
AcDbEntity
  8
0
100
AcDbLine
 10
11.14290256566886
 20
7.222575641858107
 30
0.0
 11
11.11155357080469
 21
7.222575641858107
 31
0.0
  0
LINE
  5
58C8
330
5710
100
AcDbEntity
  8
0
100
AcDbLine
 10
11.14290256566886
 20
7.230213233274985
 30
0.0
 11
11.11155357080469
 21
7.230213233274985
 31
0.0
  0
LINE
  5
58C9
330
5710
100
AcDbEntity
  8
0
100
AcDbLine
 10
11.14290256566886
 20
7.232300477557665
 30
0.0
 11
11.11155357080469
 21
7.232300477557665
 31
0.0
  0
LINE
  5
58CA
330
5710
100
AcDbEntity
  8
0
100
AcDbLine
 10
11.18311286570769
 20
6.979300477557704
 30
0.0
 11
11.18311286570769
 21
7.184823630712915
 31
0.0
  0
LINE
  5
58CB
330
5710
100
AcDbEntity
  8
0
100
AcDbLine
 10
11.18102562142502
 20
7.162273890067278
 30
0.0
 11
11.18102562142502
 21
7.131209329467387
 31
0.0
  0
LINE
  5
58CC
330
5710
100
AcDbEntity
  8
0
100
AcDbLine
 10
11.17130078572543
 20
7.162273890067278
 30
0.0
 11
11.17130078572543
 21
7.130635506631199
 31
0.0
  0
LINE
  5
58CD
330
5710
100
AcDbEntity
  8
0
100
AcDbLine
 10
11.17338803000814
 20
7.162273890067278
 30
0.0
 11
11.17338803000814
 21
7.132098049229553
 31
0.0
  0
LINE
  5
58CE
330
5710
100
AcDbEntity
  8
0
100
AcDbLine
 10
11.1831128657077
 20
7.162273890067278
 30
0.0
 11
11.18311922088597
 21
7.127618862850087
 31
0.0
  0
LINE
  5
58CF
330
5710
100
AcDbEntity
  8
0
100
AcDbLine
 10
11.17130078572545
 20
7.130924895203111
 30
0.0
 11
11.17130078572543
 21
7.162273890067278
 31
0.0
  0
LINE
  5
58D0
330
5710
100
AcDbEntity
  8
0
100
AcDbLine
 10
11.17338803000813
 20
7.130924895203111
 30
0.0
 11
11.17338803000813
 21
7.162273890067278
 31
0.0
  0
LINE
  5
58D1
330
5710
100
AcDbEntity
  8
0
100
AcDbLine
 10
11.18102562142501
 20
7.130924895203111
 30
0.0
 11
11.18102562142501
 21
7.162273890067278
 31
0.0
  0
LINE
  5
58D2
330
5710
100
AcDbEntity
  8
0
100
AcDbLine
 10
11.18311286570769
 20
7.130924895203111
 30
0.0
 11
11.18311286570769
 21
7.162273890067278
 31
0.0
  0
LINE
  5
58D3
330
5710
100
AcDbEntity
  8
0
100
AcDbLine
 10
11.18102562142501
 20
7.162273890067278
 30
0.0
 11
11.181025621425
 21
7.184849507921761
 31
0.0
  0
LINE
  5
58D4
330
5710
100
AcDbEntity
  8
0
100
AcDbLine
 10
11.17130078572543
 20
7.162273890067278
 30
0.0
 11
11.17130078572542
 21
7.175194943659858
 31
0.0
  0
LINE
  5
58D5
330
5710
100
AcDbEntity
  8
0
100
AcDbLine
 10
11.17338803000814
 20
7.203461810084985
 30
0.0
 11
11.17338803000814
 21
7.217439641878653
 31
0.0
  0
LINE
  5
58D6
330
5710
100
AcDbEntity
  8
0
100
AcDbLine
 10
11.18311286570769
 20
7.226011550730622
 30
0.0
 11
11.18311286570769
 21
7.226777324402442
 31
0.0
  0
LINE
  5
58D7
330
5710
100
AcDbEntity
  8
0
100
AcDbLine
 10
11.18012122070389
 20
7.228323471729865
 30
0.0
 11
11.18070822619272
 21
7.227212571268736
 31
0.0
  0
LINE
  5
58D8
330
5710
100
AcDbEntity
  8
0
100
AcDbLine
 10
11.18070822619272
 20
7.227212571268736
 30
0.0
 11
11.18104243636225
 21
7.225975171297491
 31
0.0
  0
LINE
  5
58D9
330
5710
100
AcDbEntity
  8
0
100
AcDbLine
 10
11.17932142334976
 20
7.229232166650248
 30
0.0
 11
11.18012122070389
 21
7.228323471729865
 31
0.0
  0
LINE
  5
58DA
330
5710
100
AcDbEntity
  8
0
100
AcDbLine
 10
11.17836333899828
 20
7.229876729972787
 30
0.0
 11
11.17932142334976
 21
7.229232166650248
 31
0.0
  0
LINE
  5
58DB
330
5710
100
AcDbEntity
  8
0
100
AcDbLine
 10
11.1773122595147
 20
7.230213235772239
 30
0.0
 11
11.17836333899828
 21
7.229876729972787
 31
0.0
  0
LINE
  5
58DC
330
5710
100
AcDbEntity
  8
0
100
AcDbLine
 10
11.17242566454459
 20
7.220685880312988
 30
0.0
 11
11.17301267003342
 21
7.219574979851859
 31
0.0
  0
LINE
  5
58DD
330
5710
100
AcDbEntity
  8
0
100
AcDbLine
 10
11.17334688020295
 20
7.218337579880614
 30
0.0
 11
11.17340551918245
 21
7.217058007162325
 31
0.0
  0
LINE
  5
58DE
330
5710
100
AcDbEntity
  8
0
100
AcDbLine
 10
11.17301267003342
 20
7.219574979851859
 30
0.0
 11
11.17334688020295
 21
7.218337579880614
 31
0.0
  0
LINE
  5
58DF
330
5710
100
AcDbEntity
  8
0
100
AcDbLine
 10
11.17162586719046
 20
7.221594575233371
 30
0.0
 11
11.17242566454459
 21
7.220685880312988
 31
0.0
  0
LINE
  5
58E0
330
5710
100
AcDbEntity
  8
0
100
AcDbLine
 10
11.17066778283898
 20
7.222239138555909
 30
0.0
 11
11.17162586719046
 21
7.221594575233371
 31
0.0
  0
LINE
  5
58E1
330
5710
100
AcDbEntity
  8
0
100
AcDbLine
 10
11.1696167033554
 20
7.222575644355362
 30
0.0
 11
11.17066778283898
 21
7.222239138555909
 31
0.0
  0
LINE
  5
58E2
330
5710
100
AcDbEntity
  8
0
100
AcDbLine
 10
11.17041387417865
 20
7.218604154489749
 30
0.0
 11
11.17100087966748
 21
7.21749325402862
 31
0.0
  0
LINE
  5
58E3
330
5710
100
AcDbEntity
  8
0
100
AcDbLine
 10
11.17100087966748
 20
7.21749325402862
 30
0.0
 11
11.17133508983701
 21
7.216255854057375
 31
0.0
  0
LINE
  5
58E4
330
5710
100
AcDbEntity
  8
0
100
AcDbLine
 10
11.16961407682452
 20
7.219512849410132
 30
0.0
 11
11.17041387417865
 21
7.218604154489749
 31
0.0
  0
LINE
  5
58E5
330
5710
100
AcDbEntity
  8
0
100
AcDbLine
 10
11.16865599247304
 20
7.22015741273267
 30
0.0
 11
11.16961407682452
 21
7.219512849410132
 31
0.0
  0
LINE
  5
58E6
330
5710
100
AcDbEntity
  8
0
100
AcDbLine
 10
11.16760491298946
 20
7.220493918532123
 30
0.0
 11
11.16865599247304
 21
7.22015741273267
 31
0.0
  0
LINE
  5
58E7
330
5710
100
AcDbEntity
  8
0
100
AcDbLine
 10
11.18102562142502
 20
7.131209329467387
 30
0.0
 11
11.18102562142502
 21
6.979300477557703
 31
0.0
  0
LINE
  5
58E8
330
5710
100
AcDbEntity
  8
0
100
AcDbLine
 10
11.17130078572543
 20
6.97930047755771
 30
0.0
 11
11.17130078572543
 21
7.130635506631199
 31
0.0
  0
LINE
  5
58E9
330
5710
100
AcDbEntity
  8
0
100
AcDbLine
 10
11.17338803000813
 20
7.130924895203111
 30
0.0
 11
11.17338803000813
 21
6.979300477557703
 31
0.0
  0
LINE
  5
58EA
330
5710
100
AcDbEntity
  8
0
100
AcDbLine
 10
11.17133508983701
 20
7.216255854057375
 30
0.0
 11
11.17130078572542
 21
7.175194943659858
 31
0.0
  0
LINE
  5
58EB
330
5710
100
AcDbEntity
  8
0
100
AcDbLine
 10
11.17338803000813
 20
7.162273890067278
 30
0.0
 11
11.17338803000814
 21
7.203461810084985
 31
0.0
  0
LINE
  5
58EC
330
5710
100
AcDbEntity
  8
0
100
AcDbLine
 10
11.18104243636225
 20
7.225975171297491
 30
0.0
 11
11.181025621425
 21
7.184849507921761
 31
0.0
  0
LINE
  5
58ED
330
5710
100
AcDbEntity
  8
0
100
AcDbLine
 10
11.18311286570769
 20
7.226011550730622
 30
0.0
 11
11.18311286570769
 21
7.184823630712915
 31
0.0
  0
MTEXT
  5
58EE
102
{ACAD_XDICTIONARY
360
5A8D
102
}
330
5710
100
AcDbEntity
  8
STREFA BEZPIECZEŃSTWA
100
AcDbMText
 10
8.378320259522341
 20
5.475549238861202
 30
0.0
 40
0.2
 41
9.245056351110271
 71
     1
 72
     5
  1
{\fArial|b0|i0|c238|p34;Hu\U+015Btawka wahad\U+0142owa podw\U+00F3jna nr kat. 2.2.03}
 73
     1
 44
1.0
  0
LINE
  5
58EF
330
5710
100
AcDbEntity
  8
0
100
AcDbLine
 10
10.94717012855885
 20
8.453145084887561
 30
0.0
 11
10.94788699787289
 21
8.45224419071574
 31
0.0
  0
LINE
  5
58F0
330
5710
100
AcDbEntity
  8
0
100
AcDbLine
 10
10.94652239938121
 20
8.456764586803879
 30
0.0
 11
10.94646376040171
 21
8.455485014085619
 31
0.0
  0
LINE
  5
58F1
330
5710
100
AcDbEntity
  8
0
100
AcDbLine
 10
10.95025257622876
 20
8.461002651278628
 30
0.0
 11
10.94920149674518
 21
8.460666145479203
 31
0.0
  0
LINE
  5
58F2
330
5710
100
AcDbEntity
  8
0
100
AcDbLine
 10
10.9482434123937
 20
8.460021582156665
 30
0.0
 11
10.94744361503957
 21
8.459112887236253
 31
0.0
  0
LINE
  5
58F3
330
5710
100
AcDbEntity
  8
0
100
AcDbLine
 10
10.94878644324488
 20
8.451609181319989
 30
0.0
 11
10.9498071689591
 21
8.451283331541256
 31
0.0
  0
LINE
  5
58F4
330
5710
100
AcDbEntity
  8
0
100
AcDbLine
 10
10.94788699787289
 20
8.45224419071574
 30
0.0
 11
10.94878644324488
 21
8.451609181319989
 31
0.0
  0
LINE
  5
58F5
330
5710
100
AcDbEntity
  8
0
100
AcDbLine
 10
10.9466846887618
 20
8.454250469386474
 30
0.0
 11
10.94717012855885
 21
8.453145084887561
 31
0.0
  0
LINE
  5
58F6
330
5710
100
AcDbEntity
  8
0
100
AcDbLine
 10
10.94646376040171
 20
8.455485014085619
 30
0.0
 11
10.9466846887618
 21
8.454250469386474
 31
0.0
  0
LINE
  5
58F7
330
5710
100
AcDbEntity
  8
0
100
AcDbLine
 10
10.94685660955074
 20
8.458001986775153
 30
0.0
 11
10.94652239938121
 21
8.456764586803879
 31
0.0
  0
LINE
  5
58F8
330
5710
100
AcDbEntity
  8
0
100
AcDbLine
 10
10.94744361503957
 20
8.459112887236253
 30
0.0
 11
10.94685660955074
 21
8.458001986775153
 31
0.0
  0
LINE
  5
58F9
330
5710
100
AcDbEntity
  8
0
100
AcDbLine
 10
10.94920149674518
 20
8.460666145479203
 30
0.0
 11
10.9482434123937
 21
8.460021582156665
 31
0.0
  0
LINE
  5
58FA
330
5710
100
AcDbEntity
  8
0
100
AcDbLine
 10
10.95132502151463
 20
8.461008167240814
 30
0.0
 11
10.95025257622876
 21
8.461002651278628
 31
0.0
  0
LINE
  5
58FB
330
5710
100
AcDbEntity
  8
0
100
AcDbLine
 10
11.18454395186145
 20
7.985118975307566
 30
0.0
 11
11.18541176379236
 21
7.986878723822096
 31
0.0
  0
LINE
  5
58FC
330
5710
100
AcDbEntity
  8
0
100
AcDbLine
 10
11.18345387090906
 20
7.983487553872445
 30
0.0
 11
11.18454395186145
 21
7.985118975307566
 31
0.0
  0
LINE
  5
58FD
330
5710
100
AcDbEntity
  8
0
100
AcDbLine
 10
10.9440535708047
 20
8.475609356364353
 30
0.0
 11
10.94581331931922
 21
8.476477168295255
 31
0.0
  0
LINE
  5
58FE
330
5710
100
AcDbEntity
  8
0
100
AcDbLine
 10
11.11155357080469
 20
7.977618975307573
 30
0.0
 11
11.17155357080469
 21
7.977618975307573
 31
0.0
  0
LINE
  5
58FF
330
5710
100
AcDbEntity
  8
0
100
AcDbLine
 10
10.94242214936956
 20
8.474519275411958
 30
0.0
 11
10.94094696908689
 21
8.473225577025383
 31
0.0
  0
LINE
  5
5900
330
5710
100
AcDbEntity
  8
0
100
AcDbLine
 10
11.18216017252249
 20
7.982012373589762
 30
0.0
 11
11.18345387090906
 21
7.983487553872445
 31
0.0
  0
LINE
  5
5901
330
5710
100
AcDbEntity
  8
0
100
AcDbLine
 10
10.94581331931922
 20
8.476477168295255
 30
0.0
 11
10.94767128512816
 21
8.477107862701908
 31
0.0
  0
LINE
  5
5902
330
5710
100
AcDbEntity
  8
0
100
AcDbLine
 10
11.17905357080469
 20
7.979628594250792
 30
0.0
 11
11.18068499223982
 21
7.980718675203215
 31
0.0
  0
LINE
  5
5903
330
5710
100
AcDbEntity
  8
0
100
AcDbLine
 10
10.93965327070033
 20
8.471750396742701
 30
0.0
 11
10.93856318974793
 21
8.470118975307579
 31
0.0
  0
LINE
  5
5904
330
5710
100
AcDbEntity
  8
0
100
AcDbLine
 10
11.18541176379236
 20
7.986878723822096
 30
0.0
 11
11.18604245819902
 21
7.988736689631034
 31
0.0
  0
LINE
  5
5905
330
5710
100
AcDbEntity
  8
0
100
AcDbLine
 10
11.17543585648123
 20
7.978130087913237
 30
0.0
 11
11.17351146368799
 21
7.977747302386953
 31
0.0
  0
LINE
  5
5906
330
5710
100
AcDbEntity
  8
0
100
AcDbLine
 10
11.1864252437253
 20
7.990661082424262
 30
0.0
 11
11.18655357080469
 21
7.992618975307587
 31
0.0
  0
LINE
  5
5907
330
5710
100
AcDbEntity
  8
0
100
AcDbLine
 10
11.18604245819902
 20
7.988736689631034
 30
0.0
 11
11.1864252437253
 21
7.990661082424262
 31
0.0
  0
LINE
  5
5908
330
5710
100
AcDbEntity
  8
0
100
AcDbLine
 10
10.9440535708047
 20
8.475609356364353
 30
0.0
 11
10.94242214936956
 21
8.474519275411958
 31
0.0
  0
LINE
  5
5909
330
5710
100
AcDbEntity
  8
0
100
AcDbLine
 10
11.17905357080469
 20
7.979628594250792
 30
0.0
 11
11.17729382229017
 21
7.97876078231989
 31
0.0
  0
LINE
  5
590A
330
5710
100
AcDbEntity
  8
0
100
AcDbLine
 10
10.94767128512816
 20
8.477107862701908
 30
0.0
 11
10.94959567792139
 21
8.477490648228192
 31
0.0
  0
LINE
  5
590B
330
5710
100
AcDbEntity
  8
0
100
AcDbLine
 10
11.17729382229017
 20
7.97876078231989
 30
0.0
 11
11.17543585648123
 21
7.978130087913237
 31
0.0
  0
LINE
  5
590C
330
5710
100
AcDbEntity
  8
0
100
AcDbLine
 10
10.94959567792139
 20
8.477490648228192
 30
0.0
 11
10.9515535708047
 21
8.477618975307573
 31
0.0
  0
LINE
  5
590D
330
5710
100
AcDbEntity
  8
0
100
AcDbLine
 10
11.18068499223982
 20
7.980718675203215
 30
0.0
 11
11.18216017252249
 21
7.982012373589762
 31
0.0
  0
LINE
  5
590E
330
5710
100
AcDbEntity
  8
0
100
AcDbLine
 10
10.93856318974793
 20
8.470118975307579
 30
0.0
 11
10.93769537781703
 21
8.468359226793049
 31
0.0
  0
LINE
  5
590F
330
5710
100
AcDbEntity
  8
0
100
AcDbLine
 10
11.01155357080469
 20
8.477618975307573
 30
0.0
 11
10.9515535708047
 21
8.477618975307573
 31
0.0
  0
LINE
  5
5910
330
5710
100
AcDbEntity
  8
0
100
AcDbLine
 10
10.93706468341036
 20
8.466501260984111
 30
0.0
 11
10.93668189788409
 21
8.464576868190883
 31
0.0
  0
LINE
  5
5911
330
5710
100
AcDbEntity
  8
0
100
AcDbLine
 10
10.94094696908689
 20
8.473225577025383
 30
0.0
 11
10.93965327070033
 21
8.471750396742701
 31
0.0
  0
LINE
  5
5912
330
5710
100
AcDbEntity
  8
0
100
AcDbLine
 10
10.93668189788409
 20
8.464576868190883
 30
0.0
 11
10.9365535708047
 21
8.462618975307558
 31
0.0
  0
LINE
  5
5913
330
5710
100
AcDbEntity
  8
0
100
AcDbLine
 10
11.17351146368799
 20
7.977747302386953
 30
0.0
 11
11.17155357080469
 21
7.977618975307573
 31
0.0
  0
LINE
  5
5914
330
5710
100
AcDbEntity
  8
0
100
AcDbLine
 10
10.93769537781703
 20
8.468359226793049
 30
0.0
 11
10.93706468341036
 21
8.466501260984111
 31
0.0
  0
LINE
  5
5915
330
5710
100
AcDbEntity
  8
0
100
AcDbLine
 10
10.98667406044054
 20
8.451283331541256
 30
0.0
 11
10.95649821960281
 21
8.451283331541256
 31
0.0
  0
LINE
  5
5916
330
5710
100
AcDbEntity
  8
0
100
AcDbLine
 10
10.95649821960281
 20
8.451283331541256
 30
0.0
 11
10.9498071689591
 21
8.451283331541256
 31
0.0
  0
LINE
  5
5917
330
5710
100
AcDbEntity
  8
0
100
AcDbLine
 10
10.98667406044054
 20
8.461008167240814
 30
0.0
 11
10.95201903322335
 21
8.461014522419086
 31
0.0
  0
LINE
  5
5918
330
5710
100
AcDbEntity
  8
0
100
AcDbLine
 10
10.95201903322335
 20
8.461014522419086
 30
0.0
 11
10.95132502151463
 21
8.461008167240814
 31
0.0
  0
LINE
  5
5919
330
5710
100
AcDbEntity
  8
0
100
AcDbLine
 10
11.11155357080469
 20
7.998283331541253
 30
0.0
 11
11.14261813140458
 21
7.998283331541253
 31
0.0
  0
LINE
  5
591A
330
5710
100
AcDbEntity
  8
0
100
AcDbLine
 10
11.14261813140458
 20
7.998283331541253
 30
0.0
 11
11.14842046228613
 21
7.998283331541253
 31
0.0
  0
LINE
  5
591B
330
5710
100
AcDbEntity
  8
0
100
AcDbLine
 10
11.11155357080469
 20
8.00800816724084
 30
0.0
 11
11.14319195424077
 21
8.00800816724084
 31
0.0
  0
LINE
  5
591C
330
5710
100
AcDbEntity
  8
0
100
AcDbLine
 10
11.14319195424077
 20
8.00800816724084
 30
0.0
 11
11.14690260973061
 21
8.00800816724084
 31
0.0
  0
LINE
  5
591D
330
5710
100
AcDbEntity
  8
0
100
AcDbLine
 10
10.9365535708047
 20
8.462618975307558
 30
0.0
 11
10.9365535708047
 21
7.992618975307587
 31
0.0
  0
LINE
  5
591E
330
5710
100
AcDbEntity
  8
0
100
AcDbLine
 10
10.93856318974792
 20
7.985118975307566
 30
0.0
 11
10.93769537781703
 21
7.986878723822096
 31
0.0
  0
LINE
  5
591F
330
5710
100
AcDbEntity
  8
0
100
AcDbLine
 10
10.93965327070032
 20
7.983487553872445
 30
0.0
 11
10.93856318974792
 21
7.985118975307566
 31
0.0
  0
LINE
  5
5920
330
5710
100
AcDbEntity
  8
0
100
AcDbLine
 10
11.17905357080469
 20
8.475609356364353
 30
0.0
 11
11.17729382229017
 21
8.476477168295255
 31
0.0
  0
LINE
  5
5921
330
5710
100
AcDbEntity
  8
0
100
AcDbLine
 10
11.01155357080469
 20
7.977618975307573
 30
0.0
 11
10.95155357080469
 21
7.977618975307573
 31
0.0
  0
LINE
  5
5922
330
5710
100
AcDbEntity
  8
0
100
AcDbLine
 10
11.18068499223982
 20
8.474519275411958
 30
0.0
 11
11.18216017252249
 21
8.473225577025383
 31
0.0
  0
LINE
  5
5923
330
5710
100
AcDbEntity
  8
0
100
AcDbLine
 10
10.94094696908689
 20
7.982012373589762
 30
0.0
 11
10.93965327070032
 21
7.983487553872445
 31
0.0
  0
LINE
  5
5924
330
5710
100
AcDbEntity
  8
0
100
AcDbLine
 10
11.17729382229017
 20
8.476477168295255
 30
0.0
 11
11.17543585648123
 21
8.477107862701908
 31
0.0
  0
LINE
  5
5925
330
5710
100
AcDbEntity
  8
0
100
AcDbLine
 10
10.94405357080469
 20
7.979628594250792
 30
0.0
 11
10.94242214936956
 21
7.980718675203215
 31
0.0
  0
LINE
  5
5926
330
5710
100
AcDbEntity
  8
0
100
AcDbLine
 10
11.18345387090906
 20
8.471750396742701
 30
0.0
 11
11.18454395186146
 21
8.470118975307579
 31
0.0
  0
LINE
  5
5927
330
5710
100
AcDbEntity
  8
0
100
AcDbLine
 10
10.93769537781703
 20
7.986878723822096
 30
0.0
 11
10.93706468341036
 21
7.988736689631034
 31
0.0
  0
LINE
  5
5928
330
5710
100
AcDbEntity
  8
0
100
AcDbLine
 10
10.94767128512816
 20
7.978130087913237
 30
0.0
 11
10.94959567792139
 21
7.977747302386953
 31
0.0
  0
LINE
  5
5929
330
5710
100
AcDbEntity
  8
0
100
AcDbLine
 10
10.93668189788409
 20
7.990661082424262
 30
0.0
 11
10.9365535708047
 21
7.992618975307587
 31
0.0
  0
LINE
  5
592A
330
5710
100
AcDbEntity
  8
0
100
AcDbLine
 10
10.93706468341036
 20
7.988736689631034
 30
0.0
 11
10.93668189788409
 21
7.990661082424262
 31
0.0
  0
LINE
  5
592B
330
5710
100
AcDbEntity
  8
0
100
AcDbLine
 10
11.17905357080469
 20
8.475609356364353
 30
0.0
 11
11.18068499223982
 21
8.474519275411958
 31
0.0
  0
LINE
  5
592C
330
5710
100
AcDbEntity
  8
0
100
AcDbLine
 10
10.94405357080469
 20
7.979628594250792
 30
0.0
 11
10.94581331931921
 21
7.97876078231989
 31
0.0
  0
LINE
  5
592D
330
5710
100
AcDbEntity
  8
0
100
AcDbLine
 10
11.17543585648123
 20
8.477107862701908
 30
0.0
 11
11.17351146368799
 21
8.477490648228192
 31
0.0
  0
LINE
  5
592E
330
5710
100
AcDbEntity
  8
0
100
AcDbLine
 10
10.94581331931921
 20
7.97876078231989
 30
0.0
 11
10.94767128512816
 21
7.978130087913237
 31
0.0
  0
LINE
  5
592F
330
5710
100
AcDbEntity
  8
0
100
AcDbLine
 10
11.17351146368799
 20
8.477490648228192
 30
0.0
 11
11.17155357080469
 21
8.477618975307573
 31
0.0
  0
LINE
  5
5930
330
5710
100
AcDbEntity
  8
0
100
AcDbLine
 10
10.94242214936956
 20
7.980718675203215
 30
0.0
 11
10.94094696908689
 21
7.982012373589762
 31
0.0
  0
LINE
  5
5931
330
5710
100
AcDbEntity
  8
0
100
AcDbLine
 10
11.18454395186146
 20
8.470118975307579
 30
0.0
 11
11.18541176379236
 21
8.468359226793049
 31
0.0
  0
LINE
  5
5932
330
5710
100
AcDbEntity
  8
0
100
AcDbLine
 10
11.11155357080469
 20
8.477618975307573
 30
0.0
 11
11.17155357080469
 21
8.477618975307573
 31
0.0
  0
LINE
  5
5933
330
5710
100
AcDbEntity
  8
0
100
AcDbLine
 10
11.18604245819903
 20
8.466501260984111
 30
0.0
 11
11.1864252437253
 21
8.464576868190883
 31
0.0
  0
LINE
  5
5934
330
5710
100
AcDbEntity
  8
0
100
AcDbLine
 10
11.18216017252249
 20
8.473225577025383
 30
0.0
 11
11.18345387090906
 21
8.471750396742701
 31
0.0
  0
LINE
  5
5935
330
5710
100
AcDbEntity
  8
0
100
AcDbLine
 10
11.1864252437253
 20
8.464576868190883
 30
0.0
 11
11.18655357080469
 21
8.462618975307558
 31
0.0
  0
LINE
  5
5936
330
5710
100
AcDbEntity
  8
0
100
AcDbLine
 10
10.94959567792139
 20
7.977747302386953
 30
0.0
 11
10.95155357080469
 21
7.977618975307573
 31
0.0
  0
LINE
  5
5937
330
5710
100
AcDbEntity
  8
0
100
AcDbLine
 10
11.18541176379236
 20
8.468359226793049
 30
0.0
 11
11.18604245819903
 21
8.466501260984111
 31
0.0
  0
LINE
  5
5938
330
5710
100
AcDbEntity
  8
0
100
AcDbLine
 10
11.01155357080469
 20
7.998283331541253
 30
0.0
 11
10.9804890102048
 21
7.998283331541253
 31
0.0
  0
LINE
  5
5939
330
5710
100
AcDbEntity
  8
0
100
AcDbLine
 10
10.9804890102048
 20
7.998283331541253
 30
0.0
 11
10.97468667932325
 21
7.998283331541253
 31
0.0
  0
LINE
  5
593A
330
5710
100
AcDbEntity
  8
0
100
AcDbLine
 10
11.01155357080469
 20
8.00800816724084
 30
0.0
 11
10.97991518736861
 21
8.00800816724084
 31
0.0
  0
LINE
  5
593B
330
5710
100
AcDbEntity
  8
0
100
AcDbLine
 10
10.97991518736861
 20
8.00800816724084
 30
0.0
 11
10.97620453187877
 21
8.00800816724084
 31
0.0
  0
LINE
  5
593C
330
5710
100
AcDbEntity
  8
0
100
AcDbLine
 10
11.18655357080469
 20
8.462618975307558
 30
0.0
 11
11.18655357080469
 21
7.992618975307587
 31
0.0
  0
LINE
  5
593D
330
5710
100
AcDbEntity
  8
0
100
AcDbLine
 10
10.94788699787289
 20
8.45796006378365
 30
0.0
 11
10.94878644324488
 21
8.458595073179401
 31
0.0
  0
LINE
  5
593E
330
5710
100
AcDbEntity
  8
0
100
AcDbLine
 10
10.94744361503957
 20
8.451091367263137
 30
0.0
 11
10.94685660955074
 21
8.452202267724265
 31
0.0
  0
LINE
  5
593F
330
5710
100
AcDbEntity
  8
0
100
AcDbLine
 10
10.94646376040171
 20
8.454719240413799
 30
0.0
 11
10.9466846887618
 21
8.455953785112916
 31
0.0
  0
LINE
  5
5940
330
5710
100
AcDbEntity
  8
0
100
AcDbLine
 10
10.94878644324488
 20
8.458595073179401
 30
0.0
 11
10.9498071689591
 21
8.458920922958133
 31
0.0
  0
LINE
  5
5941
330
5710
100
AcDbEntity
  8
0
100
AcDbLine
 10
10.93856318974793
 20
8.472085279191821
 30
0.0
 11
10.93769537781703
 21
8.470325530677319
 31
0.0
  0
LINE
  5
5942
330
5710
100
AcDbEntity
  8
0
100
AcDbLine
 10
10.93965327070033
 20
8.473716700626971
 30
0.0
 11
10.93856318974793
 21
8.472085279191821
 31
0.0
  0
LINE
  5
5943
330
5710
100
AcDbEntity
  8
0
100
AcDbLine
 10
11.17905357080469
 20
7.981594898135062
 30
0.0
 11
11.17729382229017
 21
7.98072708620416
 31
0.0
  0
LINE
  5
5944
330
5710
100
AcDbEntity
  8
0
100
AcDbLine
 10
11.01155357080469
 20
8.479585279191843
 30
0.0
 11
10.9515535708047
 21
8.479585279191843
 31
0.0
  0
LINE
  5
5945
330
5710
100
AcDbEntity
  8
0
100
AcDbLine
 10
11.18068499223982
 20
7.982684979087457
 30
0.0
 11
11.18216017252249
 21
7.983978677474032
 31
0.0
  0
LINE
  5
5946
330
5710
100
AcDbEntity
  8
0
100
AcDbLine
 10
10.94094696908689
 20
8.475191880909653
 30
0.0
 11
10.93965327070033
 21
8.473716700626971
 31
0.0
  0
LINE
  5
5947
330
5710
100
AcDbEntity
  8
0
100
AcDbLine
 10
11.17729382229017
 20
7.98072708620416
 30
0.0
 11
11.17543585648123
 21
7.980096391797479
 31
0.0
  0
LINE
  5
5948
330
5710
100
AcDbEntity
  8
0
100
AcDbLine
 10
10.9440535708047
 20
8.477575660248595
 30
0.0
 11
10.94242214936956
 21
8.4764855792962
 31
0.0
  0
LINE
  5
5949
330
5710
100
AcDbEntity
  8
0
100
AcDbLine
 10
11.18345387090906
 20
7.985453857756686
 30
0.0
 11
11.18454395186145
 21
7.987085279191836
 31
0.0
  0
LINE
  5
594A
330
5710
100
AcDbEntity
  8
0
100
AcDbLine
 10
10.93769537781703
 20
8.470325530677319
 30
0.0
 11
10.93706468341036
 21
8.468467564868381
 31
0.0
  0
LINE
  5
594B
330
5710
100
AcDbEntity
  8
0
100
AcDbLine
 10
10.94767128512816
 20
8.479074166586178
 30
0.0
 11
10.94959567792139
 21
8.479456952112434
 31
0.0
  0
LINE
  5
594C
330
5710
100
AcDbEntity
  8
0
100
AcDbLine
 10
10.93668189788409
 20
8.466543172075125
 30
0.0
 11
10.9365535708047
 21
8.464585279191828
 31
0.0
  0
LINE
  5
594D
330
5710
100
AcDbEntity
  8
0
100
AcDbLine
 10
10.93706468341036
 20
8.468467564868381
 30
0.0
 11
10.93668189788409
 21
8.466543172075125
 31
0.0
  0
LINE
  5
594E
330
5710
100
AcDbEntity
  8
0
100
AcDbLine
 10
11.17905357080469
 20
7.981594898135062
 30
0.0
 11
11.18068499223982
 21
7.982684979087457
 31
0.0
  0
LINE
  5
594F
330
5710
100
AcDbEntity
  8
0
100
AcDbLine
 10
10.9440535708047
 20
8.477575660248595
 30
0.0
 11
10.94581331931922
 21
8.478443472179497
 31
0.0
  0
LINE
  5
5950
330
5710
100
AcDbEntity
  8
0
100
AcDbLine
 10
11.17543585648123
 20
7.980096391797479
 30
0.0
 11
11.17351146368799
 21
7.979713606271223
 31
0.0
  0
LINE
  5
5951
330
5710
100
AcDbEntity
  8
0
100
AcDbLine
 10
10.94581331931922
 20
8.478443472179497
 30
0.0
 11
10.94767128512816
 21
8.479074166586178
 31
0.0
  0
LINE
  5
5952
330
5710
100
AcDbEntity
  8
0
100
AcDbLine
 10
11.17351146368799
 20
7.979713606271223
 30
0.0
 11
11.17155357080469
 21
7.979585279191814
 31
0.0
  0
LINE
  5
5953
330
5710
100
AcDbEntity
  8
0
100
AcDbLine
 10
10.94242214936956
 20
8.4764855792962
 30
0.0
 11
10.94094696908689
 21
8.475191880909653
 31
0.0
  0
LINE
  5
5954
330
5710
100
AcDbEntity
  8
0
100
AcDbLine
 10
11.18454395186145
 20
7.987085279191836
 30
0.0
 11
11.18541176379236
 21
7.988845027706338
 31
0.0
  0
LINE
  5
5955
330
5710
100
AcDbEntity
  8
0
100
AcDbLine
 10
11.11155357080469
 20
7.979585279191814
 30
0.0
 11
11.17155357080469
 21
7.979585279191814
 31
0.0
  0
LINE
  5
5956
330
5710
100
AcDbEntity
  8
0
100
AcDbLine
 10
11.18604245819902
 20
7.990702993515304
 30
0.0
 11
11.1864252437253
 21
7.992627386308532
 31
0.0
  0
LINE
  5
5957
330
5710
100
AcDbEntity
  8
0
100
AcDbLine
 10
11.18216017252249
 20
7.983978677474032
 30
0.0
 11
11.18345387090906
 21
7.985453857756686
 31
0.0
  0
LINE
  5
5958
330
5710
100
AcDbEntity
  8
0
100
AcDbLine
 10
11.1864252437253
 20
7.992627386308532
 30
0.0
 11
11.18655357080469
 21
7.994585279191829
 31
0.0
  0
LINE
  5
5959
330
5710
100
AcDbEntity
  8
0
100
AcDbLine
 10
10.94959567792139
 20
8.479456952112434
 30
0.0
 11
10.9515535708047
 21
8.479585279191843
 31
0.0
  0
LINE
  5
595A
330
5710
100
AcDbEntity
  8
0
100
AcDbLine
 10
11.18541176379236
 20
7.988845027706338
 30
0.0
 11
11.18604245819902
 21
7.990702993515304
 31
0.0
  0
LINE
  5
595B
330
5710
100
AcDbEntity
  8
0
100
AcDbLine
 10
10.94717012855885
 20
8.457059169611829
 30
0.0
 11
10.94788699787289
 21
8.45796006378365
 31
0.0
  0
LINE
  5
595C
330
5710
100
AcDbEntity
  8
0
100
AcDbLine
 10
10.9466846887618
 20
8.455953785112916
 30
0.0
 11
10.94717012855885
 21
8.457059169611829
 31
0.0
  0
LINE
  5
595D
330
5710
100
AcDbEntity
  8
0
100
AcDbLine
 10
10.94652239938121
 20
8.45343966769551
 30
0.0
 11
10.94646376040171
 21
8.454719240413799
 31
0.0
  0
LINE
  5
595E
330
5710
100
AcDbEntity
  8
0
100
AcDbLine
 10
10.94685660955074
 20
8.452202267724265
 30
0.0
 11
10.94652239938121
 21
8.45343966769551
 31
0.0
  0
LINE
  5
595F
330
5710
100
AcDbEntity
  8
0
100
AcDbLine
 10
10.9482434123937
 20
8.450182672342753
 30
0.0
 11
10.94744361503957
 21
8.451091367263137
 31
0.0
  0
LINE
  5
5960
330
5710
100
AcDbEntity
  8
0
100
AcDbLine
 10
10.94920149674518
 20
8.449538109020215
 30
0.0
 11
10.9482434123937
 21
8.450182672342753
 31
0.0
  0
LINE
  5
5961
330
5710
100
AcDbEntity
  8
0
100
AcDbLine
 10
10.95025257622876
 20
8.449201603220762
 30
0.0
 11
10.94920149674518
 21
8.449538109020215
 31
0.0
  0
LINE
  5
5962
330
5710
100
AcDbEntity
  8
0
100
AcDbLine
 10
10.95132502151463
 20
8.449196087258576
 30
0.0
 11
10.95025257622876
 21
8.449201603220762
 31
0.0
  0
LINE
  5
5963
330
5710
100
AcDbEntity
  8
0
100
AcDbLine
 10
11.11155357080469
 20
8.00592092295813
 30
0.0
 11
11.14172941164242
 21
8.00592092295813
 31
0.0
  0
LINE
  5
5964
330
5710
100
AcDbEntity
  8
0
100
AcDbLine
 10
11.14172941164242
 20
8.00592092295813
 30
0.0
 11
11.14842046228613
 21
8.00592092295813
 31
0.0
  0
LINE
  5
5965
330
5710
100
AcDbEntity
  8
0
100
AcDbLine
 10
11.11155357080469
 20
7.996196087258573
 30
0.0
 11
11.14620859802188
 21
7.996189732080301
 31
0.0
  0
LINE
  5
5966
330
5710
100
AcDbEntity
  8
0
100
AcDbLine
 10
11.14620859802188
 20
7.996189732080301
 30
0.0
 11
11.14690260973061
 21
7.996196087258573
 31
0.0
  0
LINE
  5
5967
330
5710
100
AcDbEntity
  8
0
100
AcDbLine
 10
10.98667406044054
 20
8.458920922958133
 30
0.0
 11
10.95560949984065
 21
8.458920922958133
 31
0.0
  0
LINE
  5
5968
330
5710
100
AcDbEntity
  8
0
100
AcDbLine
 10
10.95560949984065
 20
8.458920922958133
 30
0.0
 11
10.9498071689591
 21
8.458920922958133
 31
0.0
  0
LINE
  5
5969
330
5710
100
AcDbEntity
  8
0
100
AcDbLine
 10
10.98667406044054
 20
8.449196087258576
 30
0.0
 11
10.95503567700446
 21
8.449196087258576
 31
0.0
  0
LINE
  5
596A
330
5710
100
AcDbEntity
  8
0
100
AcDbLine
 10
10.95503567700446
 20
8.449196087258576
 30
0.0
 11
10.95132502151463
 21
8.449196087258576
 31
0.0
  0
LINE
  5
596B
330
5710
100
AcDbEntity
  8
0
100
AcDbLine
 10
10.9365535708047
 20
7.994585279191829
 30
0.0
 11
10.9365535708047
 21
8.464585279191828
 31
0.0
  0
LINE
  5
596C
330
5710
100
AcDbEntity
  8
0
100
AcDbLine
 10
10.97620453187877
 20
7.996196087258573
 30
0.0
 11
10.97513208659291
 21
7.996201603220788
 31
0.0
  0
LINE
  5
596D
330
5710
100
AcDbEntity
  8
0
100
AcDbLine
 10
11.18454395186146
 20
8.472085279191821
 30
0.0
 11
11.18541176379236
 21
8.470325530677319
 31
0.0
  0
LINE
  5
596E
330
5710
100
AcDbEntity
  8
0
100
AcDbLine
 10
11.18345387090906
 20
8.473716700626971
 30
0.0
 11
11.18454395186146
 21
8.472085279191821
 31
0.0
  0
LINE
  5
596F
330
5710
100
AcDbEntity
  8
0
100
AcDbLine
 10
10.94405357080469
 20
7.981594898135062
 30
0.0
 11
10.94581331931921
 21
7.98072708620416
 31
0.0
  0
LINE
  5
5970
330
5710
100
AcDbEntity
  8
0
100
AcDbLine
 10
11.11155357080469
 20
8.479585279191843
 30
0.0
 11
11.17155357080469
 21
8.479585279191843
 31
0.0
  0
LINE
  5
5971
330
5710
100
AcDbEntity
  8
0
100
AcDbLine
 10
10.94242214936956
 20
7.982684979087457
 30
0.0
 11
10.94094696908689
 21
7.983978677474032
 31
0.0
  0
LINE
  5
5972
330
5710
100
AcDbEntity
  8
0
100
AcDbLine
 10
11.18216017252249
 20
8.475191880909653
 30
0.0
 11
11.18345387090906
 21
8.473716700626971
 31
0.0
  0
LINE
  5
5973
330
5710
100
AcDbEntity
  8
0
100
AcDbLine
 10
10.94581331931921
 20
7.98072708620416
 30
0.0
 11
10.94767128512816
 21
7.980096391797479
 31
0.0
  0
LINE
  5
5974
330
5710
100
AcDbEntity
  8
0
100
AcDbLine
 10
11.17905357080469
 20
8.477575660248595
 30
0.0
 11
11.18068499223982
 21
8.4764855792962
 31
0.0
  0
LINE
  5
5975
330
5710
100
AcDbEntity
  8
0
100
AcDbLine
 10
10.93965327070032
 20
7.985453857756686
 30
0.0
 11
10.93856318974792
 21
7.987085279191836
 31
0.0
  0
LINE
  5
5976
330
5710
100
AcDbEntity
  8
0
100
AcDbLine
 10
11.18541176379236
 20
8.470325530677319
 30
0.0
 11
11.18604245819903
 21
8.468467564868381
 31
0.0
  0
LINE
  5
5977
330
5710
100
AcDbEntity
  8
0
100
AcDbLine
 10
11.17543585648123
 20
8.479074166586178
 30
0.0
 11
11.17351146368799
 21
8.479456952112434
 31
0.0
  0
LINE
  5
5978
330
5710
100
AcDbEntity
  8
0
100
AcDbLine
 10
11.1864252437253
 20
8.466543172075125
 30
0.0
 11
11.18655357080469
 21
8.464585279191828
 31
0.0
  0
LINE
  5
5979
330
5710
100
AcDbEntity
  8
0
100
AcDbLine
 10
11.18604245819903
 20
8.468467564868381
 30
0.0
 11
11.1864252437253
 21
8.466543172075125
 31
0.0
  0
LINE
  5
597A
330
5710
100
AcDbEntity
  8
0
100
AcDbLine
 10
10.94405357080469
 20
7.981594898135062
 30
0.0
 11
10.94242214936956
 21
7.982684979087457
 31
0.0
  0
LINE
  5
597B
330
5710
100
AcDbEntity
  8
0
100
AcDbLine
 10
11.17905357080469
 20
8.477575660248595
 30
0.0
 11
11.17729382229017
 21
8.478443472179497
 31
0.0
  0
LINE
  5
597C
330
5710
100
AcDbEntity
  8
0
100
AcDbLine
 10
10.94767128512816
 20
7.980096391797479
 30
0.0
 11
10.94959567792139
 21
7.979713606271223
 31
0.0
  0
LINE
  5
597D
330
5710
100
AcDbEntity
  8
0
100
AcDbLine
 10
11.17729382229017
 20
8.478443472179497
 30
0.0
 11
11.17543585648123
 21
8.479074166586178
 31
0.0
  0
LINE
  5
597E
330
5710
100
AcDbEntity
  8
0
100
AcDbLine
 10
10.94959567792139
 20
7.979713606271223
 30
0.0
 11
10.95155357080469
 21
7.979585279191814
 31
0.0
  0
LINE
  5
597F
330
5710
100
AcDbEntity
  8
0
100
AcDbLine
 10
11.18068499223982
 20
8.4764855792962
 30
0.0
 11
11.18216017252249
 21
8.475191880909653
 31
0.0
  0
LINE
  5
5980
330
5710
100
AcDbEntity
  8
0
100
AcDbLine
 10
10.93856318974792
 20
7.987085279191836
 30
0.0
 11
10.93769537781703
 21
7.988845027706338
 31
0.0
  0
LINE
  5
5981
330
5710
100
AcDbEntity
  8
0
100
AcDbLine
 10
11.01155357080469
 20
7.979585279191814
 30
0.0
 11
10.95155357080469
 21
7.979585279191814
 31
0.0
  0
LINE
  5
5982
330
5710
100
AcDbEntity
  8
0
100
AcDbLine
 10
10.93706468341036
 20
7.990702993515304
 30
0.0
 11
10.93668189788409
 21
7.992627386308532
 31
0.0
  0
LINE
  5
5983
330
5710
100
AcDbEntity
  8
0
100
AcDbLine
 10
10.94094696908689
 20
7.983978677474032
 30
0.0
 11
10.93965327070032
 21
7.985453857756686
 31
0.0
  0
LINE
  5
5984
330
5710
100
AcDbEntity
  8
0
100
AcDbLine
 10
10.93668189788409
 20
7.992627386308532
 30
0.0
 11
10.9365535708047
 21
7.994585279191829
 31
0.0
  0
LINE
  5
5985
330
5710
100
AcDbEntity
  8
0
100
AcDbLine
 10
11.17351146368799
 20
8.479456952112434
 30
0.0
 11
11.17155357080469
 21
8.479585279191843
 31
0.0
  0
LINE
  5
5986
330
5710
100
AcDbEntity
  8
0
100
AcDbLine
 10
10.93769537781703
 20
7.988845027706338
 30
0.0
 11
10.93706468341036
 21
7.990702993515304
 31
0.0
  0
LINE
  5
5987
330
5710
100
AcDbEntity
  8
0
100
AcDbLine
 10
11.01155357080469
 20
8.00592092295813
 30
0.0
 11
10.98137772996697
 21
8.00592092295813
 31
0.0
  0
LINE
  5
5988
330
5710
100
AcDbEntity
  8
0
100
AcDbLine
 10
10.98137772996697
 20
8.00592092295813
 30
0.0
 11
10.97468667932325
 21
8.00592092295813
 31
0.0
  0
LINE
  5
5989
330
5710
100
AcDbEntity
  8
0
100
AcDbLine
 10
11.01155357080469
 20
7.996196087258573
 30
0.0
 11
10.9768985435875
 21
7.996189732080301
 31
0.0
  0
LINE
  5
598A
330
5710
100
AcDbEntity
  8
0
100
AcDbLine
 10
10.9768985435875
 20
7.996189732080301
 30
0.0
 11
10.97620453187877
 21
7.996196087258573
 31
0.0
  0
LINE
  5
598B
330
5710
100
AcDbEntity
  8
0
100
AcDbLine
 10
11.18655357080469
 20
7.994585279191829
 30
0.0
 11
11.18655357080469
 21
8.464585279191828
 31
0.0
  0
LINE
  5
598C
330
5710
100
AcDbEntity
  8
0
100
AcDbLine
 10
10.98667406044054
 20
8.461008167240814
 30
0.0
 11
11.01155357080469
 21
8.461008167240814
 31
0.0
  0
LINE
  5
598D
330
5710
100
AcDbEntity
  8
0
100
AcDbLine
 10
10.98667406044054
 20
8.458920922958133
 30
0.0
 11
11.01155357080469
 21
8.458920922958133
 31
0.0
  0
LINE
  5
598E
330
5710
100
AcDbEntity
  8
0
100
AcDbLine
 10
10.98667406044054
 20
8.451283331541256
 30
0.0
 11
11.01155357080469
 21
8.451283331541256
 31
0.0
  0
LINE
  5
598F
330
5710
100
AcDbEntity
  8
0
100
AcDbLine
 10
10.98667406044054
 20
8.449196087258576
 30
0.0
 11
11.01155357080469
 21
8.449196087258576
 31
0.0
  0
LINE
  5
5990
330
5710
100
AcDbEntity
  8
0
100
AcDbLine
 10
10.94717012855885
 20
8.000145084887572
 30
0.0
 11
10.94788699787289
 21
7.999244190715751
 31
0.0
  0
LINE
  5
5991
330
5710
100
AcDbEntity
  8
0
100
AcDbLine
 10
10.94652239938121
 20
8.003764586803891
 30
0.0
 11
10.94646376040171
 21
8.00248501408563
 31
0.0
  0
LINE
  5
5992
330
5710
100
AcDbEntity
  8
0
100
AcDbLine
 10
10.95025257622876
 20
8.008002651278639
 30
0.0
 11
10.94920149674518
 21
8.007666145479214
 31
0.0
  0
LINE
  5
5993
330
5710
100
AcDbEntity
  8
0
100
AcDbLine
 10
10.9482434123937
 20
8.007021582156676
 30
0.0
 11
10.94744361503957
 21
8.006112887236264
 31
0.0
  0
LINE
  5
5994
330
5710
100
AcDbEntity
  8
0
100
AcDbLine
 10
10.94878644324488
 20
7.99860918132
 30
0.0
 11
10.9498071689591
 21
7.998283331541268
 31
0.0
  0
LINE
  5
5995
330
5710
100
AcDbEntity
  8
0
100
AcDbLine
 10
10.94788699787289
 20
7.999244190715751
 30
0.0
 11
10.94878644324488
 21
7.99860918132
 31
0.0
  0
LINE
  5
5996
330
5710
100
AcDbEntity
  8
0
100
AcDbLine
 10
10.9466846887618
 20
8.001250469386485
 30
0.0
 11
10.94717012855885
 21
8.000145084887572
 31
0.0
  0
LINE
  5
5997
330
5710
100
AcDbEntity
  8
0
100
AcDbLine
 10
10.94646376040171
 20
8.00248501408563
 30
0.0
 11
10.9466846887618
 21
8.001250469386485
 31
0.0
  0
LINE
  5
5998
330
5710
100
AcDbEntity
  8
0
100
AcDbLine
 10
10.94685660955074
 20
8.005001986775164
 30
0.0
 11
10.94652239938121
 21
8.003764586803891
 31
0.0
  0
LINE
  5
5999
330
5710
100
AcDbEntity
  8
0
100
AcDbLine
 10
10.94744361503957
 20
8.006112887236264
 30
0.0
 11
10.94685660955074
 21
8.005001986775164
 31
0.0
  0
LINE
  5
599A
330
5710
100
AcDbEntity
  8
0
100
AcDbLine
 10
10.94920149674518
 20
8.007666145479214
 30
0.0
 11
10.9482434123937
 21
8.007021582156676
 31
0.0
  0
LINE
  5
599B
330
5710
100
AcDbEntity
  8
0
100
AcDbLine
 10
10.95132502151463
 20
8.008008167240825
 30
0.0
 11
10.95025257622876
 21
8.008002651278639
 31
0.0
  0
LINE
  5
599C
330
5710
100
AcDbEntity
  8
0
100
AcDbLine
 10
10.98667406044054
 20
7.998283331541268
 30
0.0
 11
10.95649821960281
 21
7.998283331541268
 31
0.0
  0
LINE
  5
599D
330
5710
100
AcDbEntity
  8
0
100
AcDbLine
 10
10.95649821960281
 20
7.998283331541268
 30
0.0
 11
10.9498071689591
 21
7.998283331541268
 31
0.0
  0
LINE
  5
599E
330
5710
100
AcDbEntity
  8
0
100
AcDbLine
 10
10.98667406044054
 20
8.008008167240825
 30
0.0
 11
10.95201903322335
 21
8.008014522419097
 31
0.0
  0
LINE
  5
599F
330
5710
100
AcDbEntity
  8
0
100
AcDbLine
 10
10.95201903322335
 20
8.008014522419097
 30
0.0
 11
10.95132502151463
 21
8.008008167240825
 31
0.0
  0
LINE
  5
59A0
330
5710
100
AcDbEntity
  8
0
100
AcDbLine
 10
11.14290256566886
 20
7.998283331541268
 30
0.0
 11
11.17307840650658
 21
7.998283331541268
 31
0.0
  0
LINE
  5
59A1
330
5710
100
AcDbEntity
  8
0
100
AcDbLine
 10
11.17307840650658
 20
7.998283331541268
 30
0.0
 11
11.1773122673149
 21
7.998283331541268
 31
0.0
  0
LINE
  5
59A2
330
5710
100
AcDbEntity
  8
0
100
AcDbLine
 10
11.14290256566886
 20
8.008008167240825
 30
0.0
 11
11.1676363253032
 21
8.008012703017145
 31
0.0
  0
LINE
  5
59A3
330
5710
100
AcDbEntity
  8
0
100
AcDbLine
 10
10.94788699787289
 20
8.004960063783661
 30
0.0
 11
10.94878644324488
 21
8.005595073179412
 31
0.0
  0
LINE
  5
59A4
330
5710
100
AcDbEntity
  8
0
100
AcDbLine
 10
10.94744361503957
 20
7.998091367263148
 30
0.0
 11
10.94685660955074
 21
7.999202267724276
 31
0.0
  0
LINE
  5
59A5
330
5710
100
AcDbEntity
  8
0
100
AcDbLine
 10
10.94646376040171
 20
8.001719240413811
 30
0.0
 11
10.9466846887618
 21
8.002953785112927
 31
0.0
  0
LINE
  5
59A6
330
5710
100
AcDbEntity
  8
0
100
AcDbLine
 10
10.94878644324488
 20
8.005595073179412
 30
0.0
 11
10.9498071689591
 21
8.005920922958145
 31
0.0
  0
LINE
  5
59A7
330
5710
100
AcDbEntity
  8
0
100
AcDbLine
 10
10.94717012855885
 20
8.00405916961184
 30
0.0
 11
10.94788699787289
 21
8.004960063783661
 31
0.0
  0
LINE
  5
59A8
330
5710
100
AcDbEntity
  8
0
100
AcDbLine
 10
10.9466846887618
 20
8.002953785112927
 30
0.0
 11
10.94717012855885
 21
8.00405916961184
 31
0.0
  0
LINE
  5
59A9
330
5710
100
AcDbEntity
  8
0
100
AcDbLine
 10
10.94652239938121
 20
8.000439667695522
 30
0.0
 11
10.94646376040171
 21
8.001719240413811
 31
0.0
  0
LINE
  5
59AA
330
5710
100
AcDbEntity
  8
0
100
AcDbLine
 10
10.94685660955074
 20
7.999202267724276
 30
0.0
 11
10.94652239938121
 21
8.000439667695522
 31
0.0
  0
LINE
  5
59AB
330
5710
100
AcDbEntity
  8
0
100
AcDbLine
 10
10.9482434123937
 20
7.997182672342764
 30
0.0
 11
10.94744361503957
 21
7.998091367263148
 31
0.0
  0
LINE
  5
59AC
330
5710
100
AcDbEntity
  8
0
100
AcDbLine
 10
10.94920149674518
 20
7.996538109020225
 30
0.0
 11
10.9482434123937
 21
7.997182672342764
 31
0.0
  0
LINE
  5
59AD
330
5710
100
AcDbEntity
  8
0
100
AcDbLine
 10
10.95025257622876
 20
7.996201603220773
 30
0.0
 11
10.94920149674518
 21
7.996538109020225
 31
0.0
  0
LINE
  5
59AE
330
5710
100
AcDbEntity
  8
0
100
AcDbLine
 10
10.95132502151463
 20
7.996196087258586
 30
0.0
 11
10.95025257622876
 21
7.996201603220773
 31
0.0
  0
LINE
  5
59AF
330
5710
100
AcDbEntity
  8
0
100
AcDbLine
 10
10.98667406044054
 20
8.005920922958145
 30
0.0
 11
10.95560949984065
 21
8.005920922958145
 31
0.0
  0
LINE
  5
59B0
330
5710
100
AcDbEntity
  8
0
100
AcDbLine
 10
10.95560949984065
 20
8.005920922958145
 30
0.0
 11
10.9498071689591
 21
8.005920922958145
 31
0.0
  0
LINE
  5
59B1
330
5710
100
AcDbEntity
  8
0
100
AcDbLine
 10
10.98667406044054
 20
7.996196087258586
 30
0.0
 11
10.95503567700446
 21
7.996196087258586
 31
0.0
  0
LINE
  5
59B2
330
5710
100
AcDbEntity
  8
0
100
AcDbLine
 10
10.95503567700446
 20
7.996196087258586
 30
0.0
 11
10.95132502151463
 21
7.996196087258586
 31
0.0
  0
LINE
  5
59B3
330
5710
100
AcDbEntity
  8
0
100
AcDbLine
 10
11.18213301106983
 20
7.998091367263148
 30
0.0
 11
11.18272001655866
 21
7.999202267724276
 31
0.0
  0
LINE
  5
59B4
330
5710
100
AcDbEntity
  8
0
100
AcDbLine
 10
11.18305422672819
 20
8.000439667695522
 30
0.0
 11
11.18311286570769
 21
8.001719240413811
 31
0.0
  0
LINE
  5
59B5
330
5710
100
AcDbEntity
  8
0
100
AcDbLine
 10
11.18272001655866
 20
7.999202267724276
 30
0.0
 11
11.18305422672819
 21
8.000439667695522
 31
0.0
  0
LINE
  5
59B6
330
5710
100
AcDbEntity
  8
0
100
AcDbLine
 10
11.1813332137157
 20
7.997182672342764
 30
0.0
 11
11.18213301106983
 21
7.998091367263148
 31
0.0
  0
LINE
  5
59B7
330
5710
100
AcDbEntity
  8
0
100
AcDbLine
 10
11.18037512936423
 20
7.996538109020225
 30
0.0
 11
11.1813332137157
 21
7.997182672342764
 31
0.0
  0
LINE
  5
59B8
330
5710
100
AcDbEntity
  8
0
100
AcDbLine
 10
11.17932404988064
 20
7.996201603220773
 30
0.0
 11
11.18037512936423
 21
7.996538109020225
 31
0.0
  0
LINE
  5
59B9
330
5710
100
AcDbEntity
  8
0
100
AcDbLine
 10
11.17825160459478
 20
7.996196087258586
 30
0.0
 11
11.17932404988064
 21
7.996201603220773
 31
0.0
  0
LINE
  5
59BA
330
5710
100
AcDbEntity
  8
0
100
AcDbLine
 10
11.14290256566886
 20
8.005920922958145
 30
0.0
 11
11.1696167111556
 21
8.005920922958143
 31
0.0
  0
LINE
  5
59BB
330
5710
100
AcDbEntity
  8
0
100
AcDbLine
 10
11.14290256566886
 20
7.996196087258586
 30
0.0
 11
11.17454094910494
 21
7.996196087258586
 31
0.0
  0
LINE
  5
59BC
330
5710
100
AcDbEntity
  8
0
100
AcDbLine
 10
11.17454094910494
 20
7.996196087258586
 30
0.0
 11
11.17825160459478
 21
7.996196087258586
 31
0.0
  0
LINE
  5
59BD
330
5710
100
AcDbEntity
  8
0
100
AcDbLine
 10
10.98667406044054
 20
8.008008167240825
 30
0.0
 11
11.01155357080469
 21
8.008008167240825
 31
0.0
  0
LINE
  5
59BE
330
5710
100
AcDbEntity
  8
0
100
AcDbLine
 10
10.98667406044054
 20
8.005920922958145
 30
0.0
 11
11.01155357080469
 21
8.005920922958145
 31
0.0
  0
LINE
  5
59BF
330
5710
100
AcDbEntity
  8
0
100
AcDbLine
 10
10.98667406044054
 20
7.998283331541268
 30
0.0
 11
11.01155357080469
 21
7.998283331541268
 31
0.0
  0
LINE
  5
59C0
330
5710
100
AcDbEntity
  8
0
100
AcDbLine
 10
10.98667406044054
 20
7.996196087258586
 30
0.0
 11
11.01155357080469
 21
7.996196087258586
 31
0.0
  0
LINE
  5
59C1
330
5710
100
AcDbEntity
  8
0
100
AcDbLine
 10
11.14290256566886
 20
8.008008167240825
 30
0.0
 11
11.11155357080469
 21
8.00800816724084
 31
0.0
  0
LINE
  5
59C2
330
5710
100
AcDbEntity
  8
0
100
AcDbLine
 10
11.14290256566886
 20
8.005920922958145
 30
0.0
 11
11.11155357080469
 21
8.005920922958145
 31
0.0
  0
LINE
  5
59C3
330
5710
100
AcDbEntity
  8
0
100
AcDbLine
 10
11.14290256566886
 20
7.998283331541268
 30
0.0
 11
11.11155357080469
 21
7.998283331541268
 31
0.0
  0
LINE
  5
59C4
330
5710
100
AcDbEntity
  8
0
100
AcDbLine
 10
11.14290256566886
 20
7.996196087258586
 30
0.0
 11
11.11155357080469
 21
7.996196087258586
 31
0.0
  0
LINE
  5
59C5
330
5710
100
AcDbEntity
  8
0
100
AcDbLine
 10
11.18311286570769
 20
8.208008167240839
 30
0.0
 11
11.18311286570769
 21
8.00248501408563
 31
0.0
  0
LINE
  5
59C6
330
5710
100
AcDbEntity
  8
0
100
AcDbLine
 10
11.18102562142502
 20
8.025034754731267
 30
0.0
 11
11.18102562142502
 21
8.056099315331158
 31
0.0
  0
LINE
  5
59C7
330
5710
100
AcDbEntity
  8
0
100
AcDbLine
 10
11.17130078572543
 20
8.025034754731267
 30
0.0
 11
11.17130078572543
 21
8.056673138167345
 31
0.0
  0
LINE
  5
59C8
330
5710
100
AcDbEntity
  8
0
100
AcDbLine
 10
11.17338803000814
 20
8.025034754731267
 30
0.0
 11
11.17338803000814
 21
8.055210595568992
 31
0.0
  0
LINE
  5
59C9
330
5710
100
AcDbEntity
  8
0
100
AcDbLine
 10
11.1831128657077
 20
8.025034754731267
 30
0.0
 11
11.18311922088597
 21
8.059689781948458
 31
0.0
  0
LINE
  5
59CA
330
5710
100
AcDbEntity
  8
0
100
AcDbLine
 10
11.17130078572545
 20
8.056383749595434
 30
0.0
 11
11.17130078572543
 21
8.025034754731267
 31
0.0
  0
LINE
  5
59CB
330
5710
100
AcDbEntity
  8
0
100
AcDbLine
 10
11.17338803000813
 20
8.056383749595434
 30
0.0
 11
11.17338803000813
 21
8.025034754731267
 31
0.0
  0
LINE
  5
59CC
330
5710
100
AcDbEntity
  8
0
100
AcDbLine
 10
11.18102562142501
 20
8.056383749595434
 30
0.0
 11
11.18102562142501
 21
8.025034754731267
 31
0.0
  0
LINE
  5
59CD
330
5710
100
AcDbEntity
  8
0
100
AcDbLine
 10
11.18311286570769
 20
8.056383749595434
 30
0.0
 11
11.18311286570769
 21
8.025034754731267
 31
0.0
  0
LINE
  5
59CE
330
5710
100
AcDbEntity
  8
0
100
AcDbLine
 10
11.18102562142501
 20
8.025034754731267
 30
0.0
 11
11.181025621425
 21
8.002459136876783
 31
0.0
  0
LINE
  5
59CF
330
5710
100
AcDbEntity
  8
0
100
AcDbLine
 10
11.17130078572543
 20
8.025034754731267
 30
0.0
 11
11.17130078572542
 21
8.012113701138686
 31
0.0
  0
LINE
  5
59D0
330
5710
100
AcDbEntity
  8
0
100
AcDbLine
 10
11.17338803000814
 20
8.025034754731267
 30
0.0
 11
11.17338803000815
 21
8.011056922937598
 31
0.0
  0
LINE
  5
59D1
330
5710
100
AcDbEntity
  8
0
100
AcDbLine
 10
11.18311286570769
 20
8.00248501408563
 30
0.0
 11
11.18311286570769
 21
8.001719240413811
 31
0.0
  0
LINE
  5
59D2
330
5710
100
AcDbEntity
  8
0
100
AcDbLine
 10
11.18012122070389
 20
8.000173093086386
 30
0.0
 11
11.18070822619272
 21
8.001283993547515
 31
0.0
  0
LINE
  5
59D3
330
5710
100
AcDbEntity
  8
0
100
AcDbLine
 10
11.18070822619272
 20
8.001283993547515
 30
0.0
 11
11.18104243636225
 21
8.00252139351876
 31
0.0
  0
LINE
  5
59D4
330
5710
100
AcDbEntity
  8
0
100
AcDbLine
 10
11.17932142334976
 20
7.999264398166003
 30
0.0
 11
11.18012122070389
 21
8.000173093086386
 31
0.0
  0
LINE
  5
59D5
330
5710
100
AcDbEntity
  8
0
100
AcDbLine
 10
11.17836333899829
 20
7.998619834843465
 30
0.0
 11
11.17932142334976
 21
7.999264398166003
 31
0.0
  0
LINE
  5
59D6
330
5710
100
AcDbEntity
  8
0
100
AcDbLine
 10
11.1773122595147
 20
7.998283329044012
 30
0.0
 11
11.17836333899829
 21
7.998619834843465
 31
0.0
  0
LINE
  5
59D7
330
5710
100
AcDbEntity
  8
0
100
AcDbLine
 10
11.17242566454459
 20
8.007810684503263
 30
0.0
 11
11.17301267003342
 21
8.008921584964392
 31
0.0
  0
LINE
  5
59D8
330
5710
100
AcDbEntity
  8
0
100
AcDbLine
 10
11.17334688020295
 20
8.010158984935637
 30
0.0
 11
11.17340551918245
 21
8.011438557653926
 31
0.0
  0
LINE
  5
59D9
330
5710
100
AcDbEntity
  8
0
100
AcDbLine
 10
11.17301267003342
 20
8.008921584964392
 30
0.0
 11
11.17334688020295
 21
8.010158984935637
 31
0.0
  0
LINE
  5
59DA
330
5710
100
AcDbEntity
  8
0
100
AcDbLine
 10
11.17162586719047
 20
8.00690198958288
 30
0.0
 11
11.17242566454459
 21
8.007810684503263
 31
0.0
  0
LINE
  5
59DB
330
5710
100
AcDbEntity
  8
0
100
AcDbLine
 10
11.17066778283899
 20
8.006257426260342
 30
0.0
 11
11.17162586719047
 21
8.00690198958288
 31
0.0
  0
LINE
  5
59DC
330
5710
100
AcDbEntity
  8
0
100
AcDbLine
 10
11.1696167033554
 20
8.005920920460889
 30
0.0
 11
11.17066778283899
 21
8.006257426260342
 31
0.0
  0
LINE
  5
59DD
330
5710
100
AcDbEntity
  8
0
100
AcDbLine
 10
11.17041387417865
 20
8.009892410326502
 30
0.0
 11
11.17100087966748
 21
8.01100331078763
 31
0.0
  0
LINE
  5
59DE
330
5710
100
AcDbEntity
  8
0
100
AcDbLine
 10
11.17100087966748
 20
8.01100331078763
 30
0.0
 11
11.17133508983701
 21
8.012240710758876
 31
0.0
  0
LINE
  5
59DF
330
5710
100
AcDbEntity
  8
0
100
AcDbLine
 10
11.16961407682453
 20
8.008983715406118
 30
0.0
 11
11.17041387417865
 21
8.009892410326502
 31
0.0
  0
LINE
  5
59E0
330
5710
100
AcDbEntity
  8
0
100
AcDbLine
 10
11.16865599247305
 20
8.00833915208358
 30
0.0
 11
11.16961407682453
 21
8.008983715406118
 31
0.0
  0
LINE
  5
59E1
330
5710
100
AcDbEntity
  8
0
100
AcDbLine
 10
11.16760491298946
 20
8.008002646284127
 30
0.0
 11
11.16865599247305
 21
8.00833915208358
 31
0.0
  0
LINE
  5
59E2
330
5710
100
AcDbEntity
  8
0
100
AcDbLine
 10
11.18102562142502
 20
8.056099315331158
 30
0.0
 11
11.18102562142502
 21
8.208008167240841
 31
0.0
  0
LINE
  5
59E3
330
5710
100
AcDbEntity
  8
0
100
AcDbLine
 10
11.17130078572543
 20
8.208008167240834
 30
0.0
 11
11.17130078572543
 21
8.056673138167345
 31
0.0
  0
LINE
  5
59E4
330
5710
100
AcDbEntity
  8
0
100
AcDbLine
 10
11.17338803000813
 20
8.056383749595434
 30
0.0
 11
11.17338803000813
 21
8.208008167240841
 31
0.0
  0
LINE
  5
59E5
330
5710
100
AcDbEntity
  8
0
100
AcDbLine
 10
11.11155357080469
 20
8.458920922958133
 30
0.0
 11
11.14261813140458
 21
8.458920922958133
 31
0.0
  0
LINE
  5
59E6
330
5710
100
AcDbEntity
  8
0
100
AcDbLine
 10
11.14261813140458
 20
8.458920922958133
 30
0.0
 11
11.14842046228613
 21
8.458920922958133
 31
0.0
  0
LINE
  5
59E7
330
5710
100
AcDbEntity
  8
0
100
AcDbLine
 10
11.11155357080469
 20
8.449196087258547
 30
0.0
 11
11.14319195424077
 21
8.449196087258547
 31
0.0
  0
LINE
  5
59E8
330
5710
100
AcDbEntity
  8
0
100
AcDbLine
 10
11.14319195424077
 20
8.449196087258547
 30
0.0
 11
11.14690260973061
 21
8.449196087258547
 31
0.0
  0
LINE
  5
59E9
330
5710
100
AcDbEntity
  8
0
100
AcDbLine
 10
11.11155357080469
 20
8.451283331541256
 30
0.0
 11
11.14172941164242
 21
8.451283331541256
 31
0.0
  0
LINE
  5
59EA
330
5710
100
AcDbEntity
  8
0
100
AcDbLine
 10
11.14172941164242
 20
8.451283331541256
 30
0.0
 11
11.14842046228613
 21
8.451283331541256
 31
0.0
  0
LINE
  5
59EB
330
5710
100
AcDbEntity
  8
0
100
AcDbLine
 10
11.11155357080469
 20
8.461008167240814
 30
0.0
 11
11.14620859802188
 21
8.461014522419086
 31
0.0
  0
LINE
  5
59EC
330
5710
100
AcDbEntity
  8
0
100
AcDbLine
 10
11.14620859802188
 20
8.461014522419086
 30
0.0
 11
11.14690260973061
 21
8.461008167240814
 31
0.0
  0
LINE
  5
59ED
330
5710
100
AcDbEntity
  8
0
100
AcDbLine
 10
11.14290256566886
 20
8.458920922958119
 30
0.0
 11
11.17307840650658
 21
8.458920922958119
 31
0.0
  0
LINE
  5
59EE
330
5710
100
AcDbEntity
  8
0
100
AcDbLine
 10
11.17307840650658
 20
8.458920922958119
 30
0.0
 11
11.1773122673149
 21
8.458920922958119
 31
0.0
  0
LINE
  5
59EF
330
5710
100
AcDbEntity
  8
0
100
AcDbLine
 10
11.14290256566886
 20
8.449196087258561
 30
0.0
 11
11.1676363253032
 21
8.449191551482241
 31
0.0
  0
LINE
  5
59F0
330
5710
100
AcDbEntity
  8
0
100
AcDbLine
 10
11.18213301106983
 20
8.459112887236239
 30
0.0
 11
11.18272001655866
 21
8.45800198677511
 31
0.0
  0
LINE
  5
59F1
330
5710
100
AcDbEntity
  8
0
100
AcDbLine
 10
11.18305422672819
 20
8.456764586803865
 30
0.0
 11
11.18311286570769
 21
8.455485014085576
 31
0.0
  0
LINE
  5
59F2
330
5710
100
AcDbEntity
  8
0
100
AcDbLine
 10
11.18272001655866
 20
8.45800198677511
 30
0.0
 11
11.18305422672819
 21
8.456764586803865
 31
0.0
  0
LINE
  5
59F3
330
5710
100
AcDbEntity
  8
0
100
AcDbLine
 10
11.1813332137157
 20
8.460021582156622
 30
0.0
 11
11.18213301106983
 21
8.459112887236239
 31
0.0
  0
LINE
  5
59F4
330
5710
100
AcDbEntity
  8
0
100
AcDbLine
 10
11.18037512936423
 20
8.46066614547916
 30
0.0
 11
11.1813332137157
 21
8.460021582156622
 31
0.0
  0
LINE
  5
59F5
330
5710
100
AcDbEntity
  8
0
100
AcDbLine
 10
11.17932404988064
 20
8.461002651278613
 30
0.0
 11
11.18037512936423
 21
8.46066614547916
 31
0.0
  0
LINE
  5
59F6
330
5710
100
AcDbEntity
  8
0
100
AcDbLine
 10
11.17825160459478
 20
8.4610081672408
 30
0.0
 11
11.17932404988064
 21
8.461002651278613
 31
0.0
  0
LINE
  5
59F7
330
5710
100
AcDbEntity
  8
0
100
AcDbLine
 10
11.14290256566886
 20
8.451283331541242
 30
0.0
 11
11.1696167111556
 21
8.451283331541244
 31
0.0
  0
LINE
  5
59F8
330
5710
100
AcDbEntity
  8
0
100
AcDbLine
 10
11.14290256566886
 20
8.4610081672408
 30
0.0
 11
11.17454094910494
 21
8.4610081672408
 31
0.0
  0
LINE
  5
59F9
330
5710
100
AcDbEntity
  8
0
100
AcDbLine
 10
11.17454094910494
 20
8.4610081672408
 30
0.0
 11
11.17825160459478
 21
8.4610081672408
 31
0.0
  0
LINE
  5
59FA
330
5710
100
AcDbEntity
  8
0
100
AcDbLine
 10
11.14290256566886
 20
8.449196087258561
 30
0.0
 11
11.11155357080469
 21
8.449196087258547
 31
0.0
  0
LINE
  5
59FB
330
5710
100
AcDbEntity
  8
0
100
AcDbLine
 10
11.14290256566886
 20
8.451283331541242
 30
0.0
 11
11.11155357080469
 21
8.451283331541242
 31
0.0
  0
LINE
  5
59FC
330
5710
100
AcDbEntity
  8
0
100
AcDbLine
 10
11.14290256566886
 20
8.458920922958119
 30
0.0
 11
11.11155357080469
 21
8.458920922958119
 31
0.0
  0
LINE
  5
59FD
330
5710
100
AcDbEntity
  8
0
100
AcDbLine
 10
11.14290256566886
 20
8.4610081672408
 30
0.0
 11
11.11155357080469
 21
8.4610081672408
 31
0.0
  0
LINE
  5
59FE
330
5710
100
AcDbEntity
  8
0
100
AcDbLine
 10
11.18311286570769
 20
8.208008167240839
 30
0.0
 11
11.18311286570769
 21
8.413531320396051
 31
0.0
  0
LINE
  5
59FF
330
5710
100
AcDbEntity
  8
0
100
AcDbLine
 10
11.18102562142502
 20
8.390981579750414
 30
0.0
 11
11.18102562142502
 21
8.359917019150524
 31
0.0
  0
LINE
  5
5A00
330
5710
100
AcDbEntity
  8
0
100
AcDbLine
 10
11.17130078572543
 20
8.390981579750414
 30
0.0
 11
11.17130078572543
 21
8.359343196314336
 31
0.0
  0
LINE
  5
5A01
330
5710
100
AcDbEntity
  8
0
100
AcDbLine
 10
11.17338803000814
 20
8.390981579750414
 30
0.0
 11
11.17338803000814
 21
8.36080573891269
 31
0.0
  0
LINE
  5
5A02
330
5710
100
AcDbEntity
  8
0
100
AcDbLine
 10
11.1831128657077
 20
8.390981579750414
 30
0.0
 11
11.18311922088597
 21
8.356326552533223
 31
0.0
  0
LINE
  5
5A03
330
5710
100
AcDbEntity
  8
0
100
AcDbLine
 10
11.17130078572545
 20
8.359632584886247
 30
0.0
 11
11.17130078572543
 21
8.390981579750414
 31
0.0
  0
LINE
  5
5A04
330
5710
100
AcDbEntity
  8
0
100
AcDbLine
 10
11.17338803000813
 20
8.359632584886247
 30
0.0
 11
11.17338803000813
 21
8.390981579750414
 31
0.0
  0
LINE
  5
5A05
330
5710
100
AcDbEntity
  8
0
100
AcDbLine
 10
11.18102562142501
 20
8.359632584886247
 30
0.0
 11
11.18102562142501
 21
8.390981579750414
 31
0.0
  0
LINE
  5
5A06
330
5710
100
AcDbEntity
  8
0
100
AcDbLine
 10
11.18311286570769
 20
8.359632584886247
 30
0.0
 11
11.18311286570769
 21
8.390981579750414
 31
0.0
  0
LINE
  5
5A07
330
5710
100
AcDbEntity
  8
0
100
AcDbLine
 10
11.18102562142501
 20
8.390981579750414
 30
0.0
 11
11.181025621425
 21
8.413557197604896
 31
0.0
  0
LINE
  5
5A08
330
5710
100
AcDbEntity
  8
0
100
AcDbLine
 10
11.17130078572543
 20
8.390981579750414
 30
0.0
 11
11.17130078572542
 21
8.403902633342992
 31
0.0
  0
LINE
  5
5A09
330
5710
100
AcDbEntity
  8
0
100
AcDbLine
 10
11.17338803000814
 20
8.43216949976812
 30
0.0
 11
11.17338803000814
 21
8.446147331561789
 31
0.0
  0
LINE
  5
5A0A
330
5710
100
AcDbEntity
  8
0
100
AcDbLine
 10
11.18311286570769
 20
8.454719240413757
 30
0.0
 11
11.18311286570769
 21
8.455485014085576
 31
0.0
  0
LINE
  5
5A0B
330
5710
100
AcDbEntity
  8
0
100
AcDbLine
 10
11.18012122070389
 20
8.457031161413
 30
0.0
 11
11.18070822619272
 21
8.455920260951872
 31
0.0
  0
LINE
  5
5A0C
330
5710
100
AcDbEntity
  8
0
100
AcDbLine
 10
11.18070822619272
 20
8.455920260951872
 30
0.0
 11
11.18104243636225
 21
8.454682860980627
 31
0.0
  0
LINE
  5
5A0D
330
5710
100
AcDbEntity
  8
0
100
AcDbLine
 10
11.17932142334976
 20
8.457939856333384
 30
0.0
 11
11.18012122070389
 21
8.457031161413
 31
0.0
  0
LINE
  5
5A0E
330
5710
100
AcDbEntity
  8
0
100
AcDbLine
 10
11.17836333899828
 20
8.458584419655922
 30
0.0
 11
11.17932142334976
 21
8.457939856333384
 31
0.0
  0
LINE
  5
5A0F
330
5710
100
AcDbEntity
  8
0
100
AcDbLine
 10
11.1773122595147
 20
8.458920925455375
 30
0.0
 11
11.17836333899828
 21
8.458584419655922
 31
0.0
  0
LINE
  5
5A10
330
5710
100
AcDbEntity
  8
0
100
AcDbLine
 10
11.17242566454459
 20
8.449393569996123
 30
0.0
 11
11.17301267003342
 21
8.448282669534995
 31
0.0
  0
LINE
  5
5A11
330
5710
100
AcDbEntity
  8
0
100
AcDbLine
 10
11.17334688020295
 20
8.44704526956375
 30
0.0
 11
11.17340551918245
 21
8.445765696845461
 31
0.0
  0
LINE
  5
5A12
330
5710
100
AcDbEntity
  8
0
100
AcDbLine
 10
11.17301267003342
 20
8.448282669534995
 30
0.0
 11
11.17334688020295
 21
8.44704526956375
 31
0.0
  0
LINE
  5
5A13
330
5710
100
AcDbEntity
  8
0
100
AcDbLine
 10
11.17162586719046
 20
8.450302264916507
 30
0.0
 11
11.17242566454459
 21
8.449393569996123
 31
0.0
  0
LINE
  5
5A14
330
5710
100
AcDbEntity
  8
0
100
AcDbLine
 10
11.17066778283898
 20
8.450946828239045
 30
0.0
 11
11.17162586719046
 21
8.450302264916507
 31
0.0
  0
LINE
  5
5A15
330
5710
100
AcDbEntity
  8
0
100
AcDbLine
 10
11.1696167033554
 20
8.451283334038498
 30
0.0
 11
11.17066778283898
 21
8.450946828239045
 31
0.0
  0
LINE
  5
5A16
330
5710
100
AcDbEntity
  8
0
100
AcDbLine
 10
11.17041387417865
 20
8.447311844172885
 30
0.0
 11
11.17100087966748
 21
8.446200943711756
 31
0.0
  0
LINE
  5
5A17
330
5710
100
AcDbEntity
  8
0
100
AcDbLine
 10
11.17100087966748
 20
8.446200943711756
 30
0.0
 11
11.17133508983701
 21
8.444963543740511
 31
0.0
  0
LINE
  5
5A18
330
5710
100
AcDbEntity
  8
0
100
AcDbLine
 10
11.16961407682452
 20
8.448220539093268
 30
0.0
 11
11.17041387417865
 21
8.447311844172885
 31
0.0
  0
LINE
  5
5A19
330
5710
100
AcDbEntity
  8
0
100
AcDbLine
 10
11.16865599247304
 20
8.448865102415807
 30
0.0
 11
11.16961407682452
 21
8.448220539093268
 31
0.0
  0
LINE
  5
5A1A
330
5710
100
AcDbEntity
  8
0
100
AcDbLine
 10
11.16760491298946
 20
8.449201608215259
 30
0.0
 11
11.16865599247304
 21
8.448865102415807
 31
0.0
  0
LINE
  5
5A1B
330
5710
100
AcDbEntity
  8
0
100
AcDbLine
 10
11.18102562142502
 20
8.359917019150524
 30
0.0
 11
11.18102562142502
 21
8.208008167240839
 31
0.0
  0
LINE
  5
5A1C
330
5710
100
AcDbEntity
  8
0
100
AcDbLine
 10
11.17130078572543
 20
8.208008167240846
 30
0.0
 11
11.17130078572543
 21
8.359343196314336
 31
0.0
  0
LINE
  5
5A1D
330
5710
100
AcDbEntity
  8
0
100
AcDbLine
 10
11.17338803000813
 20
8.359632584886247
 30
0.0
 11
11.17338803000813
 21
8.208008167240839
 31
0.0
  0
LINE
  5
5A1E
330
5710
100
AcDbEntity
  8
0
100
AcDbLine
 10
11.17133508983701
 20
8.444963543740511
 30
0.0
 11
11.17130078572542
 21
8.403902633342992
 31
0.0
  0
LINE
  5
5A1F
330
5710
100
AcDbEntity
  8
0
100
AcDbLine
 10
11.17338803000813
 20
8.390981579750414
 30
0.0
 11
11.17338803000814
 21
8.43216949976812
 31
0.0
  0
LINE
  5
5A20
330
5710
100
AcDbEntity
  8
0
100
AcDbLine
 10
11.18104243636225
 20
8.454682860980627
 30
0.0
 11
11.181025621425
 21
8.413557197604896
 31
0.0
  0
LINE
  5
5A21
330
5710
100
AcDbEntity
  8
0
100
AcDbLine
 10
11.18311286570769
 20
8.454719240413757
 30
0.0
 11
11.18311286570769
 21
8.413531320396051
 31
0.0
  0
ENDBLK
  5
5A25
330
5710
100
AcDbEntity
  8
0
100
AcDbBlockEnd
  0
ENDSEC
  0
SECTION
  2
ENTITIES
  0
LINE
  5
4A88
330
1F
100
AcDbEntity
  8
0
100
AcDbLine
 10
10.16715194393706
 20
8.990742093894194
 30
0.0
 11
10.93160020981384
 21
8.990742093894166
 31
0.0
  0
LINE
  5
4A89
330
1F
100
AcDbEntity
  8
0
100
AcDbLine
 10
11.11155357080469
 20
8.890742093894143
 30
0.0
 11
11.19150693179554
 21
8.890742093894143
 31
0.0
  0
LINE
  5
4A8A
330
1F
100
AcDbEntity
  8
0
100
AcDbLine
 10
10.09615849647702
 20
8.990742093894194
 30
0.0
 11
10.08490459509618
 21
8.989038385208626
 31
0.0
  0
LINE
  5
4A8B
330
1F
100
AcDbEntity
  8
0
100
AcDbLine
 10
10.08490459509618
 20
8.989038385208626
 30
0.0
 11
10.0744176284965
 21
8.984043364083415
 31
0.0
  0
LINE
  5
4A8C
330
1F
100
AcDbEntity
  8
0
100
AcDbLine
 10
10.0744176284965
 20
8.984043364083415
 30
0.0
 11
10.0654122661212
 21
8.976097432953505
 31
0.0
  0
LINE
  5
4A8D
330
1F
100
AcDbEntity
  8
0
100
AcDbLine
 10
10.0654122661212
 20
8.976097432953505
 30
0.0
 11
10.05850220853411
 21
8.965742093894188
 31
0.0
  0
LINE
  5
4A8E
330
1F
100
AcDbEntity
  8
0
100
AcDbLine
 10
10.05850220853411
 20
8.965742093894188
 30
0.0
 11
10.05415836474037
 21
8.953683046149304
 31
0.0
  0
LINE
  5
4A8F
330
1F
100
AcDbEntity
  8
0
100
AcDbLine
 10
10.05415836474037
 20
8.953683046149304
 30
0.0
 11
10.05267676051598
 21
8.940742093894183
 31
0.0
  0
LINE
  5
4A90
330
1F
100
AcDbEntity
  8
0
100
AcDbLine
 10
10.05267676051598
 20
8.940742093894183
 30
0.0
 11
10.05415836474037
 21
8.927801141639061
 31
0.0
  0
LINE
  5
4A91
330
1F
100
AcDbEntity
  8
0
100
AcDbLine
 10
10.05415836474037
 20
8.927801141639061
 30
0.0
 11
10.05850220853411
 21
8.915742093894177
 31
0.0
  0
LINE
  5
4A92
330
1F
100
AcDbEntity
  8
0
100
AcDbLine
 10
10.0654122661212
 20
8.905386754834861
 30
0.0
 11
10.07441762849651
 21
8.89744082370495
 31
0.0
  0
LINE
  5
4A93
330
1F
100
AcDbEntity
  8
0
100
AcDbLine
 10
10.05850220853411
 20
8.915742093894177
 30
0.0
 11
10.0654122661212
 21
8.905386754834861
 31
0.0
  0
LINE
  5
4A94
330
1F
100
AcDbEntity
  8
0
100
AcDbLine
 10
10.08490459509618
 20
8.892445802579739
 30
0.0
 11
10.09615849647703
 21
8.890742093894171
 31
0.0
  0
LINE
  5
4A95
330
1F
100
AcDbEntity
  8
0
100
AcDbLine
 10
10.07441762849651
 20
8.89744082370495
 30
0.0
 11
10.08490459509618
 21
8.892445802579739
 31
0.0
  0
LINE
  5
4A96
330
1F
100
AcDbEntity
  8
0
100
AcDbLine
 10
12.02843024935674
 20
8.990742093894166
 30
0.0
 11
11.11155357080469
 21
8.990742093894166
 31
0.0
  0
LINE
  5
4A97
330
1F
100
AcDbEntity
  8
0
100
AcDbLine
 10
11.01155357080469
 20
8.990742093894166
 30
0.0
 11
10.93160020981384
 21
8.990742093894166
 31
0.0
  0
LINE
  5
4A98
330
1F
100
AcDbEntity
  8
0
100
AcDbLine
 10
12.02843024935674
 20
8.990742093894166
 30
0.0
 11
12.03968415073759
 21
8.989038385208598
 31
0.0
  0
LINE
  5
4A99
330
1F
100
AcDbEntity
  8
0
100
AcDbLine
 10
12.03968415073759
 20
8.989038385208598
 30
0.0
 11
12.05017111733727
 21
8.984043364083387
 31
0.0
  0
LINE
  5
4A9A
330
1F
100
AcDbEntity
  8
0
100
AcDbLine
 10
12.05017111733727
 20
8.984043364083387
 30
0.0
 11
12.05917647971256
 21
8.976097432953476
 31
0.0
  0
LINE
  5
4A9B
330
1F
100
AcDbEntity
  8
0
100
AcDbLine
 10
12.05917647971256
 20
8.976097432953476
 30
0.0
 11
12.06608653729966
 21
8.96574209389416
 31
0.0
  0
LINE
  5
4A9C
330
1F
100
AcDbEntity
  8
0
100
AcDbLine
 10
12.06608653729966
 20
8.96574209389416
 30
0.0
 11
12.0704303810934
 21
8.953683046149276
 31
0.0
  0
LINE
  5
4A9D
330
1F
100
AcDbEntity
  8
0
100
AcDbLine
 10
12.0704303810934
 20
8.953683046149276
 30
0.0
 11
12.07191198531778
 21
8.940742093894154
 31
0.0
  0
LINE
  5
4A9E
330
1F
100
AcDbEntity
  8
0
100
AcDbLine
 10
12.07191198531778
 20
8.940742093894154
 30
0.0
 11
12.0704303810934
 21
8.927801141639033
 31
0.0
  0
LINE
  5
4A9F
330
1F
100
AcDbEntity
  8
0
100
AcDbLine
 10
12.0704303810934
 20
8.927801141639033
 30
0.0
 11
12.06608653729966
 21
8.915742093894149
 31
0.0
  0
LINE
  5
4AA0
330
1F
100
AcDbEntity
  8
0
100
AcDbLine
 10
12.05917647971256
 20
8.905386754834832
 30
0.0
 11
12.05017111733726
 21
8.897440823704922
 31
0.0
  0
LINE
  5
4AA1
330
1F
100
AcDbEntity
  8
0
100
AcDbLine
 10
12.06608653729966
 20
8.915742093894149
 30
0.0
 11
12.05917647971256
 21
8.905386754834832
 31
0.0
  0
LINE
  5
4AA2
330
1F
100
AcDbEntity
  8
0
100
AcDbLine
 10
12.03968415073759
 20
8.892445802579711
 30
0.0
 11
12.02843024935674
 21
8.890742093894171
 31
0.0
  0
LINE
  5
4AA3
330
1F
100
AcDbEntity
  8
0
100
AcDbLine
 10
12.05017111733726
 20
8.897440823704922
 30
0.0
 11
12.03968415073759
 21
8.892445802579711
 31
0.0
  0
LINE
  5
4AA4
330
1F
100
AcDbEntity
  8
0
100
AcDbLine
 10
12.02843024935674
 20
8.890742093894171
 30
0.0
 11
11.19150693179554
 21
8.890742093894143
 31
0.0
  0
LINE
  5
4AAD
330
1F
100
AcDbEntity
  8
0
100
AcDbLine
 10
11.01155357080469
 20
8.990742093894166
 30
0.0
 11
11.01155357080469
 21
8.977416961376686
 31
0.0
  0
LINE
  5
4AAE
330
1F
100
AcDbEntity
  8
0
100
AcDbLine
 10
11.01155357080469
 20
7.65289312901539
 30
0.0
 11
11.01155357080469
 21
7.626490321645698
 31
0.0
  0
LINE
  5
4AAF
330
1F
100
AcDbEntity
  8
0
100
AcDbLine
 10
11.01155357080469
 20
7.495562396155333
 30
0.0
 11
11.01155357080469
 21
6.570003913362193
 31
0.0
  0
LINE
  5
4AB0
330
1F
100
AcDbEntity
  8
0
100
AcDbLine
 10
11.11155357080469
 20
8.890742093894143
 30
0.0
 11
11.11155357080469
 21
8.877416961376692
 31
0.0
  0
LINE
  5
4AB1
330
1F
100
AcDbEntity
  8
0
100
AcDbLine
 10
11.11155357080469
 20
8.900621924157221
 30
0.0
 11
11.11155357080469
 21
8.887296791639741
 31
0.0
  0
LINE
  5
4AB2
330
1F
100
AcDbEntity
  8
0
100
AcDbLine
 10
11.01155357080469
 20
8.890742093894143
 30
0.0
 11
10.94491184674928
 21
8.890742093894143
 31
0.0
  0
LINE
  5
4AB3
330
1F
100
AcDbEntity
  8
0
100
AcDbLine
 10
11.01155357080469
 20
8.887296791639741
 30
0.0
 11
11.01155357080469
 21
8.711613393747867
 31
0.0
  0
LINE
  5
4AB4
330
1F
100
AcDbEntity
  8
0
100
AcDbLine
 10
11.11155357080469
 20
8.990742093894166
 30
0.0
 11
11.11155357080469
 21
8.890742093894143
 31
0.0
  0
LINE
  5
4AB5
330
1F
100
AcDbEntity
  8
0
100
AcDbLine
 10
11.01155357080469
 20
8.904067226411623
 30
0.0
 11
11.01155357080469
 21
8.890742093894143
 31
0.0
  0
LINE
  5
4AB6
330
1F
100
AcDbEntity
  8
0
100
AcDbLine
 10
11.01155357080469
 20
8.991742093894146
 30
0.0
 11
11.01155357080469
 21
8.790742093894149
 31
0.0
  0
ARC
  5
4AB7
330
1F
100
AcDbEntity
  8
0
100
AcDbCircle
 10
11.01655357080469
 20
8.991742093894146
 30
0.0
 40
0.005
100
AcDbArc
 50
90.0
 51
180.0
  0
LINE
  5
4AB8
330
1F
100
AcDbEntity
  8
0
100
AcDbLine
 10
11.11155357080469
 20
8.991742093894146
 30
0.0
 11
11.11155357080469
 21
7.532169480349106
 31
0.0
  0
ARC
  5
4AB9
330
1F
100
AcDbEntity
  8
0
100
AcDbCircle
 10
11.10655357080469
 20
8.991742093894146
 30
0.0
 40
0.005
100
AcDbArc
 50
0.0
 51
90.0
  0
LINE
  5
4ABA
330
1F
100
AcDbEntity
  8
0
100
AcDbLine
 10
11.01155357080469
 20
7.257834697784058
 30
0.0
 11
11.01155357080469
 21
7.2412238897173
 31
0.0
  0
LINE
  5
4ABB
330
1F
100
AcDbEntity
  8
0
100
AcDbLine
 10
11.01155357080469
 20
7.2412238897173
 30
0.0
 11
11.01155357080469
 21
7.231499054017742
 31
0.0
  0
LINE
  5
4ABC
330
1F
100
AcDbEntity
  8
0
100
AcDbLine
 10
11.11155357080469
 20
6.778499054017739
 30
0.0
 11
11.11155357080469
 21
6.757834697784058
 31
0.0
  0
LINE
  5
4ABD
330
1F
100
AcDbEntity
  8
0
100
AcDbLine
 10
11.01155357080469
 20
6.913724013941034
 30
0.0
 11
11.01155357080469
 21
6.376054232213376
 31
0.0
  0
LINE
  5
4ABE
330
1F
100
AcDbEntity
  8
0
100
AcDbLine
 10
11.01155357080469
 20
7.231499054017742
 30
0.0
 11
11.01155357080469
 21
6.788223889717325
 31
0.0
  0
LINE
  5
4ABF
330
1F
100
AcDbEntity
  8
0
100
AcDbLine
 10
11.11155357080469
 20
6.788223889717325
 30
0.0
 11
11.11155357080469
 21
6.778499054017739
 31
0.0
  0
LINE
  5
4AC1
330
1F
100
AcDbEntity
  8
0
100
AcDbLine
 10
11.10655357080469
 20
8.996742093894141
 30
0.0
 11
11.01655357080469
 21
8.996742093894141
 31
0.0
  0
LINE
  5
4B26
330
1F
100
AcDbEntity
  8
0
100
AcDbLine
 10
11.11155357080469
 20
7.257834697784058
 30
0.0
 11
11.11155357080469
 21
7.2412238897173
 31
0.0
  0
LINE
  5
4B27
330
1F
100
AcDbEntity
  8
0
100
AcDbLine
 10
11.11155357080469
 20
7.2412238897173
 30
0.0
 11
11.11155357080469
 21
7.231499054017742
 31
0.0
  0
LINE
  5
4B28
330
1F
100
AcDbEntity
  8
0
100
AcDbLine
 10
11.01155357080469
 20
6.778499054017739
 30
0.0
 11
11.01155357080469
 21
6.757834697784058
 31
0.0
  0
LINE
  5
4B29
330
1F
100
AcDbEntity
  8
0
100
AcDbLine
 10
11.11155357080469
 20
7.231499054017742
 30
0.0
 11
11.11155357080469
 21
6.788223889717325
 31
0.0
  0
LINE
  5
4B2A
330
1F
100
AcDbEntity
  8
0
100
AcDbLine
 10
11.01155357080469
 20
6.788223889717325
 30
0.0
 11
11.01155357080469
 21
6.778499054017739
 31
0.0
  0
LINE
  5
4B88
330
1F
100
AcDbEntity
  8
0
100
AcDbLine
 10
11.96681684232184
 20
6.265262931370396
 30
0.0
 11
11.20236857644506
 21
6.265262931370396
 31
0.0
  0
LINE
  5
4B89
330
1F
100
AcDbEntity
  8
0
100
AcDbLine
 10
11.01155357080469
 20
6.365262931370391
 30
0.0
 11
10.93160020981384
 21
6.365262931370391
 31
0.0
  0
LINE
  5
4B8A
330
1F
100
AcDbEntity
  8
0
100
AcDbLine
 10
12.02843024935674
 20
6.265262931370395
 30
0.0
 11
12.03968415073758
 21
6.266966640055935
 31
0.0
  0
LINE
  5
4B8B
330
1F
100
AcDbEntity
  8
0
100
AcDbLine
 10
12.03968415073758
 20
6.266966640055935
 30
0.0
 11
12.05017111733726
 21
6.271961661181174
 31
0.0
  0
LINE
  5
4B8C
330
1F
100
AcDbEntity
  8
0
100
AcDbLine
 10
12.05017111733726
 20
6.271961661181174
 30
0.0
 11
12.05917647971256
 21
6.279907592311056
 31
0.0
  0
LINE
  5
4B8D
330
1F
100
AcDbEntity
  8
0
100
AcDbLine
 10
12.05917647971256
 20
6.279907592311056
 30
0.0
 11
12.06608653729965
 21
6.290262931370401
 31
0.0
  0
LINE
  5
4B8E
330
1F
100
AcDbEntity
  8
0
100
AcDbLine
 10
12.06608653729965
 20
6.290262931370401
 30
0.0
 11
12.07043038109339
 21
6.302321979115285
 31
0.0
  0
LINE
  5
4B8F
330
1F
100
AcDbEntity
  8
0
100
AcDbLine
 10
12.07043038109339
 20
6.302321979115285
 30
0.0
 11
12.07191198531778
 21
6.315262931370407
 31
0.0
  0
LINE
  5
4B90
330
1F
100
AcDbEntity
  8
0
100
AcDbLine
 10
12.07191198531778
 20
6.315262931370407
 30
0.0
 11
12.07043038109339
 21
6.328203883625528
 31
0.0
  0
LINE
  5
4B91
330
1F
100
AcDbEntity
  8
0
100
AcDbLine
 10
12.07043038109339
 20
6.328203883625528
 30
0.0
 11
12.06608653729965
 21
6.340262931370412
 31
0.0
  0
LINE
  5
4B92
330
1F
100
AcDbEntity
  8
0
100
AcDbLine
 10
12.05917647971256
 20
6.350618270429729
 30
0.0
 11
12.05017111733725
 21
6.358564201559611
 31
0.0
  0
LINE
  5
4B93
330
1F
100
AcDbEntity
  8
0
100
AcDbLine
 10
12.06608653729965
 20
6.340262931370412
 30
0.0
 11
12.05917647971256
 21
6.350618270429729
 31
0.0
  0
LINE
  5
4B94
330
1F
100
AcDbEntity
  8
0
100
AcDbLine
 10
12.03968415073758
 20
6.36355922268485
 30
0.0
 11
12.02843024935673
 21
6.36526293137039
 31
0.0
  0
LINE
  5
4B95
330
1F
100
AcDbEntity
  8
0
100
AcDbLine
 10
12.05017111733725
 20
6.358564201559611
 30
0.0
 11
12.03968415073758
 21
6.36355922268485
 31
0.0
  0
LINE
  5
4B96
330
1F
100
AcDbEntity
  8
0
100
AcDbLine
 10
11.96681684232184
 20
6.365262931370391
 30
0.0
 11
11.1781952948601
 21
6.365262931370391
 31
0.0
  0
LINE
  5
4B97
330
1F
100
AcDbEntity
  8
0
100
AcDbLine
 10
10.09467689225264
 20
6.265262931370396
 30
0.0
 11
11.01155357080469
 21
6.265262931370396
 31
0.0
  0
LINE
  5
4B98
330
1F
100
AcDbEntity
  8
0
100
AcDbLine
 10
11.11155357080469
 20
6.265262931370396
 30
0.0
 11
11.19150693179554
 21
6.265262931370396
 31
0.0
  0
LINE
  5
4B99
330
1F
100
AcDbEntity
  8
0
100
AcDbLine
 10
10.09467689225264
 20
6.265262931370396
 30
0.0
 11
10.08342299087179
 21
6.266966640055936
 31
0.0
  0
LINE
  5
4B9A
330
1F
100
AcDbEntity
  8
0
100
AcDbLine
 10
10.08342299087179
 20
6.266966640055936
 30
0.0
 11
10.07293602427212
 21
6.271961661181175
 31
0.0
  0
LINE
  5
4B9B
330
1F
100
AcDbEntity
  8
0
100
AcDbLine
 10
10.07293602427212
 20
6.271961661181175
 30
0.0
 11
10.06393066189682
 21
6.279907592311057
 31
0.0
  0
LINE
  5
4B9C
330
1F
100
AcDbEntity
  8
0
100
AcDbLine
 10
10.06393066189682
 20
6.279907592311057
 30
0.0
 11
10.05702060430973
 21
6.290262931370402
 31
0.0
  0
LINE
  5
4B9D
330
1F
100
AcDbEntity
  8
0
100
AcDbLine
 10
10.05702060430973
 20
6.290262931370402
 30
0.0
 11
10.05267676051598
 21
6.302321979115258
 31
0.0
  0
LINE
  5
4B9E
330
1F
100
AcDbEntity
  8
0
100
AcDbLine
 10
10.05267676051598
 20
6.302321979115258
 30
0.0
 11
10.0511951562916
 21
6.315262931370379
 31
0.0
  0
LINE
  5
4B9F
330
1F
100
AcDbEntity
  8
0
100
AcDbLine
 10
10.0511951562916
 20
6.315262931370379
 30
0.0
 11
10.05267676051598
 21
6.328203883625529
 31
0.0
  0
LINE
  5
4BA0
330
1F
100
AcDbEntity
  8
0
100
AcDbLine
 10
10.05267676051598
 20
6.328203883625529
 30
0.0
 11
10.05702060430973
 21
6.340262931370385
 31
0.0
  0
LINE
  5
4BA1
330
1F
100
AcDbEntity
  8
0
100
AcDbLine
 10
10.06393066189682
 20
6.35061827042973
 30
0.0
 11
10.07293602427212
 21
6.358564201559611
 31
0.0
  0
LINE
  5
4BA2
330
1F
100
AcDbEntity
  8
0
100
AcDbLine
 10
10.05702060430973
 20
6.340262931370385
 30
0.0
 11
10.06393066189682
 21
6.35061827042973
 31
0.0
  0
LINE
  5
4BA3
330
1F
100
AcDbEntity
  8
0
100
AcDbLine
 10
10.08342299087179
 20
6.363559222684851
 30
0.0
 11
10.09467689225264
 21
6.365262931370391
 31
0.0
  0
LINE
  5
4BA4
330
1F
100
AcDbEntity
  8
0
100
AcDbLine
 10
10.07293602427212
 20
6.358564201559611
 30
0.0
 11
10.08342299087179
 21
6.363559222684851
 31
0.0
  0
LINE
  5
4BA5
330
1F
100
AcDbEntity
  8
0
100
AcDbLine
 10
10.09467689225264
 20
6.365262931370391
 30
0.0
 11
10.93160020981384
 21
6.365262931370391
 31
0.0
  0
LINE
  5
4BAE
330
1F
100
AcDbEntity
  8
0
100
AcDbLine
 10
11.11155357080469
 20
6.265262931370396
 30
0.0
 11
11.11155357080469
 21
6.278588063887876
 31
0.0
  0
LINE
  5
4BAF
330
1F
100
AcDbEntity
  8
0
100
AcDbLine
 10
11.11155357080469
 20
6.295259924799204
 30
0.0
 11
11.11155357080469
 21
6.321662732168896
 31
0.0
  0
LINE
  5
4BB0
330
1F
100
AcDbEntity
  8
0
100
AcDbLine
 10
11.11155357080469
 20
6.450624353774991
 30
0.0
 11
11.11155357080469
 21
6.570003913362193
 31
0.0
  0
LINE
  5
4BB1
330
1F
100
AcDbEntity
  8
0
100
AcDbLine
 10
11.01155357080469
 20
6.365262931370391
 30
0.0
 11
11.01155357080469
 21
6.37858806388787
 31
0.0
  0
LINE
  5
4BB2
330
1F
100
AcDbEntity
  8
0
100
AcDbLine
 10
11.01155357080469
 20
6.269131463448769
 30
0.0
 11
11.01155357080469
 21
6.282456595966249
 31
0.0
  0
LINE
  5
4BB3
330
1F
100
AcDbEntity
  8
0
100
AcDbLine
 10
11.11155357080469
 20
6.365262931370391
 30
0.0
 11
11.1781952948601
 21
6.365262931370391
 31
0.0
  0
LINE
  5
4BB4
330
1F
100
AcDbEntity
  8
0
100
AcDbLine
 10
11.11155357080469
 20
6.282456595966249
 30
0.0
 11
11.11155357080469
 21
6.458139993858151
 31
0.0
  0
LINE
  5
4BB5
330
1F
100
AcDbEntity
  8
0
100
AcDbLine
 10
11.01155357080469
 20
6.265262931370396
 30
0.0
 11
11.01155357080469
 21
6.365262931370391
 31
0.0
  0
LINE
  5
4BB6
330
1F
100
AcDbEntity
  8
0
100
AcDbLine
 10
11.11155357080469
 20
6.351937798852911
 30
0.0
 11
11.11155357080469
 21
6.365262931370391
 31
0.0
  0
LINE
  5
4BB7
330
1F
100
AcDbEntity
  8
0
100
AcDbLine
 10
11.11155357080469
 20
6.265262931370396
 30
0.0
 11
11.11155357080469
 21
6.465262931370385
 31
0.0
  0
ARC
  5
4BB8
330
1F
100
AcDbEntity
  8
0
100
AcDbCircle
 10
11.10655357080469
 20
6.265262931370396
 30
0.0
 40
0.005
100
AcDbArc
 50
270.0
 51
0.0
  0
LINE
  5
4BB9
330
1F
100
AcDbEntity
  8
0
100
AcDbLine
 10
11.01155357080469
 20
6.265262931370396
 30
0.0
 11
11.01155357080469
 21
6.915690317825304
 31
0.0
  0
ARC
  5
4BBA
330
1F
100
AcDbEntity
  8
0
100
AcDbCircle
 10
11.01655357080469
 20
6.265262931370396
 30
0.0
 40
0.005
100
AcDbArc
 50
180.0
 51
270.0
  0
LINE
  5
4BBB
330
1F
100
AcDbEntity
  8
0
100
AcDbLine
 10
11.11155357080469
 20
6.7598010016683
 30
0.0
 11
11.11155357080469
 21
6.776411809735058
 31
0.0
  0
LINE
  5
4BBC
330
1F
100
AcDbEntity
  8
0
100
AcDbLine
 10
11.11155357080469
 20
6.776411809735058
 30
0.0
 11
11.11155357080469
 21
6.786136645434616
 31
0.0
  0
LINE
  5
4BBD
330
1F
100
AcDbEntity
  8
0
100
AcDbLine
 10
11.01155357080469
 20
7.239136645434619
 30
0.0
 11
11.01155357080469
 21
7.259801001668328
 31
0.0
  0
LINE
  5
4BBE
330
1F
100
AcDbEntity
  8
0
100
AcDbLine
 10
11.11155357080469
 20
6.293088471343437
 30
0.0
 11
11.11155357080469
 21
6.667349136631979
 31
0.0
  0
LINE
  5
4BBF
330
1F
100
AcDbEntity
  8
0
100
AcDbLine
 10
11.01155357080469
 20
6.293088471343408
 30
0.0
 11
11.01155357080469
 21
6.830758253071095
 31
0.0
  0
LINE
  5
4BC0
330
1F
100
AcDbEntity
  8
0
100
AcDbLine
 10
11.01155357080469
 20
6.786136645434616
 30
0.0
 11
11.01155357080469
 21
7.229411809735061
 31
0.0
  0
LINE
  5
4BC1
330
1F
100
AcDbEntity
  8
0
100
AcDbLine
 10
11.01155357080469
 20
7.229411809735061
 30
0.0
 11
11.01155357080469
 21
7.239136645434619
 31
0.0
  0
LINE
  5
4BC3
330
1F
100
AcDbEntity
  8
0
100
AcDbLine
 10
11.01655357080469
 20
6.260262931370401
 30
0.0
 11
11.10655357080469
 21
6.260262931370401
 31
0.0
  0
LINE
  5
4C28
330
1F
100
AcDbEntity
  8
0
100
AcDbLine
 10
11.01155357080469
 20
6.7598010016683
 30
0.0
 11
11.01155357080469
 21
6.776411809735058
 31
0.0
  0
LINE
  5
4C29
330
1F
100
AcDbEntity
  8
0
100
AcDbLine
 10
11.01155357080469
 20
6.776411809735058
 30
0.0
 11
11.01155357080469
 21
6.786136645434616
 31
0.0
  0
LINE
  5
4C2A
330
1F
100
AcDbEntity
  8
0
100
AcDbLine
 10
11.11155357080469
 20
7.239136645434619
 30
0.0
 11
11.11155357080469
 21
7.259801001668328
 31
0.0
  0
LINE
  5
4C2B
330
1F
100
AcDbEntity
  8
0
100
AcDbLine
 10
11.11155357080469
 20
6.786136645434616
 30
0.0
 11
11.11155357080469
 21
7.229411809735061
 31
0.0
  0
LINE
  5
4C2C
330
1F
100
AcDbEntity
  8
0
100
AcDbLine
 10
11.11155357080469
 20
7.229411809735061
 30
0.0
 11
11.11155357080469
 21
7.239136645434619
 31
0.0
  0
LINE
  5
4C2E
330
1F
100
AcDbEntity
  8
0
100
AcDbLine
 10
10.16715194393706
 20
8.890742093894171
 30
0.0
 11
10.94491184674928
 21
8.890742093894143
 31
0.0
  0
LINE
  5
4C2F
330
1F
100
AcDbEntity
  8
0
100
AcDbLine
 10
11.01155357080469
 20
7.626490321645698
 30
0.0
 11
11.01155357080469
 21
7.495562396155333
 31
0.0
  0
LINE
  5
4C30
330
1F
100
AcDbEntity
  8
0
100
AcDbLine
 10
10.16715194393706
 20
8.990742093894194
 30
0.0
 11
10.09615849647702
 21
8.990742093894194
 31
0.0
  0
LINE
  5
4C31
330
1F
100
AcDbEntity
  8
0
100
AcDbLine
 10
10.16715194393706
 20
8.890742093894171
 30
0.0
 11
10.09615849647703
 21
8.890742093894171
 31
0.0
  0
LINE
  5
4C32
330
1F
100
AcDbEntity
  8
0
100
AcDbLine
 10
12.02843024935673
 20
6.36526293137039
 30
0.0
 11
11.96681684232184
 21
6.365262931370391
 31
0.0
  0
LINE
  5
4C33
330
1F
100
AcDbEntity
  8
0
100
AcDbLine
 10
12.02843024935674
 20
6.265262931370395
 30
0.0
 11
11.96681684232184
 21
6.265262931370396
 31
0.0
  0
LINE
  5
4C34
330
1F
100
AcDbEntity
  8
0
100
AcDbLine
 10
11.20236857644506
 20
6.265262931370396
 30
0.0
 11
11.19150693179554
 21
6.265262931370396
 31
0.0
  0
LINE
  5
4C55
330
1F
100
AcDbEntity
  8
0
100
AcDbLine
 10
11.11155357080469
 20
6.450624353774991
 30
0.0
 11
11.11155357080469
 21
6.321662732168896
 31
0.0
  0
CIRCLE
  5
4C7F
330
1F
100
AcDbEntity
  8
0
100
AcDbCircle
 10
11.06126889933178
 20
6.851833939917961
 30
0.0
 40
0.0115550249724841
  0
CIRCLE
  5
4C80
330
1F
100
AcDbEntity
  8
0
100
AcDbCircle
 10
11.06126889933178
 20
6.90978703557589
 30
0.0
 40
0.0115550249724841
  0
LINE
  5
4C95
330
1F
100
AcDbEntity
  8
STREFA BEZPIECZEŃSTWA
100
AcDbLine
 10
7.311553570804694
 20
5.873576526907294
 30
0.0
 11
7.311553570804694
 21
9.373576526907294
 31
0.0
  0
LINE
  5
4C96
330
1F
100
AcDbEntity
  8
STREFA BEZPIECZEŃSTWA
100
AcDbLine
 10
7.311553570804694
 20
9.373576526907294
 30
0.0
 11
14.81155357080469
 21
9.373576526907298
 31
0.0
  0
LINE
  5
4C97
330
1F
100
AcDbEntity
  8
STREFA BEZPIECZEŃSTWA
100
AcDbLine
 10
14.81155357080469
 20
9.373576526907298
 30
0.0
 11
14.8115535708047
 21
5.873576526907292
 31
0.0
  0
LINE
  5
4C98
102
{ACAD_REACTORS
330
51F0
102
}
330
1F
100
AcDbEntity
  8
STREFA BEZPIECZEŃSTWA
100
AcDbLine
 10
14.8115535708047
 20
5.873576526907292
 30
0.0
 11
7.311553570804694
 21
5.873576526907294
 31
0.0
  0
LINE
  5
4C99
330
1F
100
AcDbEntity
  8
0
100
AcDbLine
 10
11.11155357080469
 20
6.570003913362193
 30
0.0
 11
11.11155357080469
 21
7.65289312901539
 31
0.0
  0
LINE
  5
5074
330
1F
100
AcDbEntity
  8
0
100
AcDbLine
 10
11.1115535708047
 20
7.484996020390752
 30
0.0
 11
11.1115535708047
 21
7.511398827760444
 31
0.0
  0
LINE
  5
5075
330
1F
100
AcDbEntity
  8
0
100
AcDbLine
 10
11.1115535708047
 20
7.642326753250809
 30
0.0
 11
11.1115535708047
 21
8.567885236043951
 31
0.0
  0
LINE
  5
5076
330
1F
100
AcDbEntity
  8
0
100
AcDbLine
 10
11.11155357080469
 20
7.880054451622084
 30
0.0
 11
11.11155357080469
 21
7.896665259688843
 31
0.0
  0
LINE
  5
5077
330
1F
100
AcDbEntity
  8
0
100
AcDbLine
 10
11.11155357080469
 20
7.896665259688843
 30
0.0
 11
11.11155357080469
 21
7.906390095388401
 31
0.0
  0
LINE
  5
5078
330
1F
100
AcDbEntity
  8
0
100
AcDbLine
 10
11.01155357080469
 20
8.359390095388404
 30
0.0
 11
11.01155357080469
 21
8.380054451622084
 31
0.0
  0
LINE
  5
5079
330
1F
100
AcDbEntity
  8
0
100
AcDbLine
 10
11.11155357080469
 20
8.338835709069098
 30
0.0
 11
11.11155357080469
 21
8.876505490796755
 31
0.0
  0
LINE
  5
507A
330
1F
100
AcDbEntity
  8
0
100
AcDbLine
 10
11.11155357080469
 20
7.906390095388401
 30
0.0
 11
11.11155357080469
 21
8.349665259688817
 31
0.0
  0
LINE
  5
507B
330
1F
100
AcDbEntity
  8
0
100
AcDbLine
 10
11.01155357080469
 20
8.349665259688817
 30
0.0
 11
11.01155357080469
 21
8.359390095388404
 31
0.0
  0
LINE
  5
50E1
330
1F
100
AcDbEntity
  8
0
100
AcDbLine
 10
11.01155357080469
 20
7.880054451622084
 30
0.0
 11
11.01155357080469
 21
7.896665259688843
 31
0.0
  0
LINE
  5
50E2
330
1F
100
AcDbEntity
  8
0
100
AcDbLine
 10
11.01155357080469
 20
7.896665259688843
 30
0.0
 11
11.01155357080469
 21
7.906390095388401
 31
0.0
  0
LINE
  5
50E3
330
1F
100
AcDbEntity
  8
0
100
AcDbLine
 10
11.11155357080469
 20
8.359390095388404
 30
0.0
 11
11.11155357080469
 21
8.380054451622084
 31
0.0
  0
LINE
  5
50E4
330
1F
100
AcDbEntity
  8
0
100
AcDbLine
 10
11.01155357080469
 20
7.906390095388401
 30
0.0
 11
11.01155357080469
 21
8.349665259688817
 31
0.0
  0
LINE
  5
50E5
330
1F
100
AcDbEntity
  8
0
100
AcDbLine
 10
11.11155357080469
 20
8.349665259688817
 30
0.0
 11
11.11155357080469
 21
8.359390095388404
 31
0.0
  0
LINE
  5
514B
330
1F
100
AcDbEntity
  8
0
100
AcDbLine
 10
11.01155357080469
 20
8.842629224606939
 30
0.0
 11
11.01155357080469
 21
8.816226417237247
 31
0.0
  0
LINE
  5
514C
330
1F
100
AcDbEntity
  8
0
100
AcDbLine
 10
11.01155357080469
 20
8.687264795631152
 30
0.0
 11
11.01155357080469
 21
8.567885236043951
 31
0.0
  0
LINE
  5
514D
330
1F
100
AcDbEntity
  8
0
100
AcDbLine
 10
11.01155357080469
 20
8.869312622498821
 30
0.0
 11
11.01155357080469
 21
8.693629224606919
 31
0.0
  0
LINE
  5
514E
330
1F
100
AcDbEntity
  8
0
100
AcDbLine
 10
11.11155357080469
 20
8.890742093894143
 30
0.0
 11
11.11155357080469
 21
8.240314707439235
 31
0.0
  0
LINE
  5
514F
330
1F
100
AcDbEntity
  8
0
100
AcDbLine
 10
11.01155357080469
 20
8.378088147737843
 30
0.0
 11
11.01155357080469
 21
8.361477339671084
 31
0.0
  0
LINE
  5
5150
330
1F
100
AcDbEntity
  8
0
100
AcDbLine
 10
11.01155357080469
 20
8.361477339671084
 30
0.0
 11
11.01155357080469
 21
8.351752503971527
 31
0.0
  0
LINE
  5
5151
330
1F
100
AcDbEntity
  8
0
100
AcDbLine
 10
11.11155357080469
 20
7.898752503971524
 30
0.0
 11
11.11155357080469
 21
7.878088147737814
 31
0.0
  0
LINE
  5
5152
330
1F
100
AcDbEntity
  8
0
100
AcDbLine
 10
11.01155357080469
 20
8.862916553921103
 30
0.0
 11
11.01155357080469
 21
8.48865588863256
 31
0.0
  0
LINE
  5
5153
330
1F
100
AcDbEntity
  8
0
100
AcDbLine
 10
11.11155357080469
 20
8.862916553921131
 30
0.0
 11
11.11155357080469
 21
8.325246772193445
 31
0.0
  0
LINE
  5
5154
330
1F
100
AcDbEntity
  8
0
100
AcDbLine
 10
11.11155357080469
 20
8.351752503971527
 30
0.0
 11
11.11155357080469
 21
7.908477339671081
 31
0.0
  0
LINE
  5
5155
330
1F
100
AcDbEntity
  8
0
100
AcDbLine
 10
11.11155357080469
 20
7.908477339671081
 30
0.0
 11
11.11155357080469
 21
7.898752503971524
 31
0.0
  0
LINE
  5
51BB
330
1F
100
AcDbEntity
  8
0
100
AcDbLine
 10
11.11155357080469
 20
8.378088147737843
 30
0.0
 11
11.11155357080469
 21
8.361477339671084
 31
0.0
  0
LINE
  5
51BC
330
1F
100
AcDbEntity
  8
0
100
AcDbLine
 10
11.11155357080469
 20
8.361477339671084
 30
0.0
 11
11.11155357080469
 21
8.351752503971527
 31
0.0
  0
LINE
  5
51BD
330
1F
100
AcDbEntity
  8
0
100
AcDbLine
 10
11.01155357080469
 20
7.898752503971524
 30
0.0
 11
11.01155357080469
 21
7.878088147737814
 31
0.0
  0
LINE
  5
51BE
330
1F
100
AcDbEntity
  8
0
100
AcDbLine
 10
11.01155357080469
 20
8.351752503971527
 30
0.0
 11
11.01155357080469
 21
7.908477339671081
 31
0.0
  0
LINE
  5
51BF
330
1F
100
AcDbEntity
  8
0
100
AcDbLine
 10
11.01155357080469
 20
7.908477339671081
 30
0.0
 11
11.01155357080469
 21
7.898752503971524
 31
0.0
  0
LINE
  5
51C1
330
1F
100
AcDbEntity
  8
0
100
AcDbLine
 10
11.1115535708047
 20
7.511398827760444
 30
0.0
 11
11.1115535708047
 21
7.642326753250809
 31
0.0
  0
LINE
  5
51C2
330
1F
100
AcDbEntity
  8
0
100
AcDbLine
 10
11.01155357080469
 20
8.687264795631152
 30
0.0
 11
11.01155357080469
 21
8.816226417237247
 31
0.0
  0
CIRCLE
  5
51C5
330
1F
100
AcDbEntity
  8
0
100
AcDbCircle
 10
11.0618382422776
 20
8.331512405288249
 30
0.0
 40
0.0115550249724841
  0
CIRCLE
  5
51C6
330
1F
100
AcDbEntity
  8
0
100
AcDbCircle
 10
11.0618382422776
 20
8.27355930963032
 30
0.0
 40
0.0115550249724841
  0
LINE
  5
51C7
330
1F
100
AcDbEntity
  8
0
100
AcDbLine
 10
11.01155357080469
 20
8.567885236043951
 30
0.0
 11
11.01155357080469
 21
7.484996020390754
 31
0.0
  0
LINE
  5
51C8
102
{ACAD_REACTORS
330
51DC
330
51F0
102
}
330
1F
100
AcDbEntity
  8
STREFA BEZPIECZEŃSTWA
100
AcDbLine
 10
7.311553570804694
 20
9.373576526907294
 30
0.0
 11
14.81155357080469
 21
9.373576526907298
 31
0.0
  0
DIMENSION
  5
51C9
102
{ACAD_XDICTIONARY
360
51D4
102
}
102
{ACAD_REACTORS
330
51DC
102
}
330
1F
100
AcDbEntity
  8
WYMIAR
100
AcDbDimension
  2
*D1
 10
14.81155357080469
 20
9.889676457430732
 30
0.0
 11
11.06155357080469
 21
10.09967645743073
 31
0.0
 70
    32
 71
     5
 42
7.500000000000001
  3
AR SKALA 1-50
100
AcDbAlignedDimension
 13
7.311553570804694
 23
9.373576526907294
 33
0.0
 14
14.81155357080469
 24
9.373576526907298
 34
0.0
100
AcDbRotatedDimension
  0
DIMENSION
  5
51DD
102
{ACAD_XDICTIONARY
360
51E8
102
}
102
{ACAD_REACTORS
330
51F0
102
}
330
1F
100
AcDbEntity
  8
WYMIAR
100
AcDbDimension
  2
*D2
 10
6.67122000069467
 20
5.873576526907294
 30
0.0
 11
6.46122000069467
 21
7.623576526907296
 31
0.0
 70
    32
 71
     5
 42
3.5
  3
AR SKALA 1-50
100
AcDbAlignedDimension
 13
7.311553570804694
 23
9.373576526907294
 33
0.0
 14
7.311553570804694
 24
5.873576526907294
 34
0.0
 50
90.0
100
AcDbRotatedDimension
  0
LINE
  5
56F8
330
1F
100
AcDbEntity
  8
WYMIAR
100
AcDbLine
 10
11.11155357080469
 20
8.991742093894146
 30
0.0
 11
11.11155357080469
 21
8.841742093894145
 31
0.0
  0
LINE
  5
56FA
330
1F
100
AcDbEntity
  8
WYMIAR
100
AcDbLine
 10
11.11155357080469
 20
6.265262931370396
 30
0.0
 11
11.11155357080469
 21
6.415262931370397
 31
0.0
  0
ARC
  5
5A4A
330
1F
100
AcDbEntity
  8
0
100
AcDbCircle
 10
11.05766771335913
 20
7.591192316887839
 30
0.0
 40
0.4413940893630404
100
AcDbArc
 50
95.99685401200243
 51
264.0031459879983
  0
ARC
  5
5A4B
330
1F
100
AcDbEntity
  8
0
100
AcDbCircle
 10
11.05766771335913
 20
7.591192316887839
 30
0.0
 40
0.4413940893630404
100
AcDbArc
 50
277.0122216124886
 51
82.98777838751171
  0
ARC
  5
5A4C
330
1F
100
AcDbEntity
  8
0
100
AcDbCircle
 10
11.05766771335913
 20
7.591192316887839
 30
0.0
 40
0.3648857723092647
100
AcDbArc
 50
97.26043681248821
 51
262.7395631875118
  0
ARC
  5
5A4D
330
1F
100
AcDbEntity
  8
0
100
AcDbCircle
 10
11.05766771335913
 20
7.591192316887839
 30
0.0
 40
0.3648857723092647
100
AcDbArc
 50
278.4924278523558
 51
81.50757214764425
  0
LINE
  5
5A4E
330
1F
100
AcDbEntity
  8
0
100
AcDbLine
 10
10.90760396113696
 20
7.923791921672227
 30
0.0
 11
11.01155357080469
 21
7.853042069038382
 31
0.0
  0
LINE
  5
5A4F
330
1F
100
AcDbEntity
  8
0
100
AcDbLine
 10
10.90760396113696
 20
7.258592712103451
 30
0.0
 11
11.01155357080469
 21
7.329342564737295
 31
0.0
  0
LINE
  5
5A50
330
1F
100
AcDbEntity
  8
0
100
AcDbLine
 10
11.11155357080469
 20
7.324053004872498
 30
0.0
 11
11.2077314655813
 21
7.258592712103451
 31
0.0
  0
LINE
  5
5A51
330
1F
100
AcDbEntity
  8
0
100
AcDbLine
 10
11.11155357080469
 20
7.858331628903179
 30
0.0
 11
11.2077314655813
 21
7.923791921672227
 31
0.0
  0
VIEWPORT
  5
7CA
330
1B
100
AcDbEntity
 67
     1
  8
0
100
AcDbViewport
 10
250.8078564553756
 20
151.9284754761402
 30
0.0
 40
420.4378690602835
 41
204.4576762861672
 68
     1
 69
     1
 12
250.8078564553756
 22
151.9284754761402
 13
0.0
 23
0.0
 14
10.0
 24
10.0
 15
10.0
 25
10.0
 16
0.0
 26
0.0
 36
1.0
 17
0.0
 27
0.0
 37
0.0
 42
50.0
 43
0.0
 44
0.0
 45
204.4576762861672
 50
0.0
 51
0.0
 72
   100
 90
   819232
  1

281
     0
 71
     1
 74
     0
110
0.0
120
0.0
130
0.0
111
1.0
121
0.0
131
0.0
112
0.0
122
1.0
132
0.0
 79
     0
146
0.0
170
     0
  0
VIEWPORT
  5
99A
330
1B
100
AcDbEntity
 67
     1
  8
Defpoints
100
AcDbViewport
 10
151.5855934681565
 20
104.8621726199724
 30
0.0
 40
290.0480970456033
 41
203.1599664902751
 68
     2
 69
     2
 12
10.52628202427198
 22
7.055332186530126
 13
0.0
 23
0.0
 14
0.5
 24
0.5
 15
0.5
 25
0.5
 16
0.0
 26
0.0
 36
1.0
 17
0.0
 27
0.0
 37
-1000.0
 42
50.0
 43
4.148984367261674
 44
9.217858496371269
 45
10.15799927015914
 50
0.0
 51
0.0
 72
   100
 90
   819296
  1

281
     0
 71
     1
 74
     0
110
0.0
120
0.0
130
0.0
111
1.0
121
0.0
131
0.0
112
0.0
122
1.0
132
0.0
 79
     0
146
0.0
170
     0
  0
ENDSEC
  0
SECTION
  2
OBJECTS
  0
DICTIONARY
  5
C
330
0
100
AcDbDictionary
281
     1
  3
ACAD_COLOR
350
4B9
  3
ACAD_GROUP
350
D
  3
ACAD_LAYOUT
350
1A
  3
ACAD_MATERIAL
350
3B
  3
ACAD_MLEADERSTYLE
350
489
  3
ACAD_MLINESTYLE
350
17
  3
ACAD_PLOTSETTINGS
350
19
  3
ACAD_PLOTSTYLENAME
350
E
  3
ACAD_SCALELIST
350
4213
  3
ACAD_TABLESTYLE
350
4BA
  3
ACAD_VISUALSTYLE
350
2A
  3
ACDB_RECOMPOSE_DATA
350
4244
  3
AcDbVariableDictionary
350
487
  0
DICTIONARY
  5
84C
330
8
100
AcDbDictionary
280
     1
281
     1
  0
DICTIONARY
  5
7D1
330
2
100
AcDbDictionary
280
     1
281
     1
  3
ACAD_LAYERFILTERS
360
4281
  3
ACAD_LAYERSTATES
360
7D2
  3
ACLYDICTIONARY
360
4280
  0
DICTIONARY
  5
423C
330
10
100
AcDbDictionary
280
     1
281
     1
  3
ADSK_XREC_LAYER_RECONCILED
360
423D
  0
DICTIONARY
  5
423E
330
87B
100
AcDbDictionary
280
     1
281
     1
  3
ADSK_XREC_LAYER_RECONCILED
360
423F
  0
DICTIONARY
  5
4240
330
87D
100
AcDbDictionary
280
     1
281
     1
  3
ADSK_XREC_LAYER_RECONCILED
360
4241
  0
DICTIONARY
  5
5F8
330
1F
100
AcDbDictionary
280
     1
281
     1
  3
ACAD_SORTENTS
360
5F9
  0
DICTIONARY
  5
5A22
330
5710
100
AcDbDictionary
280
     1
281
     1
  3
ACAD_SORTENTS
360
5A23
  0
DICTIONARY
  5
57B6
330
57B5
100
AcDbDictionary
280
     1
281
     1
  3
ACAD_DIMASSOC
360
57B7
  0
DICTIONARY
  5
57B9
330
57B8
100
AcDbDictionary
280
     1
281
     1
  3
ACAD_DIMASSOC
360
57BA
  0
DICTIONARY
  5
5A8D
330
58EE
100
AcDbDictionary
280
     1
281
     1
  3
ACAD_MTEXT_2008_RT
360
5A8E
  0
DICTIONARY
  5
51D4
330
51C9
100
AcDbDictionary
280
     1
281
     1
  3
ACAD_DIMASSOC
360
51DC
  0
DICTIONARY
  5
51E8
330
51DD
100
AcDbDictionary
280
     1
281
     1
  3
ACAD_DIMASSOC
360
51F0
  0
DICTIONARY
  5
4B9
102
{ACAD_REACTORS
330
C
102
}
330
C
100
AcDbDictionary
281
     1
  0
DICTIONARY
  5
D
102
{ACAD_REACTORS
330
C
102
}
330
C
100
AcDbDictionary
281
     1
  0
DICTIONARY
  5
1A
102
{ACAD_REACTORS
330
C
102
}
330
C
100
AcDbDictionary
281
     1
  3
Layout1
350
1E
  3
Model
350
22
  0
DICTIONARY
  5
3B
102
{ACAD_REACTORS
330
C
102
}
330
C
100
AcDbDictionary
281
     1
  3
ByBlock
350
3D
  3
ByLayer
350
3C
  3
Global
350
3E
  0
DICTIONARY
  5
489
102
{ACAD_REACTORS
330
C
102
}
330
C
100
AcDbDictionary
281
     1
  3
Standard
350
4235
  0
DICTIONARY
  5
17
102
{ACAD_REACTORS
330
C
102
}
330
C
100
AcDbDictionary
281
     1
  3
Standard
350
18
  0
DICTIONARY
  5
19
102
{ACAD_REACTORS
330
C
102
}
330
C
100
AcDbDictionary
281
     1
  0
ACDBDICTIONARYWDFLT
  5
E
102
{ACAD_REACTORS
330
C
102
}
330
C
100
AcDbDictionary
281
     1
  3
Normal
350
F
100
AcDbDictionaryWithDefault
340
F
  0
DICTIONARY
  5
4213
102
{ACAD_REACTORS
330
C
102
}
330
C
100
AcDbDictionary
281
     1
  3
A0
350
4214
  3
A1
350
4215
  3
A2
350
4216
  3
A3
350
4217
  3
A4
350
4218
  3
A5
350
4219
  3
A6
350
421A
  3
A7
350
421B
  3
A8
350
421C
  3
A9
350
421D
  3
B0
350
421E
  3
B1
350
421F
  3
B2
350
4220
  3
B3
350
4221
  3
B4
350
4222
  3
B5
350
4223
  3
B6
350
4224
  3
B7
350
4225
  3
B8
350
4226
  3
B9
350
4227
  3
C0
350
4228
  3
C1
350
4229
  3
C2
350
422A
  3
C3
350
422B
  3
C4
350
422C
  3
C5
350
422D
  3
C6
350
422E
  3
C7
350
422F
  3
C8
350
4230
  3
C9
350
4231
  3
D0
350
4232
  3
D1
350
4233
  3
D2
350
4234
  0
DICTIONARY
  5
4BA
102
{ACAD_REACTORS
330
C
102
}
330
C
100
AcDbDictionary
281
     1
  3
Standard
350
4BB
  0
DICTIONARY
  5
2A
102
{ACAD_REACTORS
330
C
102
}
330
C
100
AcDbDictionary
281
     1
  3
2dWireframe
350
2F
  3
3D Hidden
350
A47
  3
3dWireframe
350
A48
  3
Basic
350
32
  3
Brighten
350
36
  3
ColorChange
350
3A
  3
Conceptual
350
A4B
  3
Dim
350
35
  3
Facepattern
350
39
  3
Flat
350
2B
  3
FlatWithEdges
350
2C
  3
Gouraud
350
2D
  3
GouraudWithEdges
350
2E
  3
Linepattern
350
38
  3
Realistic
350
A4C
  3
Thicken
350
37
  0
XRECORD
  5
4244
102
{ACAD_REACTORS
330
C
102
}
330
C
100
AcDbXrecord
280
     1
 90
        1
330
4BB
  0
DICTIONARY
  5
487
102
{ACAD_REACTORS
330
C
102
}
330
C
100
AcDbDictionary
281
     1
  3
CANNOSCALE
350
4247
  3
CMLEADERSTYLE
350
4245
  3
CTABLESTYLE
350
5FE
  3
DIMASSOC
350
48A
  3
HIDETEXT
350
48B
  3
INDEXCTL
350
86B
  3
LIGHTINGUNITS
350
4248
  3
MSLTSCALE
350
4246
  3
SORTENTS
350
86A
  0
DICTIONARY
  5
4281
102
{ACAD_REACTORS
330
7D1
102
}
330
7D1
100
AcDbDictionary
281
     1
  0
DICTIONARY
  5
7D2
102
{ACAD_REACTORS
330
7D1
102
}
330
7D1
100
AcDbDictionary
281
     1
  0
DICTIONARY
  5
4280
102
{ACAD_REACTORS
330
7D1
102
}
330
7D1
100
AcDbDictionary
281
     1
1001
ACAD
1000
<All
  0
XRECORD
  5
423D
102
{ACAD_REACTORS
330
423C
102
}
330
423C
100
AcDbXrecord
280
     1
290
     1
  0
XRECORD
  5
423F
102
{ACAD_REACTORS
330
423E
102
}
330
423E
100
AcDbXrecord
280
     1
290
     1
  0
XRECORD
  5
4241
102
{ACAD_REACTORS
330
4240
102
}
330
4240
100
AcDbXrecord
280
     1
290
     1
  0
SORTENTSTABLE
  5
5F9
102
{ACAD_REACTORS
330
5F8
102
}
330
5F8
100
AcDbSortentsTable
330
1F
331
4C55
  5
4C80
331
4A98
  5
4A9C
331
4ABD
  5
4AC1
331
4A89
  5
4A8D
331
4B9A
  5
4B9E
331
4BB8
  5
4BBC
331
4B8B
  5
4B8F
331
4A99
  5
4A9D
331
4C28
  5
4C2C
331
4ABE
  5
4AC2
331
4A8A
  5
4A8E
331
4BB9
  5
4BBD
331
4B8C
  5
4B90
331
4B9B
  5
4B9F
331
4AB0
  5
4AB4
331
4C29
  5
4C2D
331
4B8D
  5
4B91
331
4ABF
  5
4AC3
331
4A8B
  5
4A8F
331
4B26
  5
4B2A
331
4B9C
  5
4BA0
331
4BBA
  5
4BBE
331
4A9A
  5
4A9E
331
4AB1
  5
4AB5
331
4A9B
  5
4A9F
331
4C2A
  5
4C2E
331
4A8C
  5
4A90
331
4B9D
  5
4BA1
331
4BBB
  5
4BBF
331
4B27
  5
4B2B
331
4B8E
  5
4B92
331
4B28
  5
4B2C
331
4A9C
  5
4AA0
331
4C2B
  5
4C2F
331
4AC1
  5
4AC5
331
4A8D
  5
4A91
331
4BBC
  5
4BC0
331
4B8F
  5
4B93
331
4AB2
  5
4AB6
331
4B9E
  5
4BA2
331
4A9D
  5
4AA1
331
4C2C
  5
4C30
331
4AB3
  5
4AB7
331
4B90
  5
4B94
331
4BAE
  5
4BB2
331
4B29
  5
4B2D
331
4BBD
  5
4BC1
331
4B9F
  5
4BA3
331
4A8E
  5
4A92
331
4BA0
  5
4BA4
331
4AB4
  5
4AB8
331
4B2A
  5
4B2E
331
4BAF
  5
4BB3
331
4A9E
  5
4AA2
331
4AAD
  5
4AB1
331
4A8F
  5
4A93
331
4BBE
  5
4BC2
331
4B91
  5
4B95
331
4BA1
  5
4BA5
331
4A9F
  5
4AA3
331
4BB0
  5
4BB4
331
4C2E
  5
4C32
331
4B92
  5
4B96
331
4A90
  5
4A94
331
4BBF
  5
4BC3
331
4AAE
  5
4AB2
331
4AB5
  5
4AB9
331
4BA2
  5
4BA6
331
4AA0
  5
4AA4
331
4C2F
  5
4C33
331
4AB6
  5
4ABA
331
4B93
  5
4B97
331
4AAF
  5
4AB3
331
4BB1
  5
4BB5
331
4BC0
  5
4BC4
331
4A91
  5
4A95
331
4BA3
  5
4BA7
331
4AB7
  5
4ABB
331
4BC1
  5
4BC5
331
4AA1
  5
4AA5
331
4BB2
  5
4BB6
331
4C30
  5
4C34
331
4A92
  5
4A96
331
4B94
  5
4B98
331
4BA4
  5
4BA8
331
4C7F
  5
4C8C
331
4AA2
  5
4AA6
331
4BB3
  5
4BB7
331
4C31
  5
4C35
331
4A93
  5
4A97
331
4B95
  5
4B99
331
4AB8
  5
4ABC
331
4BA5
  5
4BA9
331
4AA3
  5
4AA7
331
4AB9
  5
4ABD
331
4C32
  5
4C55
331
4C80
  5
4C8D
331
4A94
  5
4A98
331
4B96
  5
4B9A
331
4BB4
  5
4BB8
331
4BC3
  5
4BC7
331
4ABA
  5
4ABE
331
4B88
  5
4B8C
331
4AA4
  5
4AA8
331
4B97
  5
4B9B
331
4BB5
  5
4BB9
331
4A95
  5
4A99
331
4C33
  5
4C75
331
4B89
  5
4B8D
331
4BB6
  5
4BBA
331
4C34
  5
4C76
331
4A96
  5
4A9A
331
4B98
  5
4B9C
331
4ABB
  5
4ABF
331
4B8A
  5
4B8E
331
4ABC
  5
4AC0
331
4A88
  5
4A8C
331
4A97
  5
4A9B
331
4B99
  5
4B9D
331
4BB7
  5
4BBB
  0
SORTENTSTABLE
  5
5A23
102
{ACAD_REACTORS
330
5A22
102
}
330
5A22
100
AcDbSortentsTable
330
5710
  0
DIMASSOC
  5
57B7
102
{ACAD_REACTORS
330
57B6
102
}
330
57B6
100
AcDbDimAssoc
330
57B5
 90
        3
 70
     0
 71
     0
  1
AcDbOsnapPointRef
 72
    13
331
57B4
 73
     2
 91
        0
 40
0.0
 10
0.0
 20
0.0
 30
2.000000000000000E+50
 75
     0
  1
AcDbOsnapPointRef
 72
     1
331
57B4
 73
     2
 91
        0
 40
1.0
 10
0.0
 20
0.0
 30
2.000000000000000E+50
 75
     0
  0
DIMASSOC
  5
57BA
102
{ACAD_REACTORS
330
57B9
102
}
330
57B9
100
AcDbDimAssoc
330
57B8
 90
        3
 70
     0
 71
     0
  1
AcDbOsnapPointRef
 72
    13
331
57B4
 73
     2
 91
        0
 40
0.0
 10
0.0
 20
0.0
 30
2.000000000000000E+50
 75
     0
  1
AcDbOsnapPointRef
 72
     1
331
578E
 73
     2
 91
        0
 40
1.0
 10
0.0
 20
0.0
 30
2.000000000000000E+50
 75
     0
  0
XRECORD
  5
5A8E
102
{ACAD_REACTORS
330
5A8D
102
}
330
5A8D
100
AcDbXrecord
280
     1
 40
282652.0
  1
{\fArial|b0|i0|c238|p34;Huśtawka wahadłowa podwójna nr kat. 2.2.03}
  0
DIMASSOC
  5
51DC
102
{ACAD_REACTORS
330
51D4
102
}
330
51D4
100
AcDbDimAssoc
330
51C9
 90
        3
 70
     0
 71
     0
  1
AcDbOsnapPointRef
 72
    13
331
51C8
 73
     2
 91
        0
 40
0.0
 10
0.0
 20
0.0
 30
2.000000000000000E+50
 75
     0
  1
AcDbOsnapPointRef
 72
     1
331
51C8
 73
     2
 91
        0
 40
1.0
 10
0.0
 20
0.0
 30
2.000000000000000E+50
 75
     0
  0
DIMASSOC
  5
51F0
102
{ACAD_REACTORS
330
51E8
102
}
330
51E8
100
AcDbDimAssoc
330
51DD
 90
        3
 70
     0
 71
     0
  1
AcDbOsnapPointRef
 72
    13
331
51C8
 73
     2
 91
        0
 40
0.0
 10
0.0
 20
0.0
 30
2.000000000000000E+50
 75
     0
  1
AcDbOsnapPointRef
 72
     1
331
4C98
 73
     2
 91
        0
 40
1.0
 10
0.0
 20
0.0
 30
2.000000000000000E+50
 75
     0
  0
LAYOUT
  5
1E
102
{ACAD_XDICTIONARY
360
7D4
102
}
102
{ACAD_REACTORS
330
1A
102
}
330
1A
100
AcDbPlotSettings
  1

  2
Bullzip PDF Printer
  4
A4
  6

 40
3.174999952316284
 41
3.174999952316284
 42
3.175003051757812
 43
3.17498779296875
 44
209.8886566162109
 45
297.0530090332031
 46
0.0
 47
0.0
 48
6.561544945354853
 49
3.282189374834842
140
296.6096419909582
141
206.4421558651099
142
1.0
143
1.0
 70
   672
 72
     1
 73
     1
 74
     4
  7
monochrome.ctb
 75
    16
147
25.4
 76
     0
 77
     2
 78
   300
148
-6.561544945354853
149
-3.282189374834842
100
AcDbLayout
  1
Layout1
 70
     0
 71
     1
 10
3.386557152386103
 20
0.1071894225185588
 11
300.4395661855892
 21
209.9958460387295
 12
0.0
 22
0.0
 32
0.0
 14
6.561544945354853
 24
3.282189374834842
 34
0.0
 15
296.6096419909582
 25
206.4421558651099
 35
0.0
146
0.0
 13
0.0
 23
0.0
 33
0.0
 16
1.0
 26
0.0
 36
0.0
 17
0.0
 27
1.0
 37
0.0
 76
     0
330
1B
331
7CA
1001
ACAD_PSEXT
1000
Bullzip PDF Printer
1000
Bullzip PDF Printer
1000
BULLZIP
1000
Bullzip PDF Printer 7.2.0.1338
1070
     0
  0
LAYOUT
  5
22
102
{ACAD_REACTORS
330
1A
102
}
330
1A
100
AcDbPlotSettings
  1

  2
none_device
  4
Letter_(8.50_x_11.00_Inches)
  6

 40
6.349999904632568
 41
6.349999904632568
 42
6.350006103515625
 43
6.350006103515625
 44
215.8999938964844
 45
279.3999938964844
 46
0.0
 47
0.0
 48
0.0
 49
0.0
140
0.0
141
0.0
142
1.0
143
1.722890234054851
 70
 11952
 72
     0
 73
     1
 74
     0
  7

 75
     0
147
0.5804200292240808
 76
     0
 77
     2
 78
   300
148
-81.52243533661561
149
-74.86302292570847
100
AcDbLayout
  1
Model
 70
     1
 71
     0
 10
0.0
 20
0.0
 11
12.0
 21
9.0
 12
0.0
 22
0.0
 32
0.0
 14
1.000000000000000E+20
 24
1.000000000000000E+20
 34
1.000000000000000E+20
 15
-1.000000000000000E+20
 25
-1.000000000000000E+20
 35
-1.000000000000000E+20
146
0.0
 13
0.0
 23
0.0
 33
0.0
 16
1.0
 26
0.0
 36
0.0
 17
0.0
 27
1.0
 37
0.0
 76
     0
330
1F
331
29
1001
ACAD_PSEXT
1000
Brak
1000
Brak
1000
Nie można zastosować.
1000
Arkusz nie zostanie wydrukowany dopóki nie wybrano konfiguracji plotera.
1070
     0
  0
MATERIAL
  5
3D
102
{ACAD_XDICTIONARY
360
5A88
102
}
102
{ACAD_REACTORS
330
3B
102
}
330
3B
100
AcDbMaterial
  1
ByBlock
 73
     1
 78
     1
172
     1
176
     1
270
     1
274
     1
  0
MATERIAL
  5
3C
102
{ACAD_XDICTIONARY
360
5A86
102
}
102
{ACAD_REACTORS
330
3B
102
}
330
3B
100
AcDbMaterial
  1
ByLayer
 73
     1
 78
     1
172
     1
176
     1
270
     1
274
     1
  0
MATERIAL
  5
3E
102
{ACAD_XDICTIONARY
360
5A8A
102
}
102
{ACAD_REACTORS
330
3B
102
}
330
3B
100
AcDbMaterial
  1
Global
 73
     1
 78
     1
172
     1
176
     1
270
     1
274
     1
  0
MLEADERSTYLE
  5
4235
102
{ACAD_REACTORS
330
489
102
}
330
489
100
AcDbMLeaderStyle
170
     2
171
     1
172
     0
 90
        2
 40
0.0
 41
0.0
173
     1
 91
-1056964608
340
14
 92
       -2
290
     1
 42
0.09
291
     1
 43
0.36
  3
Standard
 44
0.18
300

342
11
174
     1
178
     6
175
     1
176
     0
 93
-1056964608
 45
0.18
292
     0
297
     0
 46
0.18
 94
-1056964608
 47
1.0
 49
1.0
140
1.0
293
     1
141
0.0
294
     1
177
     0
142
1.0
295
     0
296
     0
143
0.125
1001
ACAD_MLEADERVER
1070
     2
  0
MLINESTYLE
  5
18
102
{ACAD_REACTORS
330
17
102
}
330
17
100
AcDbMlineStyle
  2
STANDARD
 70
     0
  3

 62
   256
 51
90.0
 52
90.0
 71
     2
 49
0.5
 62
   256
  6
BYLAYER
 49
-0.5
 62
   256
  6
BYLAYER
  0
ACDBPLACEHOLDER
  5
F
102
{ACAD_REACTORS
330
E
102
}
330
E
  0
SCALE
  5
4214
102
{ACAD_REACTORS
330
4213
102
}
330
4213
100
AcDbScale
 70
     0
300
1:1
140
1.0
141
1.0
290
     1
  0
SCALE
  5
4215
102
{ACAD_REACTORS
330
4213
102
}
330
4213
100
AcDbScale
 70
     0
300
1:2
140
1.0
141
2.0
290
     0
  0
SCALE
  5
4216
102
{ACAD_REACTORS
330
4213
102
}
330
4213
100
AcDbScale
 70
     0
300
1:4
140
1.0
141
4.0
290
     0
  0
SCALE
  5
4217
102
{ACAD_REACTORS
330
4213
102
}
330
4213
100
AcDbScale
 70
     0
300
1:5
140
1.0
141
5.0
290
     0
  0
SCALE
  5
4218
102
{ACAD_REACTORS
330
4213
102
}
330
4213
100
AcDbScale
 70
     0
300
1:8
140
1.0
141
8.0
290
     0
  0
SCALE
  5
4219
102
{ACAD_REACTORS
330
4213
102
}
330
4213
100
AcDbScale
 70
     0
300
1:10
140
1.0
141
10.0
290
     0
  0
SCALE
  5
421A
102
{ACAD_REACTORS
330
4213
102
}
330
4213
100
AcDbScale
 70
     0
300
1:16
140
1.0
141
16.0
290
     0
  0
SCALE
  5
421B
102
{ACAD_REACTORS
330
4213
102
}
330
4213
100
AcDbScale
 70
     0
300
1:20
140
1.0
141
20.0
290
     0
  0
SCALE
  5
421C
102
{ACAD_REACTORS
330
4213
102
}
330
4213
100
AcDbScale
 70
     0
300
1:30
140
1.0
141
30.0
290
     0
  0
SCALE
  5
421D
102
{ACAD_REACTORS
330
4213
102
}
330
4213
100
AcDbScale
 70
     0
300
1:40
140
1.0
141
40.0
290
     0
  0
SCALE
  5
421E
102
{ACAD_REACTORS
330
4213
102
}
330
4213
100
AcDbScale
 70
     0
300
1:50
140
1.0
141
50.0
290
     0
  0
SCALE
  5
421F
102
{ACAD_REACTORS
330
4213
102
}
330
4213
100
AcDbScale
 70
     0
300
1:100
140
1.0
141
100.0
290
     0
  0
SCALE
  5
4220
102
{ACAD_REACTORS
330
4213
102
}
330
4213
100
AcDbScale
 70
     0
300
2:1
140
2.0
141
1.0
290
     0
  0
SCALE
  5
4221
102
{ACAD_REACTORS
330
4213
102
}
330
4213
100
AcDbScale
 70
     0
300
4:1
140
4.0
141
1.0
290
     0
  0
SCALE
  5
4222
102
{ACAD_REACTORS
330
4213
102
}
330
4213
100
AcDbScale
 70
     0
300
8:1
140
8.0
141
1.0
290
     0
  0
SCALE
  5
4223
102
{ACAD_REACTORS
330
4213
102
}
330
4213
100
AcDbScale
 70
     0
300
10:1
140
10.0
141
1.0
290
     0
  0
SCALE
  5
4224
102
{ACAD_REACTORS
330
4213
102
}
330
4213
100
AcDbScale
 70
     0
300
100:1
140
100.0
141
1.0
290
     0
  0
SCALE
  5
4225
102
{ACAD_REACTORS
330
4213
102
}
330
4213
100
AcDbScale
 70
     0
300
1/128" = 1'-0"
140
0.0078125
141
12.0
290
     0
  0
SCALE
  5
4226
102
{ACAD_REACTORS
330
4213
102
}
330
4213
100
AcDbScale
 70
     0
300
1/64" = 1'-0"
140
0.015625
141
12.0
290
     0
  0
SCALE
  5
4227
102
{ACAD_REACTORS
330
4213
102
}
330
4213
100
AcDbScale
 70
     0
300
1/32" = 1'-0"
140
0.03125
141
12.0
290
     0
  0
SCALE
  5
4228
102
{ACAD_REACTORS
330
4213
102
}
330
4213
100
AcDbScale
 70
     0
300
1/16" = 1'-0"
140
0.0625
141
12.0
290
     0
  0
SCALE
  5
4229
102
{ACAD_REACTORS
330
4213
102
}
330
4213
100
AcDbScale
 70
     0
300
3/32" = 1'-0"
140
0.09375
141
12.0
290
     0
  0
SCALE
  5
422A
102
{ACAD_REACTORS
330
4213
102
}
330
4213
100
AcDbScale
 70
     0
300
1/8" = 1'-0"
140
0.125
141
12.0
290
     0
  0
SCALE
  5
422B
102
{ACAD_REACTORS
330
4213
102
}
330
4213
100
AcDbScale
 70
     0
300
3/16" = 1'-0"
140
0.1875
141
12.0
290
     0
  0
SCALE
  5
422C
102
{ACAD_REACTORS
330
4213
102
}
330
4213
100
AcDbScale
 70
     0
300
1/4" = 1'-0"
140
0.25
141
12.0
290
     0
  0
SCALE
  5
422D
102
{ACAD_REACTORS
330
4213
102
}
330
4213
100
AcDbScale
 70
     0
300
3/8" = 1'-0"
140
0.375
141
12.0
290
     0
  0
SCALE
  5
422E
102
{ACAD_REACTORS
330
4213
102
}
330
4213
100
AcDbScale
 70
     0
300
1/2" = 1'-0"
140
0.5
141
12.0
290
     0
  0
SCALE
  5
422F
102
{ACAD_REACTORS
330
4213
102
}
330
4213
100
AcDbScale
 70
     0
300
3/4" = 1'-0"
140
0.75
141
12.0
290
     0
  0
SCALE
  5
4230
102
{ACAD_REACTORS
330
4213
102
}
330
4213
100
AcDbScale
 70
     0
300
1" = 1'-0"
140
1.0
141
12.0
290
     0
  0
SCALE
  5
4231
102
{ACAD_REACTORS
330
4213
102
}
330
4213
100
AcDbScale
 70
     0
300
1-1/2" = 1'-0"
140
1.5
141
12.0
290
     0
  0
SCALE
  5
4232
102
{ACAD_REACTORS
330
4213
102
}
330
4213
100
AcDbScale
 70
     0
300
3" = 1'-0"
140
3.0
141
12.0
290
     0
  0
SCALE
  5
4233
102
{ACAD_REACTORS
330
4213
102
}
330
4213
100
AcDbScale
 70
     0
300
6" = 1'-0"
140
6.0
141
12.0
290
     0
  0
SCALE
  5
4234
102
{ACAD_REACTORS
330
4213
102
}
330
4213
100
AcDbScale
 70
     0
300
1'-0" = 1'-0"
140
12.0
141
12.0
290
     0
  0
TABLESTYLE
  5
4BB
102
{ACAD_XDICTIONARY
360
4242
102
}
102
{ACAD_REACTORS
330
4BA
102
}
330
4BA
100
AcDbTableStyle
  3
Standard
 70
     0
 71
     0
 40
0.06
 41
0.06
280
     0
281
     0
  7
Standard
140
0.18
170
     2
 62
     0
 63
     7
283
     0
274
    -2
284
     1
 64
     0
275
    -2
285
     1
 65
     0
276
    -2
286
     1
 66
     0
277
    -2
287
     1
 67
     0
278
    -2
288
     1
 68
     0
279
    -2
289
     1
 69
     0
  7
Standard
140
0.25
170
     5
 62
     0
 63
     7
283
     0
274
    -2
284
     1
 64
     0
275
    -2
285
     1
 65
     0
276
    -2
286
     1
 66
     0
277
    -2
287
     1
 67
     0
278
    -2
288
     1
 68
     0
279
    -2
289
     1
 69
     0
  7
Standard
140
0.18
170
     5
 62
     0
 63
     7
283
     0
274
    -2
284
     1
 64
     0
275
    -2
285
     1
 65
     0
276
    -2
286
     1
 66
     0
277
    -2
287
     1
 67
     0
278
    -2
288
     1
 68
     0
279
    -2
289
     1
 69
     0
  0
VISUALSTYLE
  5
2F
102
{ACAD_XDICTIONARY
360
49A
102
}
102
{ACAD_REACTORS
330
2A
102
}
330
2A
100
AcDbVisualStyle
  2
2dWireframe
 70
     4
 71
     0
 72
     2
 73
     0
 90
        0
 40
-0.6
 41
-30.0
 62
     5
 63
     7
 74
     1
 91
        4
 64
     7
 65
   257
 75
     1
175
     1
 42
1.0
 92
        0
 66
   257
 43
1.0
 76
     1
 77
     6
 78
     2
 67
     7
 79
     5
170
     0
171
     0
290
     0
174
     0
 93
        1
 44
0.0
173
     0
291
     0
 45
0.0
1001
ACAD
1000
AcDbSavedByObjectVersion
1070
     0
  0
VISUALSTYLE
  5
A47
102
{ACAD_REACTORS
330
2A
102
}
330
2A
100
AcDbVisualStyle
  2
3D Hidden
 70
     6
 71
     1
 72
     2
 73
     2
 90
        0
 40
-0.6
 41
-30.0
 62
     5
 63
     7
 74
     2
 91
        2
 64
     7
 65
   257
 75
     2
175
     1
 42
40.0
 92
        0
 66
   257
 43
1.0
 76
     1
 77
     6
 78
     2
 67
     7
 79
     3
170
     0
171
     0
290
     0
174
     0
 93
        1
 44
0.0
173
     0
291
     0
 45
0.0
1001
ACAD
1000
AcDbSavedByObjectVersion
1070
     0
  0
VISUALSTYLE
  5
A48
102
{ACAD_XDICTIONARY
360
A49
102
}
102
{ACAD_REACTORS
330
2A
102
}
330
2A
100
AcDbVisualStyle
  2
3dWireframe
 70
     5
 71
     0
 72
     2
 73
     0
 90
        0
 40
-0.6
 41
-30.0
 62
     5
 63
     7
 74
     1
 91
        4
 64
     7
 65
   257
 75
     1
175
     1
 42
1.0
 92
        0
 66
   257
 43
1.0
 76
     1
 77
     6
 78
     2
 67
     7
 79
     5
170
     0
171
     0
290
     0
174
     0
 93
        1
 44
0.0
173
     0
291
     0
 45
0.0
1001
ACAD
1000
AcDbSavedByObjectVersion
1070
     0
  0
VISUALSTYLE
  5
32
102
{ACAD_XDICTIONARY
360
4A0
102
}
102
{ACAD_REACTORS
330
2A
102
}
330
2A
100
AcDbVisualStyle
  2
Basic
 70
     7
 71
     1
 72
     0
 73
     1
 90
        0
 40
-0.6
 41
-30.0
 62
     5
 63
     7
 74
     0
 91
        4
 64
     7
 65
   257
 75
     1
175
     1
 42
1.0
 92
        8
 66
     7
 43
1.0
 76
     1
 77
     6
 78
     2
 67
     7
 79
     5
170
     0
171
     0
290
     0
174
     0
 93
        1
 44
0.0
173
     0
291
     1
 45
0.0
1001
ACAD
1000
AcDbSavedByObjectVersion
1070
     0
  0
VISUALSTYLE
  5
36
102
{ACAD_XDICTIONARY
360
4A8
102
}
102
{ACAD_REACTORS
330
2A
102
}
330
2A
100
AcDbVisualStyle
  2
Brighten
 70
    12
 71
     2
 72
     2
 73
     0
 90
        0
 40
-0.6
 41
-30.0
 62
     5
 63
     7
 74
     1
 91
        4
 64
     7
 65
   257
 75
     1
175
     1
 42
1.0
 92
        8
 66
     7
 43
1.0
 76
     1
 77
     6
 78
     2
 67
     7
 79
     5
170
     0
171
     0
290
     0
174
     0
 93
        1
 44
50.0
173
     0
291
     1
 45
0.0
1001
ACAD
1000
AcDbSavedByObjectVersion
1070
     0
  0
VISUALSTYLE
  5
3A
102
{ACAD_XDICTIONARY
360
4B0
102
}
102
{ACAD_REACTORS
330
2A
102
}
330
2A
100
AcDbVisualStyle
  2
ColorChange
 70
    16
 71
     2
 72
     2
 73
     3
 90
        0
 40
-0.6
 41
-30.0
 62
     5
 63
     8
 74
     1
 91
        4
 64
     7
 65
   257
 75
     1
175
     1
 42
1.0
 92
        8
 66
     8
 43
1.0
 76
     1
 77
     6
 78
     2
 67
     7
 79
     5
170
     0
171
     0
290
     0
174
     0
 93
        1
 44
0.0
173
     0
291
     1
 45
0.0
1001
ACAD
1000
AcDbSavedByObjectVersion
1070
     0
  0
VISUALSTYLE
  5
A4B
102
{ACAD_REACTORS
330
2A
102
}
330
2A
100
AcDbVisualStyle
  2
Conceptual
 70
     9
 71
     3
 72
     2
 73
     0
 90
        0
 40
-0.6
 41
-30.0
 62
     5
 63
     7
 74
     2
 91
        2
 64
     7
 65
   257
 75
     1
175
     1
 42
40.0
 92
        8
 66
     7
 43
1.0
 76
     1
 77
     6
 78
     2
 67
     7
 79
     3
170
     0
171
     0
290
     0
174
     0
 93
        1
 44
0.0
173
     0
291
     0
 45
0.0
1001
ACAD
1000
AcDbSavedByObjectVersion
1070
     0
  0
VISUALSTYLE
  5
35
102
{ACAD_XDICTIONARY
360
4A6
102
}
102
{ACAD_REACTORS
330
2A
102
}
330
2A
100
AcDbVisualStyle
  2
Dim
 70
    11
 71
     2
 72
     2
 73
     0
 90
        0
 40
-0.6
 41
-30.0
 62
     5
 63
     7
 74
     1
 91
        4
 64
     7
 65
   257
 75
     1
175
     1
 42
1.0
 92
        8
 66
     7
 43
1.0
 76
     1
 77
     6
 78
     2
 67
     7
 79
     5
170
     0
171
     0
290
     0
174
     0
 93
        1
 44
-50.0
173
     0
291
     1
 45
0.0
1001
ACAD
1000
AcDbSavedByObjectVersion
1070
     0
  0
VISUALSTYLE
  5
39
102
{ACAD_XDICTIONARY
360
4AE
102
}
102
{ACAD_REACTORS
330
2A
102
}
330
2A
100
AcDbVisualStyle
  2
Facepattern
 70
    15
 71
     2
 72
     2
 73
     0
 90
        0
 40
-0.6
 41
-30.0
 62
     5
 63
     7
 74
     1
 91
        4
 64
     7
 65
   257
 75
     1
175
     1
 42
1.0
 92
        8
 66
     7
 43
1.0
 76
     1
 77
     6
 78
     2
 67
     7
 79
     5
170
     0
171
     0
290
     0
174
     0
 93
        1
 44
0.0
173
     0
291
     1
 45
0.0
1001
ACAD
1000
AcDbSavedByObjectVersion
1070
     0
  0
VISUALSTYLE
  5
2B
102
{ACAD_XDICTIONARY
360
492
102
}
102
{ACAD_REACTORS
330
2A
102
}
330
2A
100
AcDbVisualStyle
  2
Flat
 70
     0
 71
     2
 72
     1
 73
     1
 90
        2
 40
-0.6
 41
30.0
 62
     5
 63
     7
 74
     0
 91
        4
 64
     7
 65
   257
 75
     1
175
     1
 42
1.0
 92
        8
 66
     7
 43
1.0
 76
     1
 77
     6
 78
     2
 67
     7
 79
     5
170
     0
171
     0
290
     0
174
     0
 93
       13
 44
0.0
173
     0
291
     1
 45
0.0
1001
ACAD
1000
AcDbSavedByObjectVersion
1070
     0
  0
VISUALSTYLE
  5
2C
102
{ACAD_XDICTIONARY
360
494
102
}
102
{ACAD_REACTORS
330
2A
102
}
330
2A
100
AcDbVisualStyle
  2
FlatWithEdges
 70
     1
 71
     2
 72
     1
 73
     1
 90
        2
 40
-0.6
 41
30.0
 62
     5
 63
     7
 74
     1
 91
        4
 64
     7
 65
   257
 75
     1
175
     1
 42
1.0
 92
        0
 66
   257
 43
1.0
 76
     1
 77
     6
 78
     2
 67
     7
 79
     5
170
     0
171
     0
290
     0
174
     0
 93
       13
 44
0.0
173
     0
291
     1
 45
0.0
1001
ACAD
1000
AcDbSavedByObjectVersion
1070
     0
  0
VISUALSTYLE
  5
2D
102
{ACAD_XDICTIONARY
360
496
102
}
102
{ACAD_REACTORS
330
2A
102
}
330
2A
100
AcDbVisualStyle
  2
Gouraud
 70
     2
 71
     2
 72
     2
 73
     1
 90
        2
 40
-0.6
 41
30.0
 62
     5
 63
     7
 74
     0
 91
        4
 64
     7
 65
   257
 75
     1
175
     1
 42
1.0
 92
        0
 66
     7
 43
1.0
 76
     1
 77
     6
 78
     2
 67
     7
 79
     5
170
     0
171
     0
290
     0
174
     0
 93
       13
 44
0.0
173
     0
291
     1
 45
0.0
1001
ACAD
1000
AcDbSavedByObjectVersion
1070
     0
  0
VISUALSTYLE
  5
2E
102
{ACAD_XDICTIONARY
360
498
102
}
102
{ACAD_REACTORS
330
2A
102
}
330
2A
100
AcDbVisualStyle
  2
GouraudWithEdges
 70
     3
 71
     2
 72
     2
 73
     1
 90
        2
 40
-0.6
 41
30.0
 62
     5
 63
     7
 74
     1
 91
        4
 64
     7
 65
   257
 75
     1
175
     1
 42
1.0
 92
        0
 66
   257
 43
1.0
 76
     1
 77
     6
 78
     2
 67
     7
 79
     5
170
     0
171
     0
290
     0
174
     0
 93
       13
 44
0.0
173
     0
291
     1
 45
0.0
1001
ACAD
1000
AcDbSavedByObjectVersion
1070
     0
  0
VISUALSTYLE
  5
38
102
{ACAD_XDICTIONARY
360
4AC
102
}
102
{ACAD_REACTORS
330
2A
102
}
330
2A
100
AcDbVisualStyle
  2
Linepattern
 70
    14
 71
     2
 72
     2
 73
     0
 90
        0
 40
-0.6
 41
-30.0
 62
     5
 63
     7
 74
     1
 91
        4
 64
     7
 65
   257
 75
     7
175
     7
 42
1.0
 92
        8
 66
     7
 43
1.0
 76
     1
 77
     6
 78
     2
 67
     7
 79
     5
170
     0
171
     0
290
     0
174
     0
 93
        1
 44
0.0
173
     0
291
     1
 45
0.0
1001
ACAD
1000
AcDbSavedByObjectVersion
1070
     0
  0
VISUALSTYLE
  5
A4C
102
{ACAD_XDICTIONARY
360
A4D
102
}
102
{ACAD_REACTORS
330
2A
102
}
330
2A
100
AcDbVisualStyle
  2
Realistic
 70
     8
 71
     2
 72
     2
 73
     0
 90
        0
 40
-0.6
 41
-30.0
 62
     5
 63
     7
 74
     1
 91
        0
 64
     7
 65
   257
 75
     1
175
     1
 42
1.0
 92
        8
 66
     8
 43
1.0
 76
     1
 77
     6
 78
     2
 67
     7
 79
     5
170
     0
171
     0
290
     0
174
     0
 93
       13
 44
0.0
173
     0
291
     0
 45
0.0
1001
ACAD
1000
AcDbSavedByObjectVersion
1070
     0
  0
VISUALSTYLE
  5
37
102
{ACAD_XDICTIONARY
360
4AA
102
}
102
{ACAD_REACTORS
330
2A
102
}
330
2A
100
AcDbVisualStyle
  2
Thicken
 70
    13
 71
     2
 72
     2
 73
     0
 90
        0
 40
-0.6
 41
-30.0
 62
     5
 63
     7
 74
     1
 91
        4
 64
     7
 65
   257
 75
     1
175
     1
 42
1.0
 92
       12
 66
     7
 43
1.0
 76
     1
 77
     6
 78
     2
 67
     7
 79
     5
170
     0
171
     0
290
     0
174
     0
 93
        1
 44
0.0
173
     0
291
     1
 45
0.0
1001
ACAD
1000
AcDbSavedByObjectVersion
1070
     0
  0
DICTIONARYVAR
  5
4247
102
{ACAD_REACTORS
330
487
102
}
330
487
100
DictionaryVariables
280
     0
  1
1:1
  0
DICTIONARYVAR
  5
4245
102
{ACAD_REACTORS
330
487
102
}
330
487
100
DictionaryVariables
280
     0
  1
STANDARD
  0
DICTIONARYVAR
  5
5FE
102
{ACAD_REACTORS
330
487
102
}
330
487
100
DictionaryVariables
280
     0
  1
STANDARD
  0
DICTIONARYVAR
  5
48A
102
{ACAD_REACTORS
330
487
102
}
330
487
100
DictionaryVariables
280
     0
  1
2
  0
DICTIONARYVAR
  5
48B
102
{ACAD_REACTORS
330
487
102
}
330
487
100
DictionaryVariables
280
     0
  1
1
  0
DICTIONARYVAR
  5
86B
102
{ACAD_REACTORS
330
487
102
}
330
487
100
DictionaryVariables
280
     0
  1
0
  0
DICTIONARYVAR
  5
4248
102
{ACAD_REACTORS
330
487
102
}
330
487
100
DictionaryVariables
280
     0
  1
0
  0
DICTIONARYVAR
  5
4246
102
{ACAD_REACTORS
330
487
102
}
330
487
100
DictionaryVariables
280
     0
  1
0
  0
DICTIONARYVAR
  5
86A
102
{ACAD_REACTORS
330
487
102
}
330
487
100
DictionaryVariables
280
     0
  1
127
  0
DICTIONARY
  5
7D4
330
1E
100
AcDbDictionary
280
     1
281
     1
  3
ADSK_XREC_LAYOUTTHUMBNAIL
360
7D5
  0
DICTIONARY
  5
5A88
330
3D
100
AcDbDictionary
280
     1
281
     1
  3
ACAD_XREC_ROUNDTRIP
360
5A89
  0
DICTIONARY
  5
5A86
330
3C
100
AcDbDictionary
280
     1
281
     1
  3
ACAD_XREC_ROUNDTRIP
360
5A87
  0
DICTIONARY
  5
5A8A
330
3E
100
AcDbDictionary
280
     1
281
     1
  3
ACAD_XREC_ROUNDTRIP
360
5A8B
  0
DICTIONARY
  5
4242
330
4BB
100
AcDbDictionary
280
     1
281
     1
  3
ACAD_ROUNDTRIP_2008_TABLESTYLE_CELLSTYLEMAP
360
5A85
  3
ACAD_XREC_ROUNDTRIP
360
5A8C
  0
DICTIONARY
  5
49A
330
2F
100
AcDbDictionary
280
     1
281
     1
  3
ACAD_XREC_ROUNDTRIP
360
49B
  0
DICTIONARY
  5
A49
330
A48
100
AcDbDictionary
280
     1
281
     1
  3
ACAD_XREC_ROUNDTRIP
360
A4A
  0
DICTIONARY
  5
4A0
330
32
100
AcDbDictionary
280
     1
281
     1
  3
ACAD_XREC_ROUNDTRIP
360
4A1
  0
DICTIONARY
  5
4A8
330
36
100
AcDbDictionary
280
     1
281
     1
  3
ACAD_XREC_ROUNDTRIP
360
4A9
  0
DICTIONARY
  5
4B0
330
3A
100
AcDbDictionary
280
     1
281
     1
  3
ACAD_XREC_ROUNDTRIP
360
4B1
  0
DICTIONARY
  5
4A6
330
35
100
AcDbDictionary
280
     1
281
     1
  3
ACAD_XREC_ROUNDTRIP
360
4A7
  0
DICTIONARY
  5
4AE
330
39
100
AcDbDictionary
280
     1
281
     1
  3
ACAD_XREC_ROUNDTRIP
360
4AF
  0
DICTIONARY
  5
492
330
2B
100
AcDbDictionary
280
     1
281
     1
  3
ACAD_XREC_ROUNDTRIP
360
493
  0
DICTIONARY
  5
494
330
2C
100
AcDbDictionary
280
     1
281
     1
  3
ACAD_XREC_ROUNDTRIP
360
495
  0
DICTIONARY
  5
496
330
2D
100
AcDbDictionary
280
     1
281
     1
  3
ACAD_XREC_ROUNDTRIP
360
497
  0
DICTIONARY
  5
498
330
2E
100
AcDbDictionary
280
     1
281
     1
  3
ACAD_XREC_ROUNDTRIP
360
499
  0
DICTIONARY
  5
4AC
330
38
100
AcDbDictionary
280
     1
281
     1
  3
ACAD_XREC_ROUNDTRIP
360
4AD
  0
DICTIONARY
  5
A4D
330
A4C
100
AcDbDictionary
280
     1
281
     1
  3
ACAD_XREC_ROUNDTRIP
360
A4E
  0
DICTIONARY
  5
4AA
330
37
100
AcDbDictionary
280
     1
281
     1
  3
ACAD_XREC_ROUNDTRIP
360
4AB
  0
XRECORD
  5
7D5
102
{ACAD_REACTORS
330
7D4
102
}
330
7D4
100
AcDbXrecord
280
     1
310
28000000B40000007F00000001000800000000004C59000000000000000000000001000000000000FFFFFF0000000000FFFFFF000000000000000000000000000000000000000000000000000000000000000000330000006600000099000000CC000000FF00000000330000333300006633000099330000CC330000FF3300
310
0000660000336600006666000099660000CC660000FF66000000990000339900006699000099990000CC990000FF99000000CC000033CC000066CC000099CC0000CCCC0000FFCC000000FF000033FF000066FF000099FF0000CCFF0000FFFF000000003300330033006600330099003300CC003300FF003300003333003333
310
33006633330099333300CC333300FF33330000663300336633006666330099663300CC663300FF66330000993300339933006699330099993300CC993300FF99330000CC330033CC330066CC330099CC3300CCCC3300FFCC330000FF330033FF330066FF330099FF3300CCFF3300FFFF330000006600330066006600660099
310
006600CC006600FF00660000336600333366006633660099336600CC336600FF33660000666600336666006666660099666600CC666600FF66660000996600339966006699660099996600CC996600FF99660000CC660033CC660066CC660099CC6600CCCC6600FFCC660000FF660033FF660066FF660099FF6600CCFF6600
310
FFFF660000009900330099006600990099009900CC009900FF00990000339900333399006633990099339900CC339900FF33990000669900336699006666990099669900CC669900FF66990000999900339999006699990099999900CC999900FF99990000CC990033CC990066CC990099CC9900CCCC9900FFCC990000FF99
310
0033FF990066FF990099FF9900CCFF9900FFFF99000000CC003300CC006600CC009900CC00CC00CC00FF00CC000033CC003333CC006633CC009933CC00CC33CC00FF33CC000066CC003366CC006666CC009966CC00CC66CC00FF66CC000099CC003399CC006699CC009999CC00CC99CC00FF99CC0000CCCC0033CCCC0066CC
310
CC0099CCCC00CCCCCC00FFCCCC0000FFCC0033FFCC0066FFCC0099FFCC00CCFFCC00FFFFCC000000FF003300FF006600FF009900FF00CC00FF00FF00FF000033FF003333FF006633FF009933FF00CC33FF00FF33FF000066FF003366FF006666FF009966FF00CC66FF00FF66FF000099FF003399FF006699FF009999FF00CC
310
99FF00FF99FF0000CCFF0033CCFF0066CCFF0099CCFF00CCCCFF00FFCCFF0000FFFF0033FFFF0066FFFF0099FFFF00CCFFFF00FFFFFF00000000000D0D0D001A1A1A00282828003535350043434300505050005D5D5D006B6B6B00787878008686860093939300A1A1A100AEAEAE00BBBBBB00C9C9C900D6D6D600E4E4E400
310
F1F1F100FFFFFF0000000000000000000000000000000000000000000000000000000000000000000000000000000000E2E2E2E2E2E2E2E2E2E2E2E2E2E2E2E2E2E2E2E2E2E2E2E2E2E2E2E2E2E2E2E2E2E2E2E2E2E2E2E2E2E2E2E2E2E2E2E2E2E2E2E2E2E2E2E2E2E2E2E2E2E2E2E2E2E2E2E2E2E2E2E2E2E2E2E2E2E2E2
310
E2E2E2E2E2E2E2E2E2E2E2E2E2E2E2E2E2E2E2E2E2E2E2E2E2E2E2E2E2E2E2E2E2E2E2E2E2E2E2E2E2E2E2E2E2E2E2E2E2E2E2E2E2E2E2E2E2E2E2E2E2E2E2E2E2E2E2E2E2E2E2E2E2E2E2E2E2E2E2E2E2E2E2E2E2E2E2E2E2E2E2E2E2E2E2E2E2E2E2E2E2E2F5F5F5F5F5F5F5F5F5F5F5F5F5F5F5F5F5F5F5F5F5F5F5F5F5
310
F5F5F5F5F5F5F5F5F5F5F5F5F5F5F5F5F5F5F5F5F5F5F5F5F5F5F5F5F5F5F5F5F5F5F5F5F5F5F5F5F5F5F5F5F5F5F5F5F5F5F5F5F5F5F5F5F5F5F5F5F5F5F5F5F5F5F5F5F5F5F5F5F5F5F5F5F5F5F5F5F5F5F5F5F5F5F5F5F5F5F5F5F5F5F5F5F5F5F5F5F5F5F5F5F5F5F5F5F5F5F5F5F5F5F5F5F5F5F5F5F5F5F5F5F5F5F5
310
F5F5F5F5F5F5F5F5F5F5F5F5F5F5F5F5F5F5F5F5F5F5F5F5F5E2E2E2F5E2E2E2E2E2E2E2E2E2E2E2E2E2E2E2E2E2E2E2E2E2E2E2E2E2E2E2E2E2E2E2E2E2E2E2E2E2E2E2E2E2E2E2E2E2E2E2E2E2E2E2E2E2E2E2E2E2E2E2E2E2E2E2E2E2E2E2E2E2E2E2E2E2E2E2E2E2E2E2E2E2E2E2E2E2E2E2E2E2E2E2E2E2E2E2E2E2E2
310
E2E2E2E2E2E2E2E2E2E2E2E2E2E2E2E2E2E2E2E2E2E2E2E2E2E2E2E2E2E2E2E2E2E2E2E2E2E2E2E2E2E2E2E2E2E2E2E2E2E2E2E2E2E2E2E2E2E2E2E2E2E2E2E2E2E2E2E2E2E2E2E2E2E2E2E2E2F5E2E2E2F5E2F5F5F5F5F5F5F5F5F5F5F5F5F5F5F5F5F5F5F5F5F5F5F5F5F5F5F5F5F5F5F5F5F5F5F5F5F5F5F5F5F5F5F5F5
310
F5F5F5F5F5F5F5F5F5F5F5F5F5F5F5F5F5F5F5F5F5F5F5F5F5F5F5F5F5F5F5F5F5F5F5F5F5F5F5F5F5F5F5F5F5F5F5F5F5F5F5F5F5F5F5F5F5F5F5F5F5F5F5F5F5F5F5F5F5F5F5F5F5F5F5F5F5F5F5F5F5F5F5F5F5F5F5F5F5F5F5F5F5F5F5F5F5F5F5F5F5F5F5F5F5F5F5F5F5F5F5F5F5F5F5F5F5F5F5F5F5F5F5F5F5F5F5
310
F5F5E2F5E2E2E2F5E2F5F5F5F5F5F5F5F5F5F5F5F5F5F5F5F5F5F5F5F5F5F5F5F5F5F5F5F5F5F5F5F5F5F5F5F5F5F5F5F5F5F5F5F5F5F5F5F5F5F5F5F5F5F5F5F5F5F5F5F5F5F5F5F5F5F5F5F5F5F5F5F5F5F5F5F5F5F5F5F5F5F5F5F5F5F5F5F5F5F5F5F5F5F5F5F5F5F5F5F5F5F5F5F5F5F5F5F5F5F5F5F5F5F5F5F5F5F5
310
F5F5F5F5F5F5F5F5F5F5F5F5F5F5F5F5F5F5F5F5F5F5F5F5F5F5F5F5F5F5F5F5F5F5F5F5F5F5F5F5F5F5F5F5F5F5F5F5F5F5F5F5F5F5F5E2F5E2E2E2F5E2F5F5F5F5F5F5F5F5F5F5F5F5F5F5F5F5F5F5F5F5F5F5F5F5F5F5F5F5F5F5F5F5F5F5F5F5F5F5F5F5F5F5F5F5F5F5F5F5F5F5F5F5F5F5F5F5F5F5F5F5F5F5F5F5F5
310
F5F5F5F5F5F5F5F5F5F5F5F5F5F5F5F5F5F5F5F5F5F5F5F5F5F5F5F5F5F5F5F5F5F5F5F5F5F5F5F5F5F5F5F5F5F5F5F5F5F5F5F5F5F5F5F5F5F5F5F5F5F5F5F5F5F5F5F5F5F5F5F5F5F5F5F5F5F5F5F5F5F5F5F5F5F5F5F5F5F5F5F5F5F5F5F5F5F5F5F5F5F5F5F5F5F5F5F5E2F5E2E2E2F5E2F5F5F5F5F5F5F5F5F5F5F5F5
310
F5F5F5F5F5F5F5F5F5F5F5F5F5F5F5F5F5F5F5F5F5F5F5F5F5F5F5F5F5F5F5F5F5F5F5F5F5F5F5F5F5F5F5F5F5F5F5F5F5F5F5F5F5F5F5F5F5F5F5F5F5F5F5F5F5F5F5F5F5F5F5F5F5F5F5F5F5F5F5F5F5F5F5F5F5F5F5F5F5F5F5F5F5F5F5F5F5F5F5F5F5F5F5F5F5F5F5F5F5F5F5F5F5F5F5F5F5F5F5F5F5F5F5F5F5F5F5
310
F5F5F5F5F5F5F5F5F5F5F5F5F5F5F5F5F5F5F5F5F5F5F5F5F5F5F5F5F5F5F5F5F5F5E2F5E2E2E2F5E2F5F5F5F5F5F5F5F5F5F5F5F5F5F5F5F5F5F5F5F5F5F5F5F5F5F5F5F5F5F5F5F5F5F5F5F5F5F5F5F5F5F5F5F5F5F5F5F5F5F5F5F5F5F5F5F5F5F5F5F5F5F5F5F5F5F5F5F5F5F5F5F5F5F5F5F5F5F5F5F5F5F5F5F5F5F5
310
F5F5F5F5F5F5F5F5F5F5F5F5F5F5F5F5F5F5F5F5F5F5F5F5F5F5F5F5F5F5F5F5F5F5F5F5F5F5F5F5F5F5F5F5F5F5F5F5F5F5F5F5F5F5F5F5F5F5F5F5F5F5F5F5F5F5F5F5F5F5F5F5F5F5F5F5F5F5F5F5F5F5F5F5F5F5F5E2F5E2E2E2F5E2F5F5F5F5F5F5F5F5F5F5F5F5F5F5F5F5F5F5F5F5F5F5F5F5F5F5F5F5F5F5F5F5F5
310
F5F5F5F5F5F5F5F5F5F5F5F5F5F5F5F5F5F5F5F5F5F5F5F5F5F5F5F5F5F5F5F5F5F5F5F5F5F5F5F5F5F5F5F5F5F5F5F5F5F5F5F5F5F5F5F5F5F5F5F5F5F5F5F5F5F5F5F5F5F5F5F5F5F5F5F5F5F5F5F5F5F5F5F5F5F5F5F5F5F5F5F5F5F5F5F5F5F5F5F5F5F5F5F5F5F5F5F5F5F5F5F5F5F5F5F5F5F5F5F5F5F5F5F5F5F5F5
310
F5F5F5F5F5F5F5F5F5F5F5F5F5E2F5E2E2E2F5E2F5F5F5F5F5F5F5F5F5F5F5F5F5F5F5F5F5F5F5F5F5F5F5F5F5F5F5F5F5F5F5F5F5F5F5F5F5F5F5F5F5F5F5F5F5F5F5F5F5F5F5F5F5F5F5F5F5F5F5F5F5F5F5F5F5F5F5F5F5F5F5F5F5F5F5F5F5F5F5F5F5F5F5F5F5F5F5F5F5F5F5F5F5F5F5F5F5F5F5F5F5F5F5F5F5F5F5
310
F5F5F5F5F5F5F5F5F5F5F5F5F5F5F5F5F5F5F5F5F5F5F5F5F5F5F5F5F5F5F5F5F5F5F5F5F5F5F5F5F5F5F5F5F5F5F5F5F5F5F5F5F5F5F5F5F5F5F5F5F5F5F5F5F5F5E2F5E2E2E2F5E2F5F5F5F5F5F5F5F5F5F5F5F5F5F5F5F5F5F5F5F5F5F5F5F5F5F5F5F5F5F5F5F5F5F5F5F5F5F5F5F5F5F5F5F5F5F5F5F5F5F5F5F5F5F5
310
F5F5F5F5F5F5F5F5F5F5F5F5F5F5F5F5F5F5F5F5F5F5F5F5F5F5F5F5F5F5F5F5F5F5F5F5F5F5F5F5F5F5F5F5F5F5F5F5F5F5F5F5F5F5F5F5F5F5F5F5F5F5F5F5F5F5F5F5F5F5F5F5F5F5F5F5F5F5F5F5F5F5F5F5F5F5F5F5F5F5F5F5F5F5F5F5F5F5F5F5F5F5F5F5F5F5F5F5F5F5F5F5F5F5F5F5F5F5F5E2F5E2E2E2F5E2F5
310
F5F5F5F5F5F5F5F5F5F5F5F5F5F5F5F5F5F5F5F5F5F5F5F5F5F5F5F5F5F5F5F5F5F5F5F5F5F5F5F5F5F5F5F5F5F5F5F5F5F5F5F5F5F5F5F5F5F5F5F5F5F5F5F5F5F5F5F5F5F5F5F5F5F5F5F5F5F5F5F5F5F5F5F5F5F5F5F5F5F5F5F5F5F5F5F5F5F5F5F5F5F5F5F5F5F5F5F5F5F5F5F5F5F5F5F5F5F5F5F5F5F5F5F5F5F5F5
310
F5F5F5F5F5F5F5F5F5F5F5F5F5F5F5F5F5F5F5F5F5F5F5F5F5F5F5F5F5F5F5F5F5F5F5F5F5F5F5F5F5F5F5F5F5E2F5E2E2E2F5E2F5F5F5F5F5F5F5F5F5F5F5F5F5F5F5F5F5F5F5F5F5F5F5F5F5F5F5F5F5F5F5F5F5F5F5F5F5F5F5F5F5F5F5F5F5F5F5F5F5F5F5F5F5F5F5F5F5F5F5F5F5F5F5F5F5F5F5F5F5F5F5F5F5F5F5
310
F5F5F5F5F5F5F5F5F5F5F5F5F5F5F5F5F5F5F5F5F5F5F5F5F5F5F5F5F5F5F5F5F5F5F5F5F5F5F5F5F5F5F5F5F5F5F5F5F5F5F5F5F5F5F5F5F5F5F5F5F5F5F5F5F5F5F5F5F5F5F5F5F5F5F5F5F5F5F5F5F5F5F5F5F5F5F5F5F5F5F5F5F5F5F5F5F5F5E2F5E2E2E2F5E2F5F5F5F5F5F5F5F5F5F5F5F5F5F5F5F5F5F5F5F5F5F5
310
F5F5F5F5F5F5F5F5F5F5F5F5F5F5F5F5F5F5F5F5F5F5F5F5F5F5F5F5F5F5F5F5F5F5F5F5F5F5F5F5F5F5F5F5F5F5F5F5F5F5F5F5F5F5F5F5F5F5F5F5F5F5F5F5F5F5F5F5F5F5F5F5F5F5F5F5F5F5F5F5F5F5F5F5F5F5F5F5F5F5F5F5F5F5F5F5F5F5F5F5F5F5F5F5F5F5F5F5F5F5F5F5F5F5F5F5F5F5F5F5F5F5F5F5F5F5F5
310
F5F5F5F5F5F5F5F5F5F5F5F5F5F5F5F5F5F5F5F5F5F5F5F5E2F5E2E2E2F5E2F5F5F5F5F5F5F5F5F5F5F5F5F5F5F5F5F5F5F5F5F5F5F5F5F5F5F5F5F5F5F5F5F5F5F5F5F5F5F5F5F5F5F5F5F5F5F5F5F5F5F5F5F5F5F5F5F5F5F5F5F5F5F5F5F5F5F5F5F5F5F5F5F5F5F5F5F5F5F5F5F5F5F5F5F5F5F5F5F5F5F5F5F5F5F5F5
310
F5F5F5F5F5F5F5F5F5F5F5F5F5F5F5F5F5F5F5F5F5F5F5F5F5F5F5F5F5F5F5F5F5F5F5F5F5F5F5F5F5F5F5F5F5F5F5F5F5F5F5F5F5F5F5F5F5F5F5F5F5F5F5F5F5F5F5F5F5F5F5F5F5F5F5F5F5E2F5E2E2E2F5E2F5F5F5F5F5F5F5F5F5F5F5F5F5F5F5F5F5F5F5F5F5F5F5F5F5F5F5F5F5F5F5F5F5F5F5F5F5F5F5F5F5F5F5
310
F5F5F5F5F5F5F5F5F5F5F5F5F5F5F5F5F5F5F5F5F5F5F5F5F5F5F5F5F5F5F5F5F5F5F5F5F5F5F5F5F5F5F5F5F5F5F5F5F5F5F5F5F5F5F5F5F5F5F5F5F5F5F5F5F5F5F5F5F5F5F5F5F5F5F5F5F5F5F5F5F5F5F5F5F5F5F5F5F5F5F5F5F5F5F5F5F5F5F5F5F5F5F5F5F5F5F5F5F5F5F5F5F5F5F5F5F5F5F5F5F5F5F5F5F5F5F5
310
F5F5F5E2F5E2E2E2F5E2F5F5F5F5F5F5F5F5F5F5F5F5F5F5F5F5F5F5F5F5F5F5F5F5F5F5F5F5F5F5F5F5F5F5F5F5F5F5F5F5F5F5F5F5F5F5F5F5F5F5F5F5F5F5F5F5F5F5F5F5F5F5F5F5F5F5F5F5F5F5F5F5F5F5F5F5F5F5F5F5F5F5F5F5F5F5F5F5F5F5F5F5F5F5F5F5F5F5F5F5F5F5F5F5F5F5F5F5F5F5F5F5F5F5F5F5F5
310
F5F5F5F5F5F5F5F5F5F5F5F5F5F5F5F5F5F5F5F5F5F5F5F5F5F5F5F5F5F5F5F5F5F5F5F5F5F5F5F5F5F5F5F5F5F5F5F5F5F5F5F5F5F5F5F5E2F5E2E2E2F5E2F5F5F5F5F5F5F5F5F5F5F5F5F5F5F5F5F5F5F5F5F5F5F5F5F5F5F5F5F5F5F5F5F5F5F5F5F5F5F5F5F5F5F5F5F5F5F5F5F5F5F5F5F5F5F5F5F5F5F5F5F5F5F5F5
310
F5F5F5F5F5F5F5F5F5F5F5F5F5F5F5F5F5F5F5F5F5F5F5F5F5F5F5F5F5F5F5F5F5F5F5F5F5F5F5F5F5F5F5F5F5F5F5F5F5F5F5F5F5F5F5F5F5F5F5F5F5F5F5F5F5F5F5F5F5F5F5F5F5F5F5F5F5F5F5F5F5F5F5F5F5F5F5F5F5F5F5F5F5F5F5F5F5F5F5F5F5F5F5F5F5F5F5F5F5E2F5E2E2E2F5E2F5F5F5F5F5F5F5F5F5F5F5
310
F5F5F5F5F5F5F5F5F5F5F5F5F5F5F5F5F5F5F5F5F5F5F5F5F5F5F5F5F5F5F5F5F5F5F5F5F5F5F5F5F5F5F5F5F5F5F5F5F5F5F5F5F5F5F5F5F5F5F5F5F5F5F5F5F5F5F5F5F5F5F5F5F5F5F5F5F5F5F5F5F5F5F5F5F5F5F5F5F5F5F5F5F5F5F5F5F5F5F5F5F5F5F5F5F5F5F5F5F5F5F5F5F5F5F5F5F5F5F5F5F5F5F5F5F5F5F5
310
F5F5F5F5F5F5F5F5F5F5F5F5F5F5F5F5F5F5F5F5F5F5F5F5F5F5F5F5F5F5F5F5F5F5F5E2F5E2E2E2F5E2F5F5F5F5F5F5F5F5F5F5F5F5F5F5F5F5F5F5F5F5F5F5F5F5F5F5F5F5F5F5F5F5F5F5F5F5F5F5F5F5F5F5F5F5F5F5F5F5F5F5F5F5F5F5F5F5F5F5F5F5F5F5F5F5F5F5F5F5F5F5F5F5F5F5F5F5F5F5F5F5F5F5F5F5F5
310
F5F5F5F5F5F5F5F5F5F5F5F5F5F5F5F5F5F5F5F5F5F5F5F5F5F5F5F5F5F5F5F5F5F5F5F5F5F5F5F5F5F5F5F5F5F5F5F5F5F5F5F5F5F5F5F5F5F5F5F5F5F5F5F5F5F5F5F5F5F5F5F5F5F5F5F5F5F5F5F5F5F5F5F5F5F5F5F5E2F5E2E2E2F5E2F5F5F5F5F5F5F5F5F5F5F5F5F5F5F5F5F5F5F5F5F5F5F5F5F5F5F5F5F5F5F5F5
310
F5F5F5F5F5F5F5F5F5F5F5F5F5F5F5F5F5F5F5F5F5F5F5F5F5F5F5F5F5F5F5F5F5F5F5F5F5F5F5F5F5F5F5F5F5F5F5F5F5F5F5F5F5F5F5F5F5F5F5F5F5F5F5F5F5F5F5F5F5F5F5F5F5F5F5F5F5F5F5F5F5F5F5F5F5F5F5F5F5F5F5F5F5F5F5F5F5F5F5F5F5F5F5F5F5F5F5F5F5F5F5F5F5F5F5F5F5F5F5F5F5F5F5F5F5F5F5
310
F5F5F5F5F5F5F5F5F5F5F5F5F5F5E2F5E2E2E2F5E2F5F5F5F5F5F5F5F5F5F5F5F5F5F5F5F5F5F5F5F5F5F5F5F5F5F5F5F5F5F5F5F5F5F5F5F5F5F5F5F5F5F5F5F5F5F5F5F5F5F5F5F5F5F5F5F5F5F5F5F5F5F5F5F5F5F5F5F5F5F5F5F5F5F5F5F5F5F5F5F5F5F5F5F5F5F5F5F5F5F5F5F5F5F5F5F5F5F5F5F5F5F5F5F5F5F5
310
F5F5F5F5F5F5F5F5F5F5F5F5F5F5F5F5F5F5F5F5F5F5F5F5F5F5F5F5F5F5F5F5F5F5F5F5F5F5F5F5F5F5F5F5F5F5F5F5F5F5F5F5F5F5F5F5F5F5F5F5F5F5F5F5F5F5F5E2F5E2E2E2F5E2F5F5F5F5F5F5F5F5F5F5F5F5F5F5F5F5F5F5F5F5F5F5F5F5F5F5F5F5F5F5F5F5F5F5F5F5F5F5F5F5F5F5F5F5F5F5F5F5F5F5F5F5F5
310
F5F5F5F5F5F5F5F5F5F5F5F5F5F5F5F5F5F5F5F5F5F5F5F5F5F5F5F5F5F5F5F5F5F5F5F5F5F5F5F5F5F5F5F5F5F5F5F5F5F5F5F5F5F5F5F5F5F5F5F5F5F5F5F5F5F5F5F5F5F5F5F5F5F5F5F5F5F5F5F5F5F5F5F5F5F5F5F5F5F5F5F5F5F5F5F5F5F5F5F5F5F5F5F5F5F5F5F5F5F5F5F5F5F5F5F5F5F5F5F5E2F5E2E2E2F5E2
310
F5F5F5F5F5F5F5F5F5F5F5F5F5F5F5F5F5F5F5F5F5F5F5F5F5F5F5F5F5F5F5F5F5F5F5F5F5F5F5F5F5F5F5F5F5F5F5F5F5F5F5F5F5F5F5F5F5F5F5F5F5F5F5F5F5F5F5F5F5F5F5F5F5F5F5F5F5F5F5F5F5F5F5F5F5F5F5F5F5F5F5F5F5F5F5F5F5F5F5F5F5F5F5F5F5F5F5F5F5F5F5F5F5F5F5F5F5F5F5F5F5F5F5F5F5F5F5
310
F5F5F5F5F5F5F5F5F5F5F5F5F5F5F5F5F5F5F5F5F5F5F5F5F5F5F5F5F5F5F5F5F5F5F5F5F5F5F5F5F5F5F5F5F5F5E2F5E2E2E2F5E2F5F5F5F5F5F5F5F5F5F5F5F5F5F5F5F5F5F5F5F5F5F5F5F5F5F5F5F5F5F5F5F5F5F5F5F5F5F5F5F5F5F5F5F5F5F5F5F5F5F5F5F5F5F5F5F5F5F5F5F5F5F5F5E2E2E2E2E2E2E2E2E2E2E2
310
E2E2E2E2E2E2E2E2E2E2E2E2E2E2E2E2E2E2E2E2E2E2E2E2E2E2E2E2E2E2E2E2E2E2F5F5F5F5F5F5F5F5F5F5F5F5F5F5F5F5F5F5F5F5F5F5F5F5F5F5F5F5F5F5F5F5F5F5F5F5F5F5F5F5F5F5F5F5F5F5F5F5F5F5F5F5F5F5F5F5F5F5F5F5F5F5F5F5F5E2F5E2E2E2F5E2F5F5F5F5F5F5F5F5F5F5F5F5F5F5F5F5F5F5F5F5F5
310
F5F5F5F5F5F5F5F5F5F5F5F5F5F5F5F5F5F5F5F5F5F5F5F5F5F5F5F5F5F5F5F5F5F5F5F5F5F5F5F5F5F5E2E2E2E2E2E2E2E2E2E2E2E2E2E2E2E2E2E2E2E2E2E2E2E2E2E2E2E2E2E2E2E2E2E2E2E2E2E2E2E2E2E2E2E2E2F5F5F5F5F5F5F5F5F5F5F5F5F5F5F5F5F5F5F5F5F5F5F5F5F5F5F5F5F5F5F5F5F5F5F5F5F5F5F5F5
310
F5F5F5F5F5F5F5F5F5F5F5F5F5F5F5F5F5F5F5F5F5F5F5F5F5E2F5E2E2E2F5E2F5F5F5F5F5F5F5F5F5F5F5F5F5F5F5F5F5F5F5F5F5F5F5F5F5F5F5F5F5F5F5F5F5F5F5F5F5F5F5F5F5F5F5F5F5F5F5F5F5F5F5F5F5F5F5F5F5F5F5F5F5F5F5E2E2E2E2E2E2E2E2E2E2E2E2E2E2E2E2E2E2E2E2E2E2E2E2E2E2E2E2E2E2E2E2
310
E2E2E2E2E2E2E2E2E2E2E2E2E2F5F5F5F5F5F5F5F5F5F5F5F5F5F5F5F5F5F5F5F5F5F5F5F5F5F5F5F5F5F5F5F5F5F5F5F5F5F5F5F5F5F5F5F5F5F5F5F5F5F5F5F5F5F5F5F5F5F5F5F5F5F5F5F5F5E2F5E2E2E2F5E2F5F5F5F5F5F5F5F5F5F5F5F5F5F5F5F5F5F5F5F5F5F5F5F5F5F5F5F5F5F5F5F5F5F5F5F5F5F5F5F5F5F5
310
F5F5F5F5F5F5F5F5F5F5F5F5F5F5F5F5F5F5F5F5F5E2E2E2E2E2E2E2E2E2E2E2E2E2E2E2E2E2E2E2E2E2E2E2E2E2E2E2E2E2E2E2E2E2E2E2E2E2E2E2E2E2E2E2E2E2F5F5F5F5F5F5F5F5F5F5F5F5F5F5F5F5F5F5F5F5F5F5F5F5F5F5F5F5F5F5F5F5F5F5F5F5F5F5F5F5F5F5F5F5F5F5F5F5F5F5F5F5F5F5F5F5F5F5F5F5F5
310
F5F5F5F5E2F5E2E2E2F5E2F5F5F5F5F5F5F5F5F5F5F5F5F5F5F5F5F5F5F5F5F5F5F5F5F5F5F5F5F5F5F5F5F5F5F5F5F5F5F5F5F5F5F5F5F5F5F5F5F5F5F5F5F5F5F5F5F5F5F5F5F5F5F5F5F5F5F5F5F5F5F5F5F5F5F5F5F5F5F5F5F5F5F5F5F5F5F5F5F5F5F5F5F5F5F5F5F5F5F5F5F5F5F5F5F5F5F5F5F5F5F5F5F5F5F5F5
310
F5F5F5F5F5F5F5F5F5F5F5F5F5F5F5F5F5F5F5F5F5F5F5F5F5F5F5F5F5F5F5F5F5F5F5F5F5F5F5F5F5F5F5F5F5F5F5F5F5F5F5F5F5F5F5F5F5E2F5E2E2E2F5E2F5F5F5F5F5F5F5F5F5F5F5F5F5F5F5F5F5F5F5F5F5F5F5F5F5F5F5F5F5F5F5F5F5F5F5F5F5F5F5F5F5F5F5F5F5F5F5F5F5F5F5F5F5F5F5F5F5F5F5F5F5F5F5
310
F5F5F5F5F5F5F5F5F5F5F5F5F5F5F5F5F5F5F5F5F5F5F5F5F5F5F5F5F5F5F5F5F5F5F5F5F5F5F5F5F5F5F5F5F5F5F5F5F5F5F5F5F5F5F5F5F5F5F5F5F5F5F5F5F5F5F5F5F5F5F5F5F5F5F5F5F5F5F5F5F5F5F5F5F5F5F5F5F5F5F5F5F5F5F5F5F5F5F5F5F5F5F5F5F5F5F5F5F5F5E2F5E2E2E2F5E2F5F5F5F5F5F5F5F5F5F5
310
F5F5F5F5F5F5F5F5F5F5F5F5F5F5F5F5F5F5F5F5F5F5F5F5F5F5F5F5F5F5F5F5F5F5F5F5F5F5F5F5F5F5F5F5F5F5E2BEF5F5F5F5F5F5F5F5F5F5F5F5F5F5F5F5F5F5F5F5F5F5F5F5F5F5F5F5F5F5F5F5F5F5F5F5F5F5F5F5F5F5F5F5F5F5F5F5F5F5F5F5F5F5F5F5F5F5F5F5F5F5F5F5F5F5F5F5F5F5F5F5F5F5F5F5F5F5F5
310
F5F5F5F5F5F5F5F5F5F5F5F5F5F5F5F5F5F5F5F5F5F5F5F5F5F5F5F5F5F5F5F5F5F5F5F5E2F5E2E2E2F5E2F5F5F5F5F5F5F5F5F5F5F5F5F5F5F5F5F5F5F5F5F5F5F5F5F5F5F5F5F5F5F5F5F5F5F5F5F5F5F5F5F5F5F5F5F5F5F5F5F5F5F5F5F5F5E2E2E2E2E2F5F5F5F5E2E2F5E2E2E2E2E2E2E2E2F5E2E2E2E2E2E2E2E2F5
310
E2E2E2E2E2E2E2E2F5E2E2E2E2E2E2E2E2F5E2E2E2E2E2E2E2E2F5E2E2E2E2E2E2E2E2F5E2E2E2E2E2E2E2E2F5E2E2E2E2E2E2E2F5F5F5F5F5F5F5F5F5F5F5F5F5F5F5F5F5F5F5F5F5F5F5F5F5F5F5F5F5F5F5F5F5F5F5F5F5E2F5E2E2E2F5E2F5F5F5F5F5F5F5F5F5F5F5F5F5F5F5F5F5F5F5F5F5F5F5F5F5F5F5F5F5F5F5
310
F5F5F5F5F5F5F5F5F5F5F5F5F5F5F5F5F5F5F5F5F5F5F5F5BEE2F5F5F5F5F5F5E2F5F5F5F5F5F5F5F5F5F5F5F5F5F5F5F5F5F5F5F5F5F5F5F5F5F5F5F5F5F5F5F5F5F5F5F5F5F5F5F5F5F5F5F5F5F5F5F5F5F5F5F5F5F5F5F5F5F5F5F5F5F5F5F5F5F5F5F5F5F5F5E2F5F5F5F5F5F5F5F5F5F5F5F5F5F5F5F5F5F5F5F5F5F5
310
F5F5F5F5F5F5F5F5F5F5F5F5F5F5F5E2F5E2E2E2F5E2F5F5F5F5F5F5F5F5F5F5F5F5F5F5F5F5F5F5F5F5F5F5F5F5F5F5F5F5F5F5F5F5F5F5F5F5F5F5F5F5F5F5F5F5F5F5F5F5F5F5F5F5F5F5F5F5E2F5F5F5F5F5F5E2F5F5F5F5F5F5F5F5F5F5F5F5F5F5F5F5F5F5F5F5F5F5F5F5F5F5F5F5F5F5F5F5F5F5F5F5F5F5F5F5F5
310
F5F5F5F5F5F5F5F5F5F5F5F5F5F5F5F5F5F5F5F5F5F5F5F5F5F5F5F5F5F5E2F5F5F5F5F5F5F5F5F5F5F5F5F5F5F5F5F5F5F5F5F5F5F5F5F5F5F5F5F5F5F5F5F5F5F5F5F5E2F5E2E2E2F5E2F5F5F5F5F5F5F5F5F5F5F5F5F5F5F5F5F5F5F5F5F5F5F5F5F5F5F5F5F5F5F5F5F5F5F5F5F5F5F5F5F5F5F5F5F5F5F5F5F5F5F5F5
310
F5F5F5F5E2F5F5F5F5F5F5E2F5F5F5F5F5F5F5F5F5F5F5F5F5F5F5F5F5F5F5F5F5F5F5F5F5F5F5F5F5F5F5F5F5F5F5F5F5F5F5F5F5F5F5F5F5F5F5F5F5F5F5F5F5F5F5F5F5F5F5F5F5F5F5F5F5F5F5F5F5F5F5E2F5F5F5F5F5F5F5F5F5F5F5F5F5F5F5F5F5F5F5F5F5F5F5F5F5F5F5F5F5F5F5F5F5F5F5F5F5E2F5E2E2E2F5
310
E2F5F5F5F5F5F5F5F5F5F5F5F5F5F5F5F5F5F5F5F5F5F5F5F5F5F5F5F5F5F5F5F5F5F5F5F5F5F5F5F5F5F5F5F5F5F5F5F5F5F5F5F5F5F5F5F5E2F5F5F5F5F5F5E2F5F5F5F5F5F5F5F5F5F5F5F5F5F5F5F5F5F5F5F5F5F5F5F5F5F5F5F5F5F5F5F5F5F5F5F5F5F5F5F5F5F5F5F5F5F5F5F5F5F5F5F5F5F5F5F5F5F5F5F5F5F5
310
F5F5F5F5F5F5F5F5F5E2F5F5F5F5F5F5F5F5F5F5F5F5F5F5F5F5F5F5F5F5F5F5F5F5F5F5F5F5F5F5F5F5F5F5F5F5F5E2F5E2E2E2F5E2F5F5F5F5F5F5F5F5F5F5F5F5F5F5F5F5F5F5F5F5F5F5F5F5F5F5F5F5F5F5F5F5F5F5F5F5F5F5F5F5F5F5F5F5F5F5F5F5F5F5F5F5F5F5F5F5E2F5F5F5F5F5F5E2F5F5F5F5F5F5F5F5F5
310
F5F5F5F5F5F5F5F5F5F5F5F5F5F5F5F5F5F5F5F5F5F5F5F5F5F5F5F5F5F5F5F5F5F5F5F5F5F5F5F5F5F5F5F5F5F5F5F5F5F5F5F5F5F5F5F5F5F5F5F5F5F5E2F5F5F5F5F5F5F5F5F5F5F5F5F5F5F5F5F5F5F5F5F5F5F5F5F5F5F5F5F5F5F5F5F5F5F5F5F5E2F5E2E2E2F5E2F5F5F5F5F5F5F5F5F5F5F5F5F5F5F5F5F5F5F5F5
310
F5F5F5F5F5F5F5F5F5F5F5F5F5F5F5F5F5F5F5F5F5F5F5F5F5F5F5F5F5F5F5F5F5F5F5F5E2F5F5F5F5F5F5E2F5F5F5F5F5F5F5F5F5F5F5F5F5F5F5F5F5F5F5F5F5F5F5F5F5F5F5F5F5F5F5F5F5F5F5F5F5F5F5F5F5F5F5F5F5F5F5F5F5F5F5F5F5F5F5F5F5F5F5F5F5F5F5F5F5F5F5F5F5F5F5E2F5F5F5F5F5F5F5F5F5F5F5
310
F5F5F5F5F5F5F5F5F5F5F5F5F5F5F5F5F5F5F5F5F5F5F5F5F5F5E2F5E2E2E2F5E2F5F5F5F5F5F5F5F5F5F5F5F5F5F5F5F5F5F5F5F5F5F5F5F5F5F5F5F5F5F5F5F5F5F5F5F5F5F5F5F5F5F5F5F5F5F5F5F5F5F5F5F5F5F5F5F5E2F5F5F5F5F5F5F5F5F5F5F5F5F5F5F5F5F5F5F5F5F5F5F5F5F5F5F5F5F5F5F5F5F5F5F5F5F5
310
F5F5F5F5F5F5F5F5F5F5F5F5F5F5F5F5F5F5F5F5F5F5F5F5F5F5F5F5F5F5F5F5F5F5F5F5F5F5F5F5F5F5F5F5F5F5F5F5F5F5F5F5F5F5F5F5F5F5F5F5F5F5F5F5F5F5F5F5F5F5F5F5F5F5F5F5F5F5F5E2F5E2E2E2F5E2F5F5F5F5F5F5F5F5F5F5F5F5F5F5F5F5F5F5F5F5F5F5F5F5F5F5F5F5F5F5F5F5F5F5F5F5F5F5F5F5F5
310
F5F5F5F5F5F5F5F5F5F5F5F5F5F5F5E2F5F5F5F5F5F5E2F5F5F5F5F5F5F5F5F5F5F5F5F5F5F5F5F5F5F5F5F5F5F5F5F5F5F5F5F5F5F5F5F5F5F5F5F5F5F5F5F5F5F5F5F5F5F5F5F5F5F5F5F5F5F5F5F5F5F5F5F5F5F5F5F5F5F5F5F5F5F5E2F5F5F5F5F5F5F5F5F5F5F5F5F5F5F5F5F5F5F5F5F5F5F5F5F5F5F5F5F5F5F5F5
310
F5F5F5F5F5E2F5E2E2E2F5E2F5F5F5F5F5F5F5F5F5F5F5F5F5F5F5F5F5F5F5F5F5F5F5F5F5F5F5F5F5F5F5F5F5F5F5F5F5F5F5F5F5F5F5F5F5F5F5F5F5F5F5F5F5F5F5F5E2F5F5F5F5F5F5E2F5F5F5F5F5F5F5F5F5F5F5F5F5F5F5F5F5F5F5F5F5F5F5F5F5F5F5F5F5F5F5F5F5F5F5F5F5F5F5F5F5F5F5F5F5F5F5F5F5F5F5
310
F5F5F5F5F5F5F5F5F5F5F5F5F5F5F5F5F5F5F5F5E2F5F5F5F5F5F5F5F5F5F5F5F5F5F5F5F5F5F5F5F5F5F5F5F5F5F5F5F5F5F5F5F5F5F5F5F5F5E2F5E2E2E2F5E2F5F5F5F5F5F5F5F5F5F5F5F5F5F5F5F5F5F5F5F5F5F5F5F5F5F5F5F5F5F5F5F5F5F5F5F5F5F5F5F5F5F5F5F5F5F5F5F5F5F5F5F5F5F5F5F5E2F5F5F5F5F5
310
F5E2F5F5F5F5F5F5F5F5F5F5F5F5F5F5F5F5F5F5F5F5F5F5F5F5F5F5F5F5F5F5F5F5F5F5F5F5F5F5F5F5F5F5F5F5F5F5F5F5F5F5F5F5F5F5F5F5F5F5F5F5F5F5F5F5F5F5F5F5F5F5F5E2F5F5F5F5F5F5F5F5F5F5F5F5F5F5F5F5F5F5F5F5F5F5F5F5F5F5F5F5F5F5F5F5F5F5F5F5F5E2F5E2E2E2F5E2F5F5F5F5F5F5F5F5F5
310
F5F5F5F5F5F5F5F5F5F5F5F5F5F5F5F5F5F5F5F5F5F5F5F5F5F5F5F5F5F5F5F5F5F5F5F5F5F5F5F5F5F5F5F5F5F5F5E2F5F5F5F5F5F5E2F5F5F5F5F5F5F5F5F5F5F5F5F5F5F5F5F5F5F5F5F5F5F5F5F5F5F5F5F5F5F5F5F5F5F5F5F5F5F5F5F5F5F5F5F5F5F5F5F5F5F5F5F5F5F5F5F5F5F5F5F5F5F5F5F5F5F5F5F5F5F5E2
310
F5F5F5F5F5F5F5F5F5F5F5F5F5F5F5F5F5F5F5F5F5F5F5F5F5F5F5F5F5F5F5F5F5F5F5F5F5E2F5E2E2E2F5E2F5F5F5F5F5F5F5F5F5F5F5F5F5F5F5F5F5F5F5F5F5F5F5F5F5F5F5F5F5F5F5F5F5F5F5F5F5F5F5F5F5F5F5F5F5F5F5F5F5F5F5F5F5F5F5F5E2F5F5F5F5F5F5E2F5F5F5F5F5F5F5F5F5F5F5F5F5F5F5F5F5F5F5
310
F5F5F5F5F5F5F5F5F5F5F5F5F5F5F5F5F5F5F5F5F5F5F5F5F5F5F5F5F5F5F5F5F5F5F5F5F5F5F5F5F5F5F5F5F5F5F5F5F5F5F5F5E2F5F5F5F5F5F5F5F5F5F5F5F5F5F5F5F5F5F5F5F5F5F5F5F5F5F5F5F5F5F5F5F5F5F5F5F5F5E2F5E2E2E2F5E2F5F5F5F5F5F5F5F5F5F5F5F5F5F5F5F5F5F5F5F5F5F5F5F5F5F5F5F5F5F5
310
F5F5F5F5F5F5F5F5F5F5F5F5F5F5F5F5F5F5F5F5F5F5F5F5F5F5E2F5F5F5F5F5F5E2F5F5F5F5F5F5F5F5F5F5F5F5F5F5F5F5F5F5F5F5F5F5F5F5F5F5F5F5F5F5F5F5F5F5F5F5F5F5F5F5F5F5F5F5F5F5F5F5F5F5F5F5F5F5F5F5F5F5F5F5F5F5F5F5F5F5F5F5F5F5F5E2F5F5F5F5F5F5F5F5F5F5F5F5F5F5F5F5F5F5F5F5F5
310
F5F5F5F5F5F5F5F5F5F5F5F5F5F5F5F5E2F5E2E2E2F5E2F5F5F5F5F5F5F5F5F5F5F5F5F5F5F5F5F5F5F5F5F5F5F5F5F5F5F5F5F5F5F5F5F5F5F5F5F5F5F5F5F5F5F5F5F5F5F5F5F5F5F5F5F5F5F5F5E2F5F5F5F5F5F5E2F5F5F5F5F5F5F5F5F5F5F5F5F5F5F5F5F5F5F5F5F5F5F5F5F5F5F5F5F5F5F5F5F5F5F5F5F5F5F5F5
310
F5F5F5F5F5F5F5F5F5F5F5F5F5F5F5F5F5F5F5F5F5F5F5F5F5F5F5F5F5F5F5E2F5F5F5F5F5F5F5F5F5F5F5F5F5F5F5F5F5F5F5F5F5F5F5F5F5F5F5F5F5F5F5F5F5F5F5F5F5E2F5E2E2E2F5E2F5F5F5F5F5F5F5F5F5F5F5F5F5F5F5F5F5F5F5F5F5F5F5F5F5F5F5F5F5F5F5F5F5F5F5F5F5F5F5F5F5F5F5F5F5F5F5F5F5F5F5
310
F5F5F5F5F5E2F5F5F5F5F5F5E2F5F5F5F5F5F5F5F5F5F5F5F5F5F5F5F5F5F5F5F5F5F5F5F5F5F5F5F5F5F5F5F5F5F5F5F5F5F5F5F5F5F5F5F5F5F5F5F5F5F5F5F5F5F5F5F5F5F5F5F5F5F5F5F5F5F5F5F5F5F5F5E2F5F5F5F5F5F5F5F5F5F5F5F5F5F5F5F5F5F5F5F5F5F5F5F5F5F5F5F5F5F5F5F5F5F5F5F5F5E2F5E2E2E2
310
F5E2F5F5F5F5F5F5F5F5F5F5F5F5F5F5F5F5F5F5F5F5F5F5F5F5F5F5F5F5F5F5F5F5F5F5F5F5F5F5F5F5F5F5F5F5F5F5F5F5F5F5F5F5F5F5F5F5E2F5F5F5F5F5F5F5F5F5F5F5F5F5F5F5F5F5F5F5F5F5F5F5F5F5F5F5F5F5F5F5F5F5F5F5F5F5F5F5F5F5F5F5F5F5F5F5F5F5F5F5F5F5F5F5F5F5F5F5F5F5F5F5F5F5F5F5F5
310
F5F5F5F5F5F5F5F5F5F5F5F5F5F5F5F5F5F5F5F5F5F5F5F5F5F5F5F5F5F5F5F5F5F5F5F5F5F5F5F5F5F5F5F5F5F5F5F5E2F5E2E2E2F5E2F5F5F5F5F5F5F5F5F5F5F5F5F5F5F5F5F5F5F5F5F5F5F5F5F5F5F5F5F5F5F5F5F5F5F5F5F5F5F5F5F5F5F5F5F5F5F5F5F5F5F5F5F5F5F5F5E2F5F5F5F5F5F5E2F5F5F5F5F5F5F5F5
310
F5F5F5F5F5F5F5F5F5E2E2E2E2E2E2E2E2E2E2E2E2E2E2E2E2E2E2E2E2E2E2E2E2E2E2E2E2E2E2E2E2E2E2E2E2E2E2F5F5F5F5F5F5F5F5F5F5F5F5F5F5F5F5E2F5F5F5F5F5F5F5F5F5F5F5F5F5F5F5F5F5F5F5F5F5F5F5F5F5F5F5F5F5F5F5F5F5F5F5F5F5E2F5E2E2E2F5E2F5F5F5F5F5F5F5F5F5F5F5F5F5F5F5F5F5F5F5
310
F5F5F5F5F5F5F5F5F5F5F5F5F5F5F5F5F5F5F5F5F5F5F5F5F5F5F5F5F5F5F5F5F5F5F5F5F5E2F5F5F5F5F5F5E2F5F5F5F5F5F5F5F5F5F5F5F5F5F5F5F5E2E2E2E2E2E2E2E2E2E2E2E2E2E2E2E2E2E2E2E2E2E2E2E2E2E2E2E2E2E2E2F5F5F5F5F5F5F5E2F5F5F5F5F5F5F5F5F5F5F5F5F5F5F5F5E2F5F5F5F5F5F5F5F5F5F5
310
F5F5F5F5F5F5F5F5F5F5F5F5F5F5F5F5F5F5F5F5F5F5F5F5F5F5F5E2F5E2E2E2F5E2F5F5F5F5F5F5F5F5F5F5F5F5F5F5F5F5F5F5F5F5F5F5F5F5F5F5F5F5F5F5F5F5F5F5F5F5F5F5F5F5F5F5F5F5F5F5F5F5F5F5F5F5F5F5F5F5E2F5F5F5F5F5F5E2F5F5F5F5F5F5F5F5F5F5F5F5F5F5F5F5E2E2E2F5F5F5F5F5F5F5F5F5F5
310
F5F5F5F5F5F5F5F5F5F5F5F5F5F5F5F5F5E2F5F5F5F5F5F5F5E2E2F5F5F5F5F5F5F5F5F5F5F5F5F5F5F5E2F5F5F5F5F5F5F5F5F5F5F5F5F5F5F5F5F5F5F5F5F5F5F5F5F5F5F5F5F5F5F5F5F5F5F5F5F5E2F5E2E2E2F5E2F5F5F5F5F5F5F5F5F5F5F5F5F5F5F5F5F5F5F5F5F5F5F5F5F5F5F5F5F5F5F5F5F5F5F5F5F5F5F5F5
310
F5F5F5F5F5F5F5F5F5F5F5F5F5F5F5F5E2F5F5F5F5F5F5E2F5F5F5F5F5F5F5F5F5F5F5F5F5F5F5F5E2E2E2F5F5F5F5F5F5F5F5F5F5F5F5F5F5F5F5F5F5F5F5F5F5F5F5F5F5F5E2E2E2E2F5F5F5F5F5E2F5F5F5F5F5F5F5F5F5F5F5F5F5F5F5E2F5F5F5F5F5F5F5F5F5F5F5F5F5F5F5F5F5F5F5F5F5F5F5F5F5F5F5F5F5F5F5
310
F5F5F5F5F5F5E2F5E2E2E2F5E2F5F5F5F5F5F5F5F5F5F5F5F5F5F5F5F5F5F5F5F5F5F5F5F5F5F5F5F5F5F5F5F5F5F5F5F5F5F5F5F5F5F5F5F5F5F5F5F5F5F5F5F5F5F5F5F5E2F5F5F5F5F5F5E2F5F5F5F5F5F5F5F5F5F5F5F5F5F5F5F5E2E2F5F5F5F5F5F5F5F5F5F5F5F5F5F5F5F5F5F5F5F5F5F5F5F5F5F5F5F5F5F5F5F5
310
E2F5F5F5F5E2F5F5F5F5F5F5F5F5F5F5F5F5F5F5F5E2F5F5F5F5F5F5F5F5F5F5F5F5F5F5F5F5F5F5F5F5F5F5F5F5F5F5F5F5F5F5F5F5F5F5F5F5F5E2F5E2E2E2F5E2F5F5F5F5F5F5F5F5F5F5F5F5F5F5F5F5F5F5F5F5F5F5F5F5F5F5F5F5F5F5F5F5F5F5F5F5F5F5F5F5F5F5F5F5F5F5F5F5F5F5F5F5F5F5F5F5E2F5F5F5F5
310
F5F5E2F5F5F5F5F5F5F5F5F5F5F5F5F5F5F5F5E2E2F5F5F5F5F5F5F5F5F5F5F5F5F5F5F5F5F5F5F5F5F5F5F5F5F5F5F5F5F5F5F5F5F5E2F5F5F5E2F5F5F5F5F5F5F5F5F5F5F5F5F5F5F5E2F5F5F5F5F5F5F5F5F5F5F5F5F5F5F5F5F5F5F5F5F5F5F5F5F5F5F5F5F5F5F5F5F5F5F5F5F5E2F5E2E2E2F5E2F5F5F5F5F5F5F5F5
310
F5F5F5F5F5F5F5F5F5F5F5F5F5F5F5F5F5F5F5F5F5F5F5F5F5F5F5F5F5F5F5F5F5F5F5F5F5F5F5F5F5F5F5F5F5F5F5F5E2F5F5F5F5F5F5E2F5F5F5F5F5F5F5F5F5F5F5F5F5F5F5F5E2E2F5F5F5F5F5F5F5F5F5F5F5F5F5F5F5F5F5F5F5F5F5F5F5F5F5F5F5F5F5F5F5F5F5E2F5F5F5E2F5F5F5F5F5F5F5F5F5F5F5F5F5F5F5
310
E2F5F5F5F5F5F5F5F5F5F5F5F5F5F5F5F5F5F5F5F5F5F5F5F5F5F5F5F5F5F5F5F5F5F5F5F5F5E2F5E2E2E2F5E2F5F5F5F5F5F5F5F5F5F5F5F5F5F5F5F5F5F5F5F5F5F5F5F5F5F5F5F5F5F5F5F5F5F5F5F5F5F5F5F5F5F5F5F5F5F5F5F5F5F5F5F5F5F5F5F5E2F5F5F5F5F5F5E2F5F5F5F5F5F5F5F5F5F5F5F5F5F5F5F5E2E2
310
F5F5F5F5F5F5F5F5F5F5F5F5F5F5F5F5F5F5F5F5F5F5F5F5F5F5F5F5F5F5F5F5F5E2F5F5F5E2F5F5F5F5F5F5F5F5F5F5F5F5F5F5F5E2F5F5F5F5F5F5F5F5F5F5F5F5F5F5F5F5F5F5F5F5F5F5F5F5F5F5F5F5F5F5F5F5F5F5F5F5F5E2F5E2E2E2F5E2F5F5F5F5F5F5F5F5F5F5F5F5F5F5F5F5F5F5F5F5F5F5F5F5F5F5F5F5F5
310
F5F5F5F5F5F5F5F5F5F5F5F5F5F5F5F5F5F5F5F5F5F5F5F5F5F5F5E2F5F5F5F5F5F5F5F5F5F5F5F5F5F5F5F5F5F5F5F5F5F5F5E2E2F5F5F5F5F5F5F5F5F5F5F5F5F5F5F5F5F5F5F5F5F5F5F5F5F5F5F5F5F5F5F5F5F5E2E2E2E2E2F5F5F5F5F5F5F5F5F5F5F5F5F5F5F5F5F5F5F5F5F5F5F5F5F5F5F5F5F5F5F5F5F5F5F5F5
310
F5F5F5F5F5F5F5F5F5F5F5F5F5F5F5F5F5E2F5E2E2E2F5E2F5F5F5F5F5F5F5F5F5F5F5F5F5F5F5F5F5F5F5F5F5F5F5F5F5F5F5F5F5F5F5F5F5F5F5F5F5F5F5F5F5F5F5F5F5F5F5F5F5F5F5F5F5F5F5F5E2F5F5F5F5F5F5E2F5F5F5F5F5F5F5F5F5F5F5F5F5F5F5F5E2E2F5F5F5F5F5F5F5F5F5F5F5F5F5F5F5F5F5F5F5F5F5
310
F5F5F5F5F5F5F5F5F5F5F5F5F5F5E2E2F5F5F5F5F5F5F5F5F5F5F5F5F5F5F5F5E2F5F5F5F5F5F5F5F5F5F5F5F5F5F5F5F5F5F5F5F5F5F5F5F5F5F5F5F5F5F5F5F5F5F5F5F5F5E2F5E2E2E2F5E2F5F5F5F5F5F5F5F5F5F5F5F5F5F5F5F5F5F5F5F5F5F5F5F5F5F5F5F5F5F5F5F5F5F5F5F5F5F5F5F5F5F5F5F5F5F5F5F5F5F5
310
F5F5F5F5F5F5E2F5F5F5F5F5F5E2F5F5F5F5F5F5F5F5F5F5F5F5F5F5F5F5E2E2F5F5F5F5F5F5F5F5F5F5F5F5F5F5F5F5F5F5F5F5F5F5F5F5F5F5F5F5F5F5F5F5F5F5F5E2E2F5F5F5F5F5F5F5F5F5F5F5F5F5F5F5F5E2F5F5F5F5F5F5F5F5F5F5F5F5F5F5F5F5F5F5F5F5F5F5F5F5F5F5F5F5F5F5F5F5F5F5F5F5F5E2F5E2E2
310
E2F5E2F5F5F5F5F5F5F5F5F5F5F5F5F5F5F5F5F5F5F5F5F5F5F5F5F5F5F5F5F5F5F5F5F5F5F5F5F5F5F5F5F5F5F5F5F5F5F5F5F5F5F5F5F5F5F5F5E2F5F5F5F5F5F5E2F5F5F5F5F5F5F5F5F5F5F5F5F5F5F5F5E2E2F5F5F5F5F5F5F5F5F5F5F5F5F5F5F5F5F5F5F5F5F5F5F5F5F5F5F5F5F5F5F5F5F5F5F5E2E2F5F5F5F5F5
310
F5F5F5F5F5F5F5F5F5F5F5E2F5F5F5F5F5F5F5F5F5F5F5F5F5F5F5F5F5F5F5F5F5F5F5F5F5F5F5F5F5F5F5F5F5F5F5F5F5E2F5E2E2E2F5E2F5F5F5F5F5F5F5F5F5F5F5F5F5F5F5F5F5F5F5F5F5F5F5F5F5F5F5F5F5F5F5F5F5F5F5F5F5F5F5F5F5F5F5F5F5F5F5F5F5F5F5F5F5F5F5F5E2F5F5F5F5F5F5E2F5F5F5F5F5F5F5
310
F5F5F5F5F5F5F5F5F5E2E2F5F5F5F5F5F5F5F5F5F5F5F5F5F5F5F5F5F5F5F5F5F5F5F5F5F5F5F5F5F5F5F5F5F5F5E2E2F5F5F5F5F5F5F5F5F5F5F5F5F5F5F5F5E2F5F5F5F5F5F5F5F5F5F5F5F5F5F5F5F5F5F5F5F5F5F5F5F5F5F5F5F5F5F5F5F5F5F5F5F5F5E2F5E2E2E2F5E2F5F5F5F5F5F5F5F5F5F5F5F5F5F5F5F5F5F5
310
F5F5F5F5F5F5F5F5F5F5F5F5F5F5F5F5F5F5F5F5F5F5F5F5F5F5F5F5F5F5F5F5F5F5F5F5F5F5E2F5F5F5F5F5F5E2F5F5F5F5F5F5F5F5F5F5F5F5F5F5F5F5E2E2F5F5F5F5F5F5F5F5F5F5F5F5F5F5F5F5F5F5F5F5F5F5F5F5F5F5F5F5F5F5F5F5F5F5F5E2E2F5F5F5F5F5F5F5F5F5F5F5F5F5F5F5F5E2F5F5F5F5F5F5F5F5F5
310
F5F5F5F5F5F5F5F5F5F5F5F5F5F5F5F5F5F5F5F5F5F5F5F5F5F5F5F5E2F5E2E2E2F5E2F5F5F5F5F5F5F5F5F5F5F5F5F5F5F5F5F5F5F5F5F5F5F5F5F5F5F5F5F5F5F5F5F5F5F5F5F5F5F5F5F5F5F5F5F5F5F5F5F5F5F5F5F5F5F5F5E2F5F5F5F5F5F5E2F5F5F5F5F5F5F5F5F5F5F5F5F5F5F5F5E2E2F5F5F5F5F5F5F5F5F5F5
310
F5F5F5F5F5F5F5F5F5F5F5F5F5F5F5F5F5F5F5F5F5F5F5F5F5E2E2F5F5F5F5F5F5F5F5F5F5F5F5F5F5F5F5E2F5F5F5F5F5F5F5F5F5F5F5F5F5F5F5F5F5F5F5F5F5F5F5F5F5F5F5F5F5F5F5F5F5F5F5F5F5E2F5E2E2E2F5E2F5F5F5F5F5F5F5F5F5F5F5F5F5F5F5F5F5F5F5F5F5F5F5F5F5F5F5F5F5F5F5F5F5F5F5F5F5F5F5
310
F5F5F5F5F5F5F5F5F5F5F5F5F5F5F5F5F5E2F5F5F5F5F5F5E2F5F5F5F5F5F5F5F5F5F5F5F5F5F5F5F5E2E2F5F5F5F5F5F5F5F5F5F5F5F5F5F5F5F5F5F5F5F5F5F5F5F5F5F5F5F5F5F5F5F5F5F5F5E2E2F5F5F5F5F5F5F5F5F5F5F5F5F5F5F5F5E2F5F5F5F5F5F5F5F5F5F5F5F5F5F5F5F5F5F5F5F5F5F5F5F5F5F5F5F5F5F5
310
F5F5F5F5F5F5F5E2F5E2E2E2F5E2F5F5F5F5F5F5F5F5F5F5F5F5F5F5F5F5F5F5F5F5F5F5F5F5F5F5F5F5F5F5F5F5F5F5F5F5F5F5F5F5F5F5F5F5F5F5F5F5F5F5F5F5F5F5F5F5E2F5F5F5F5F5F5E2F5F5F5F5F5F5F5F5F5F5F5F5F5F5F5F5E2E2F5F5F5F5F5F5F5F5F5F5F5F5F5F5F5F5F5F5F5F5F5F5F5F5F5F5F5F5F5F5F5
310
F5F5F5F5E2E2F5F5F5F5F5F5F5F5F5F5F5F5F5F5F5F5E2F5F5F5F5F5F5F5F5F5F5F5F5F5F5F5F5F5F5F5F5F5F5F5F5F5F5F5F5F5F5F5F5F5F5F5F5F5E2F5E2E2E2F5E2F5F5F5F5F5F5F5F5F5F5F5F5F5F5F5F5F5F5F5F5F5F5F5F5F5F5F5F5F5F5F5F5F5F5F5F5F5F5F5F5F5F5F5F5F5F5F5F5F5F5F5F5E2E2E2F5E2F5F5F5
310
F5F5F5F5F5F5F5F5F5F5F5F5F5F5F5F5F5F5F5F5E2E2F5F5F5F5F5F5F5F5F5F5F5F5F5F5F5F5F5F5F5F5F5F5F5F5F5F5F5F5F5F5F5F5F5F5F5E2E2F5F5F5F5F5F5F5F5F5F5F5F5F5F5F5F5F5F5F5F5F5F5F5F5F5F5F5F5F5F5F5F5F5F5F5F5F5F5F5F5F5F5F5F5F5F5F5F5F5F5F5F5F5F5E2F5E2E2E2F5E2F5F5F5F5F5F5F5
310
F5F5F5F5F5F5F5F5F5F5F5F5F5F5F5F5F5F5F5F5F5F5F5F5F5F5F5F5F5F5F5F5F5F5F5F5F5F5F5F5F5F5F5F5F5E2E2E2F5E2F5F5F5F5F5F5E2F5F5F5F5F5F5F5F5F5F5F5F5F5F5F5F5E2E2F5F5F5F5F5F5F5F5F5F5F5F5F5F5F5F5F5F5F5F5F5F5F5F5F5F5F5F5F5F5F5F5F5F5F5E2E2F5F5F5F5F5F5F5F5F5F5F5F5F5F5F5
310
F5E2F5F5F5F5F5F5F5F5F5F5F5F5F5F5F5F5F5F5F5F5F5F5F5F5F5F5F5F5F5F5F5F5F5F5F5F5F5E2F5E2E2E2F5E2F5F5F5F5F5F5F5F5F5F5F5F5F5F5F5F5F5F5F5F5F5F5F5F5F5F5F5F5F5F5F5F5F5F5F5F5F5F5F5F5F5F5F5F5F5F5F5F5F5F5F5F5E2E2E2F5E2F5F5F5F5F5F5E2F5F5F5F5F5F5F5F5F5F5F5F5F5F5F5F5E2
310
E2F5F5F5F5F5F5F5F5F5F5F5F5F5F5F5F5F5F5F5F5F5F5F5F5F5F5F5F5F5F5F5F5F5F5F5E2E2F5F5F5F5F5F5F5F5F5F5F5F5F5F5F5F5E2F5F5F5F5F5F5F5F5F5F5F5F5F5F5F5F5F5F5F5F5F5F5F5F5F5F5F5F5F5F5F5F5F5F5F5F5F5E2F5E2E2E2F5E2F5F5F5F5F5F5F5F5F5F5F5F5F5F5F5F5F5F5F5F5F5F5F5F5F5F5F5F5
310
F5F5F5F5F5F5F5F5F5F5F5F5F5F5F5F5F5F5F5F5F5F5F5F5E2E2E2F5E2F5F5F5F5F5F5E2F5F5F5F5F5F5F5F5F5F5F5F5F5F5F5F5E2E2F5F5F5F5F5F5F5F5F5F5F5F5F5F5F5F5F5F5F5F5F5F5F5F5F5F5F5F5F5F5F5F5F5F5F5E2E2F5F5F5F5F5F5F5F5F5F5F5F5F5F5F5F5E2F5F5F5F5F5F5F5F5F5F5F5F5F5F5F5F5F5F5F5
310
F5F5F5F5F5F5F5F5F5F5F5F5F5F5F5F5F5F5E2F5E2E2E2F5E2F5F5F5F5F5F5F5F5F5F5F5F5F5F5F5F5F5F5F5F5F5F5F5F5F5F5F5F5F5F5F5F5F5F5F5F5F5F5F5F5F5F5F5F5F5F5F5F5F5F5F5F5E2E2E2F5E2F5F5F5F5F5F5E2F5F5F5F5F5F5F5F5F5F5F5F5F5F5F5F5E2E2F5F5F5F5F5F5F5F5F5F5F5F5F5F5F5F5F5F5F5F5
310
F5F5F5F5F5F5F5F5F5F5F5F5F5F5F5E2E2F5F5F5F5F5F5F5F5F5F5F5F5F5F5F5F5E2F5F5F5F5F5F5F5F5F5F5F5F5F5F5F5F5F5F5F5F5F5F5F5F5F5F5F5F5F5F5F5F5F5F5F5F5F5E2F5E2E2E2F5E2F5F5F5F5F5F5F5F5F5F5F5F5F5F5F5F5F5F5F5F5F5F5F5F5F5F5F5F5F5F5F5F5F5F5F5F5F5F5F5F5F5F5F5F5F5F5F5F5F5
310
F5F5F5F5F5F5F5E2F5F5F5F5F5F5E2F5F5F5F5F5F5F5F5F5F5F5F5F5F5F5F5E2E2F5F5F5F5F5F5F5F5F5F5F5F5F5F5F5F5F5F5F5F5F5F5F5F5F5F5F5F5F5F5F5F5F5F5F5E2E2F5F5F5F5F5F5F5F5F5F5F5F5F5F5F5F5E2F5F5F5F5F5F5F5F5F5F5F5F5F5F5F5F5F5F5F5F5F5F5F5F5F5F5F5F5F5F5F5F5F5F5F5F5F5E2F5E2
310
E2E2F5E2F5F5F5F5F5F5F5F5F5F5F5F5F5F5F5F5F5F5F5F5F5F5F5F5F5F5F5F5F5F5F5F5F5F5F5F5F5F5F5F5F5F5F5F5F5F5F5F5F5F5F5F5F5F5F5F5E2F5F5F5F5F5F5E2F5F5F5F5F5F5F5F5F5F5F5F5F5F5F5F5E2E2F5F5F5F5F5F5F5F5F5F5F5F5F5F5F5F5F5F5F5F5F5F5F5F5F5F5F5F5F5F5F5F5F5F5F5E2E2F5F5F5F5
310
F5F5F5F5F5F5F5F5F5F5F5F5E2F5F5F5F5F5F5F5F5F5F5F5F5F5F5F5F5F5F5F5F5F5F5F5F5F5F5F5F5F5F5F5F5F5F5F5F5F5E2F5E2E2E2F5E2F5F5F5F5F5F5F5F5F5F5F5F5F5F5F5F5F5F5F5F5F5F5F5F5F5F5F5F5F5F5F5F5F5F5F5F5F5F5F5F5F5F5F5F5F5F5F5F5F5F5F5F5F5F5F5F5E2F5F5F5F5F5F5E2F5F5F5F5F5F5
310
F5F5F5F5F5F5F5F5F5F5E2E2F5F5F5F5F5F5F5F5F5F5F5F5F5F5F5F5F5F5F5F5F5F5F5F5F5F5F5F5F5F5F5F5F5F5F5E2E2F5F5F5F5F5F5F5F5F5F5F5F5F5F5F5F5E2F5F5F5F5F5F5F5F5F5F5F5F5F5F5F5F5F5F5F5F5F5F5F5F5F5F5F5F5F5F5F5F5F5F5F5F5F5E2F5E2E2E2F5E2F5F5F5F5F5F5F5F5F5F5F5F5F5F5F5F5F5
310
F5F5F5F5F5F5F5F5F5F5F5F5F5F5F5F5F5F5F5F5F5F5F5F5F5F5F5F5F5F5F5F5F5F5F5F5F5F5F5E2F5F5F5F5F5F5E2F5F5F5F5F5F5F5F5F5F5F5F5F5F5F5F5E2E2F5F5F5F5F5F5F5F5F5F5F5F5F5F5F5F5F5F5F5F5F5F5F5F5F5F5F5F5F5F5F5F5F5F5F5E2E2F5F5F5F5F5F5F5F5F5F5F5F5F5F5F5F5E2F5F5F5F5F5F5F5F5
310
F5F5F5F5F5F5F5F5F5F5F5F5F5F5F5F5F5F5F5F5F5F5F5F5F5F5F5F5F5E2F5E2E2E2F5E2F5F5F5F5F5F5F5F5F5F5F5F5F5F5F5F5F5F5F5F5F5F5F5F5F5F5F5F5F5F5F5F5F5F5F5F5F5F5F5F5F5F5F5F5F5F5F5F5F5F5F5F5F5F5F5F5E2F5F5F5F5F5F5F5F5F5F5F5F5F5F5F5F5F5F5F5F5F5F5F5E2E2F5F5F5F5F5F5F5F5F5
310
F5F5F5F5F5F5F5F5F5F5F5F5F5F5F5F5F5F5F5F5F5F5F5F5F5F5E2E2F5F5F5F5F5F5F5F5F5F5F5F5F5F5F5F5F5F5F5F5F5F5F5F5F5F5F5F5F5F5F5F5F5F5F5F5F5F5F5F5F5F5F5F5F5F5F5F5F5F5F5F5F5F5E2F5E2E2E2F5E2F5F5F5F5F5F5F5F5F5F5F5F5F5F5F5F5F5F5F5F5F5F5F5F5F5F5F5F5F5F5F5F5F5F5F5F5F5F5
310
F5F5F5F5F5F5F5F5F5F5F5F5F5F5F5F5F5F5E2F5F5F5F5F5F5E2F5F5F5F5F5F5F5F5F5F5F5F5F5F5F5F5E2E2F5F5F5F5F5F5F5F5F5F5F5F5F5F5F5F5F5F5F5F5F5F5F5F5F5F5F5F5F5F5F5F5F5F5F5E2E2F5F5F5F5F5F5F5F5F5F5F5F5F5F5F5F5E2F5F5F5F5F5F5F5F5F5F5F5F5F5F5F5F5F5F5F5F5F5F5F5F5F5F5F5F5F5
310
F5F5F5F5F5F5F5F5E2F5E2E2E2F5E2F5F5F5F5F5F5F5F5F5F5F5F5F5F5F5F5F5F5F5F5F5F5F5F5F5F5F5F5F5F5F5F5F5F5F5F5F5F5F5F5F5F5F5F5F5F5F5F5F5F5F5F5F5F5F5F5E2F5F5F5F5F5F5E2F5F5F5F5F5F5F5F5F5F5F5F5F5F5F5F5E2E2F5F5F5F5F5F5F5F5F5F5F5F5F5F5F5F5F5F5F5F5F5F5F5F5F5F5F5F5F5F5
310
F5F5F5F5F5E2E2F5F5F5F5F5F5F5F5F5F5F5F5F5F5F5F5E2F5F5F5F5F5F5F5F5F5F5F5F5F5F5F5F5F5F5F5F5F5F5F5F5F5F5F5F5F5F5F5F5F5F5F5F5F5E2F5E2E2E2F5E2F5F5F5F5F5F5F5F5F5F5F5F5F5F5F5F5F5F5F5F5F5F5F5F5F5F5F5F5F5F5F5F5F5F5F5F5F5F5F5F5F5F5F5F5F5F5F5F5F5F5F5F5F5F5F5F5E2F5F5
310
F5F5F5F5E2F5F5F5F5F5F5F5F5F5F5F5F5F5F5F5F5E2E2F5F5F5F5F5F5F5F5F5F5F5F5F5F5F5F5F5F5F5F5F5F5F5F5F5F5F5F5F5F5F5F5F5F5F5E2E2F5F5F5F5F5F5F5F5F5F5F5F5F5F5F5F5E2F5F5F5F5F5F5F5F5F5F5F5F5F5F5F5F5F5F5F5F5F5F5F5F5F5F5F5F5F5F5F5F5F5F5F5F5F5E2F5E2E2E2F5E2F5F5F5F5F5F5
310
F5F5F5F5F5F5F5F5F5F5F5F5F5F5F5F5F5F5F5F5F5F5F5F5F5F5F5F5F5F5F5F5F5F5F5F5F5F5F5F5F5F5F5F5F5F5F5F5F5F5E2F5F5F5F5F5F5E2F5F5F5F5F5F5F5F5F5F5F5F5F5F5F5F5E2E2F5F5F5F5F5F5F5F5F5F5F5F5F5F5F5F5F5F5F5F5F5F5F5F5F5F5F5F5F5F5F5F5F5F5F5E2E2F5F5F5F5F5F5F5F5F5F5F5F5F5F5
310
F5F5E2F5F5F5F5F5F5F5F5F5F5F5F5F5F5F5F5F5F5F5F5F5F5F5F5F5F5F5F5F5F5F5F5F5F5F5F5F5E2F5E2E2E2F5E2F5F5F5F5F5F5F5F5F5F5F5F5F5F5F5F5F5F5F5F5F5F5F5F5F5F5F5F5F5F5F5F5F5F5F5F5F5F5F5F5F5F5F5F5F5F5F5F5F5F5F5F5F5F5F5F5E2F5F5F5F5F5F5E2F5F5F5F5F5F5F5F5F5F5F5F5F5F5F5E2
310
E2E2E2F5F5F5F5F5F5F5F5F5F5F5F5F5F5F5F5F5F5F5F5F5F5F5F5F5F5F5F5F5F5F5F5F5F5E2E2F5F5F5F5F5F5F5F5F5F5F5F5F5F5F5F5E2F5F5F5F5F5F5F5F5F5F5F5F5F5F5F5F5F5F5F5F5F5F5F5F5F5F5F5F5F5F5F5F5F5F5F5F5F5E2F5E2E2E2F5E2F5F5F5F5F5F5F5F5F5F5F5F5F5F5F5F5F5F5F5F5F5F5F5F5F5F5F5
310
F5F5F5F5F5F5F5F5F5F5F5F5F5F5F5F5F5F5F5F5F5F5F5F5F5F5F5F5F5E2F5F5F5F5F5F5E2F5F5F5F5F5F5F5F5F5F5F5F5F5F5F5E2F5F5E2F5F5F5F5F5F5F5F5F5F5F5F5F5F5F5F5F5F5F5F5F5F5F5F5F5F5F5F5F5F5F5F5F5F5E2E2F5F5F5F5F5F5F5F5F5F5F5F5F5F5F5F5E2F5F5F5F5F5F5F5F5F5F5F5F5F5F5F5F5F5F5
310
F5F5F5F5F5F5F5F5F5F5F5F5F5F5F5F5F5F5F5E2F5E2E2E2F5E2F5F5F5F5F5F5F5F5F5F5F5F5F5F5F5F5F5F5F5F5F5F5F5F5F5F5F5F5F5F5F5F5F5F5F5F5F5F5F5F5F5F5F5F5F5F5F5F5F5F5F5F5F5F5F5F5E2F5F5F5F5F5F5E2F5F5F5F5F5F5F5F5F5F5F5F5F5F5F5E2F5F5F5E2F5F5F5F5F5F5F5F5F5F5F5F5F5F5F5F5F5
310
F5F5F5F5F5F5F5F5F5F5F5F5F5F5F5F5E2E2F5F5F5F5F5F5F5F5F5F5F5F5F5F5F5F5E2F5F5F5F5F5F5F5F5F5F5F5F5F5F5F5F5F5F5F5F5F5F5F5F5F5F5F5F5F5F5F5F5F5F5F5F5F5E2F5E2E2E2F5E2F5F5F5F5F5F5F5F5F5F5F5F5F5F5F5F5F5F5F5F5F5F5F5F5F5F5F5F5F5F5F5F5F5F5F5F5F5F5F5F5F5F5F5F5F5F5F5F5
310
F5F5F5F5F5F5F5F5E2F5F5F5F5F5F5E2F5F5F5F5F5F5F5F5F5F5F5F5F5F5F5E2F5F5F5E2E2F5F5F5F5F5F5F5F5F5F5F5F5F5F5F5F5F5F5F5F5F5F5F5F5F5F5F5F5F5F5F5F5E2E2F5F5F5F5F5F5F5F5F5F5F5F5F5F5F5F5E2F5F5F5F5F5F5F5F5F5F5F5F5F5F5F5F5F5F5F5F5F5F5F5F5F5F5F5F5F5F5F5F5F5F5F5F5F5E2F5
310
E2E2E2F5E2F5F5F5F5F5F5F5F5F5F5F5F5F5F5F5F5F5F5F5F5F5F5F5F5F5F5F5F5F5F5F5F5F5F5F5F5F5F5F5F5F5F5F5F5F5F5F5F5F5F5F5F5F5F5F5F5E2F5F5F5F5F5F5F5F5F5F5F5F5F5F5F5F5F5F5F5F5F5F5E2F5F5F5F5E2E2F5F5F5F5F5F5F5F5F5F5F5F5F5F5F5F5F5F5F5F5F5F5F5F5F5F5F5F5F5F5F5E2E2F5F5F5
310
F5F5F5F5F5F5F5F5F5F5F5F5F5F5F5F5F5F5F5F5F5F5F5F5F5F5F5F5F5F5F5F5F5F5F5F5F5F5F5F5F5F5F5F5F5F5F5F5F5F5F5E2F5E2E2E2F5E2F5F5F5F5F5F5F5F5F5F5F5F5F5F5F5F5F5F5F5F5F5F5F5F5F5F5F5F5F5F5F5F5F5F5F5F5F5F5F5F5F5F5F5F5F5F5F5F5F5F5F5F5F5F5F5F5E2F5F5F5F5F5F5E2F5F5F5F5F5
310
F5F5F5F5F5F5F5F5F5F5E2F5F5F5F5F5E2E2E2E2F5F5F5F5F5F5F5F5F5F5F5F5F5F5F5F5F5F5F5F5F5F5F5F5F5F5E2E2E2E2F5F5F5F5F5F5F5F5F5F5F5F5F5F5F5F5E2F5F5F5F5F5F5F5F5F5F5F5F5F5F5F5F5F5F5F5F5F5F5F5F5F5F5F5F5F5F5F5F5F5F5F5F5F5E2F5E2E2E2F5E2F5F5F5F5F5F5F5F5F5F5F5F5F5F5F5F5
310
F5F5F5F5F5F5F5F5F5F5F5F5F5F5F5F5F5F5F5F5F5F5F5F5F5F5F5F5F5F5F5F5F5F5F5F5F5F5F5F5E2F5F5F5F5F5F5E2F5F5F5F5F5F5F5F5F5F5F5F5F5F5F5E2F5F5F5F5F5F5F5F5E2E2E2E2E2E2E2E2E2E2E2E2E2E2E2E2E2E2E2E2E2E2E2E2E2E2E2E2E2E2E2F5F5F5F5F5F5F5F5F5F5F5F5F5F5F5F5E2F5F5F5F5F5F5F5
310
F5F5F5F5F5F5F5F5F5F5F5F5F5F5F5F5F5F5F5F5F5F5F5F5F5F5F5F5F5F5E2F5E2E2E2F5E2F5F5F5F5F5F5F5F5F5F5F5F5F5F5F5F5F5F5F5F5F5F5F5F5F5F5F5F5F5F5F5F5F5F5F5F5F5F5F5F5F5F5F5F5F5F5F5F5F5F5F5F5F5F5F5F5E2F5F5F5F5F5F5E2F5F5F5F5F5F5F5F5F5F5F5F5F5F5F5F5E2F5F5F5F5F5F5E2E2E2
310
E2E2E2E2E2E2E2E2E2E2E2E2E2E2E2E2E2E2E2E2E2E2E2E2E2E2E2E2F5F5F5F5F5F5F5F5F5F5F5F5F5F5F5F5F5E2F5F5F5F5F5F5F5F5F5F5F5F5F5F5F5F5F5F5F5F5F5F5F5F5F5F5F5F5F5F5F5F5F5F5F5F5F5E2F5E2E2E2F5E2F5F5F5F5F5F5F5F5F5F5F5F5F5F5F5F5F5F5F5F5F5F5F5F5F5F5F5F5F5F5F5F5F5F5F5F5F5
310
F5F5F5F5F5F5F5F5F5F5F5F5F5F5F5F5F5F5F5E2F5F5F5F5F5F5E2F5F5F5F5F5F5F5F5F5F5F5F5F5F5F5F5E2E2E2E2E2E2E2E2F5F5F5F5F5F5F5F5F5F5F5F5F5F5F5F5F5F5F5F5F5F5F5F5F5F5F5F5F5F5F5F5F5F5F5F5F5F5F5F5F5F5F5F5F5F5F5E2F5F5F5F5F5F5F5F5F5F5F5F5F5F5F5F5F5F5F5F5F5F5F5F5F5F5F5F5
310
F5F5F5F5F5F5F5F5F5E2F5E2E2E2F5E2F5F5F5F5F5F5F5F5F5F5F5F5F5F5F5F5F5F5F5F5F5F5F5F5F5F5F5F5F5F5F5F5F5F5F5F5F5F5F5F5F5F5F5F5F5F5F5F5F5F5F5F5F5F5F5F5E2F5F5F5F5F5F5E2F5F5F5F5F5F5F5F5F5F5F5F5F5F5F5F5F5F5F5F5F5F5F5F5F5F5F5F5F5F5F5F5F5F5F5F5F5F5F5F5F5F5F5F5F5F5F5
310
F5F5F5F5F5F5F5F5F5F5F5F5F5F5F5F5F5F5F5F5F5F5F5F5E2F5F5F5F5F5F5F5F5F5F5F5F5F5F5F5F5F5F5F5F5F5F5F5F5F5F5F5F5F5F5F5F5F5F5F5F5F5E2F5E2E2E2F5E2F5F5F5F5F5F5F5F5F5F5F5F5F5F5F5F5F5F5F5F5F5F5F5F5F5F5F5F5F5F5F5F5F5F5F5F5F5F5F5F5F5F5F5F5F5F5F5F5F5F5F5F5F5F5F5F5E2F5
310
F5F5F5F5F5E2F5F5F5F5F5F5F5F5F5F5F5F5F5F5F5F5F5F5F5F5F5F5F5F5F5F5F5F5F5F5F5F5F5F5F5F5F5F5F5F5F5F5F5F5F5F5F5F5F5F5F5F5F5F5F5F5F5F5F5F5F5F5F5F5F5F5F5F5F5F5F5E2F5F5F5F5F5F5F5F5F5F5F5F5F5F5F5F5F5F5F5F5F5F5F5F5F5F5F5F5F5F5F5F5F5F5F5F5F5E2F5E2E2E2F5E2F5F5F5F5F5
310
F5F5F5F5F5F5F5F5F5F5F5F5F5F5F5F5F5F5F5F5F5F5F5F5F5F5F5F5F5F5F5F5F5F5F5F5F5F5F5F5F5F5F5F5F5F5F5F5F5F5F5E2F5F5F5F5F5F5E2F5F5F5F5F5F5F5F5F5F5F5F5F5F5F5F5F5F5F5F5F5F5F5F5F5F5F5F5F5F5F5F5F5F5F5F5F5F5F5F5F5F5F5F5F5F5F5F5F5F5F5F5F5F5F5F5F5F5F5F5F5F5F5F5F5F5F5F5
310
F5F5F5E2F5F5F5F5F5F5F5F5F5F5F5F5F5F5F5F5F5F5F5F5F5F5F5F5F5F5F5F5F5F5F5F5F5F5F5F5F5E2F5E2E2E2F5E2F5F5F5F5F5F5F5F5F5F5F5F5F5F5F5F5F5F5F5F5F5F5F5F5F5F5F5F5F5F5F5F5F5F5F5F5F5F5F5F5F5F5F5F5F5F5F5F5F5F5F5F5F5F5F5F5E2F5F5F5F5F5F5E2F5F5F5F5F5F5F5F5F5F5F5F5F5F5F5
310
F5F5F5F5F5F5F5F5F5F5F5F5F5F5F5F5F5F5F5F5F5F5F5F5F5F5F5F5F5F5F5F5F5F5F5F5F5F5F5F5F5F5F5F5F5F5F5F5F5F5F5F5F5F5F5F5E2F5F5F5F5F5F5F5F5F5F5F5F5F5F5F5F5F5F5F5F5F5F5F5F5F5F5F5F5F5F5F5F5F5F5F5F5F5E2F5E2E2E2F5E2F5F5F5F5F5F5F5F5F5F5F5F5F5F5F5F5F5F5F5F5F5F5F5F5F5F5
310
F5F5F5F5F5F5F5F5F5F5F5F5F5F5F5F5F5F5F5F5F5F5F5F5F5F5F5F5F5F5E2F5F5F5F5F5F5F5F5F5F5F5F5F5F5F5F5F5F5F5F5F5F5F5F5F5F5F5F5F5F5F5F5F5F5F5F5F5F5F5F5F5F5F5F5F5F5F5F5F5F5F5F5F5F5F5F5F5F5F5F5F5F5F5F5F5F5F5F5F5F5F5F5F5F5F5F5F5F5F5F5F5F5F5F5F5F5F5F5F5F5F5F5F5F5F5F5
310
F5F5F5F5F5F5F5F5F5F5F5F5F5F5F5F5F5F5F5F5E2F5E2E2E2F5E2F5F5F5F5F5F5F5F5F5F5F5F5F5F5F5F5F5F5F5F5F5F5F5F5F5F5F5F5F5F5F5F5F5F5F5F5F5F5F5F5F5F5F5F5F5F5F5F5F5F5F5F5F5F5F5F5E2F5F5F5F5F5F5E2F5F5F5F5F5F5F5F5F5F5F5F5F5F5F5F5F5F5F5F5F5F5F5F5F5F5F5F5F5F5F5F5F5F5F5F5
310
F5F5F5F5F5F5F5F5F5F5F5F5F5F5F5F5F5F5F5F5F5F5F5F5F5F5F5F5F5F5F5F5F5F5F5E2F5F5F5F5F5F5F5F5F5F5F5F5F5F5F5F5F5F5F5F5F5F5F5F5F5F5F5F5F5F5F5F5F5F5F5F5F5E2F5E2E2E2F5E2F5F5F5F5F5F5F5F5F5F5F5F5F5F5F5F5F5F5F5F5F5F5F5F5F5F5F5F5F5F5F5F5F5F5F5F5F5F5F5F5F5F5F5F5F5F5F5
310
F5F5F5F5F5F5F5F5F5E2F5F5F5F5F5F5E2F5F5F5F5F5F5F5F5F5F5F5F5F5F5F5F5F5F5F5F5F5F5F5F5F5F5F5F5F5F5F5F5F5F5F5F5F5F5F5F5F5F5F5F5F5F5F5F5F5F5F5F5F5F5F5F5F5F5F5F5F5F5F5F5F5F5F5F5F5F5F5E2F5F5F5F5F5F5F5F5F5F5F5F5F5F5F5F5F5F5F5F5F5F5F5F5F5F5F5F5F5F5F5F5F5F5F5F5F5E2
310
F5E2E2E2F5E2F5F5F5F5F5F5F5F5F5F5F5F5F5F5F5F5F5F5F5F5F5F5F5F5F5F5F5F5F5F5F5F5F5F5F5F5F5F5F5F5F5F5F5F5F5F5F5F5F5F5F5F5F5F5F5F5E2F5F5F5F5F5F5E2F5F5F5F5F5F5F5F5F5F5F5F5F5F5F5F5F5F5F5F5F5F5F5F5F5F5F5F5F5F5F5F5F5F5F5F5F5F5F5F5F5F5F5F5F5F5F5F5F5F5F5F5F5F5F5F5F5
310
F5F5F5F5F5F5F5F5F5F5F5F5F5F5E2F5F5F5F5F5F5F5F5F5F5F5F5F5F5F5F5F5F5F5F5F5F5F5F5F5F5F5F5F5F5F5F5F5F5F5F5F5E2F5E2E2E2F5E2F5F5F5F5F5F5F5F5F5F5F5F5F5F5F5F5F5F5F5F5F5F5F5F5F5F5F5F5F5F5F5F5F5F5F5F5F5F5F5F5F5F5F5F5F5F5F5F5F5F5F5F5F5F5F5F5E2F5F5F5F5F5F5E2F5F5F5F5
310
F5F5F5F5F5F5F5F5F5F5F5F5F5F5F5F5F5F5F5F5F5F5F5F5F5F5F5F5F5F5F5F5F5F5F5F5F5F5F5F5F5F5F5F5F5F5F5F5F5F5F5F5F5F5F5F5F5F5F5F5F5F5F5F5F5F5F5E2F5F5F5F5F5F5F5F5F5F5F5F5F5F5F5F5F5F5F5F5F5F5F5F5F5F5F5F5F5F5F5F5F5F5F5F5F5E2F5E2E2E2F5E2F5F5F5F5F5F5F5F5F5F5F5F5F5F5F5
310
F5F5F5F5F5F5F5F5F5F5F5F5F5F5F5F5F5F5F5F5F5F5F5F5F5F5F5F5F5F5F5F5F5F5F5F5F5F5F5F5F5E2F5F5F5F5F5F5E2F5F5F5F5F5F5F5F5F5F5F5F5F5F5F5F5F5F5F5F5F5F5F5F5F5F5F5F5F5F5F5F5F5F5F5F5F5F5F5F5F5F5F5F5F5F5F5F5F5F5F5F5F5F5F5F5F5F5F5F5F5F5F5F5F5F5F5F5F5F5F5E2F5F5F5F5F5F5
310
F5F5F5F5F5F5F5F5F5F5F5F5F5F5F5F5F5F5F5F5F5F5F5F5F5F5F5F5F5F5F5E2F5E2E2E2F5E2F5F5F5F5F5F5F5F5F5F5F5F5F5F5F5F5F5F5F5F5F5F5F5F5F5F5F5F5F5F5F5F5F5F5F5F5F5F5F5F5F5F5F5F5F5F5F5F5F5F5F5F5F5F5F5F5E2F5F5F5F5F5F5E2F5F5F5F5F5F5F5F5F5F5F5F5F5F5F5F5F5F5F5F5F5F5F5F5F5
310
F5F5F5F5F5F5F5F5F5F5F5F5F5F5F5F5F5F5F5F5F5F5F5F5F5F5F5F5F5F5F5F5F5F5F5F5F5F5F5F5F5F5F5F5F5F5E2F5F5F5F5F5F5F5F5F5F5F5F5F5F5F5F5F5F5F5F5F5F5F5F5F5F5F5F5F5F5F5F5F5F5F5F5F5E2F5E2E2E2F5E2F5F5F5F5F5F5F5F5F5F5F5F5F5F5F5F5F5F5F5F5F5F5F5F5F5F5F5F5F5F5F5F5F5F5F5F5
310
F5F5F5F5F5F5F5F5F5F5F5F5F5F5F5F5F5F5F5F5E2F5F5F5F5F5F5E2F5F5F5F5F5F5F5F5F5F5F5F5F5F5F5F5F5F5F5F5F5F5F5F5F5F5F5F5F5F5F5F5F5F5F5F5F5F5F5F5F5F5F5F5F5F5F5F5F5F5F5F5F5F5F5F5F5F5F5F5F5F5F5F5F5F5F5F5F5F5F5E2F5F5F5F5F5F5F5F5F5F5F5F5F5F5F5F5F5F5F5F5F5F5F5F5F5F5F5
310
F5F5F5F5F5F5F5F5F5F5E2F5E2E2E2F5E2F5F5F5F5F5F5F5F5F5F5F5F5F5F5F5F5F5F5F5F5F5F5F5F5F5F5F5F5F5F5F5F5F5F5F5F5F5F5F5F5F5F5F5F5F5F5F5F5F5F5F5F5F5F5F5F5E2F5F5F5F5F5F5E2F5F5F5F5F5F5F5F5F5F5F5F5F5F5F5F5F5F5F5F5F5F5F5F5F5F5F5F5F5F5F5F5F5F5F5F5F5F5F5F5F5F5F5F5F5F5
310
F5F5F5F5F5F5F5F5F5F5F5F5F5F5F5F5F5F5F5F5F5F5F5F5F5E2F5F5F5F5F5F5F5F5F5F5F5F5F5F5F5F5F5F5F5F5F5F5F5F5F5F5F5F5F5F5F5F5F5F5F5F5F5E2F5E2E2E2F5E2F5F5F5F5F5F5F5F5F5F5F5F5F5F5F5F5F5F5F5F5F5F5F5F5F5F5F5F5F5F5F5F5F5F5F5F5F5F5F5F5F5F5F5F5F5F5F5F5F5F5F5F5F5F5F5F5E2
310
F5F5F5F5F5F5F5F5F5F5F5F5F5F5F5F5F5F5F5F5F5F5F5F5F5F5F5F5F5F5F5F5F5F5F5F5F5F5F5F5F5F5F5F5F5F5F5F5F5F5F5F5F5F5F5F5F5F5F5F5F5F5F5F5F5F5F5F5F5F5F5F5F5F5F5F5F5F5F5F5F5F5F5F5F5F5F5F5F5F5F5F5F5F5F5F5F5F5F5F5F5F5F5F5F5F5F5F5F5F5F5F5F5F5F5F5E2F5E2E2E2F5E2F5F5F5F5
310
F5F5F5F5F5F5F5F5F5F5F5F5F5F5F5F5F5F5F5F5F5F5F5F5F5F5F5F5F5F5F5F5F5F5F5F5F5F5F5F5F5F5F5F5F5F5F5F5F5F5F5F5E2BEF5F5F5F5F5E2F5F5F5F5F5F5F5F5F5F5F5F5F5F5F5F5F5F5F5F5F5F5F5F5F5F5F5F5F5F5F5F5F5F5F5F5F5F5F5F5F5F5F5F5F5F5F5F5F5F5F5F5F5F5F5F5F5F5F5F5F5F5F5F5F5F5F5
310
F5F5F5F5E2F5F5F5F5F5F5F5F5F5F5F5F5F5F5F5F5F5F5F5F5F5F5F5F5F5F5F5F5F5F5F5F5F5F5F5F5F5E2F5E2E2E2F5E2F5F5F5F5F5F5F5F5F5F5F5F5F5F5F5F5F5F5F5F5F5F5F5F5F5F5F5F5F5F5F5F5F5F5F5F5F5F5F5F5F5F5F5F5F5F5F5F5F5F5F5F5F5F5E2E2E2E2E2F5F5F5F5E2E2F5E2E2E2E2E2E2E2E2F5E2E2E2
310
E2E2E2E2E2F5E2E2E2E2E2E2E2E2F5E2E2E2E2E2E2E2E2F5E2E2E2E2E2E2E2E2F5E2E2E2E2E2E2E2E2F5E2E2E2E2E2E2E2E2F5E2E2E2E2E2E2E2F5F5F5F5F5F5F5F5F5F5F5F5F5F5F5F5F5F5F5F5F5F5F5F5F5F5F5F5F5F5F5F5F5F5F5F5F5E2F5E2E2E2F5E2F5F5F5F5F5F5F5F5F5F5F5F5F5F5F5F5F5F5F5F5F5F5F5F5F5
310
F5F5F5F5F5F5F5F5F5F5F5F5F5F5F5F5F5F5F5F5F5F5F5F5F5F5F5F5F5F5F5E2F5F5F5F5F5F5F5F5F5F5F5F5F5F5F5F5F5F5F5F5F5F5F5F5F5F5F5F5F5F5F5F5F5F5F5F5F5F5F5F5F5F5F5F5F5F5F5F5F5F5F5F5F5F5F5F5F5F5F5F5F5F5F5F5F5F5F5F5F5F5F5F5F5F5F5F5F5F5F5F5F5F5F5F5F5F5F5F5F5F5F5F5F5F5F5
310
F5F5F5F5F5F5F5F5F5F5F5F5F5F5F5F5F5F5F5F5F5E2F5E2E2E2F5E2F5F5F5F5F5F5F5F5F5F5F5F5F5F5F5F5F5F5F5F5F5F5F5F5F5F5F5F5F5F5F5F5F5F5F5F5F5F5F5F5F5F5F5F5F5F5F5F5F5F5F5F5F5F5F5BEF5F5F5F5F5F5F5F5F5F5F5F5F5F5F5F5F5F5F5F5F5F5F5F5F5F5F5F5F5F5F5F5F5F5F5F5F5F5F5F5F5F5F5
310
F5F5F5F5F5F5F5F5F5F5F5F5F5F5F5F5F5F5F5F5F5F5F5F5F5F5F5F5F5F5F5F5F5F5F5F5F5F5F5F5F5F5F5F5F5F5F5F5F5F5F5F5F5F5F5F5F5F5F5F5F5F5F5F5F5F5F5F5F5F5F5F5F5F5E2F5E2E2E2F5E2F5F5F5F5F5F5F5F5F5F5F5F5F5F5F5F5F5F5F5F5F5F5F5F5F5F5F5F5F5F5F5F5F5F5F5F5F5F5F5F5F5F5F5F5F5F5
310
F5F5F5F5F5F5F5F5F5F5F5F5F5F5F5F5F5F5F5F5F5F5F5F5F5F5F5F5F5F5F5F5F5F5F5F5F5F5F5F5F5F5F5F5F5F5F5F5F5F5F5F5F5F5F5F5F5F5F5F5F5F5F5F5F5F5F5F5F5F5F5F5F5F5F5F5F5F5F5F5F5F5F5F5F5F5F5F5F5F5F5F5F5F5F5F5F5F5F5F5F5F5F5F5F5F5F5F5F5F5F5F5F5F5F5F5F5F5F5F5F5F5F5F5F5F5F5
310
E2F5E2E2E2F5E2F5F5F5F5F5F5F5F5F5F5F5F5F5F5F5F5F5F5F5F5F5F5F5F5F5F5F5F5F5F5F5F5F5F5F5F5F5F5F5F5F5F5F5F5F5F5F5F5F5F5F5F5F5F5F5F5F5F5F5F5F5F5F5F5F5F5F5F5F5F5F5F5F5F5F5F5F5F5F5F5F5F5F5F5F5F5F5F5F5F5F5F5F5F5F5F5F5F5F5F5F5F5F5F5F5F5F5F5F5F5F5F5F5F5F5F5F5F5F5F5
310
F5F5F5F5F5F5F5F5F5F5F5F5F5F5F5F5F5F5F5F5F5F5F5F5F5F5F5F5F5F5F5F5F5F5F5F5F5F5F5F5F5F5F5F5F5F5F5F5F5F5F5F5F5E2F5E2E2E2F5E2F5F5F5F5F5F5F5F5F5F5F5F5F5F5F5F5F5F5F5F5F5F5F5F5F5F5F5F5F5F5F5F5F5F5F5F5F5F5F5F5F5F5F5F5F5F5F5F5F5F5F5F5F5F5F5F5F5F5F5F5F5F5BEE2F5F5F5
310
F5F5F5F5F5F5F5F5F5F5F5F5F5F5F5F5F5F5F5F5F5F5F5F5F5F5F5F5F5F5F5F5F5F5F5F5F5F5F5F5F5F5F5F5F5F5F5F5F5F5F5F5F5F5F5F5F5F5F5F5F5F5F5F5F5F5F5BEE2F5F5F5F5F5F5F5F5F5F5F5F5F5F5F5F5F5F5F5F5F5F5F5F5F5F5F5F5F5F5F5F5F5F5F5F5F5E2F5E2E2E2F5E2F5F5F5F5F5F5F5F5F5F5F5F5F5F5
310
F5F5F5F5F5F5F5F5F5F5F5F5F5F5F5F5F5F5F5F5F5F5F5F5F5F5F5F5F5F5F5F5F5F5F5F5F5F5F5F5F5F5F5F5F5F5F5F5E2E2E2E2E2E2E2E2E2E2E2E2E2E2E2E2E2E2E2E2E2E2E2E2E2E2E2E2E2E2E2E2E2E2E2E2E2E2E2E2E2E2E2E2E2E2E2E2E2E2E2E2E2E2E2E2E2E2E2E2E2E2E2E2E2E2E2E2E2E2E2E2E2E2E2F5F5F5F5
310
F5F5F5F5F5F5F5F5F5F5F5F5F5F5F5F5F5F5F5F5F5F5F5F5F5F5F5F5F5F5F5F5E2F5E2E2E2F5E2F5F5F5F5F5F5F5F5F5F5F5F5F5F5F5F5F5F5F5F5F5F5F5F5F5F5F5F5F5F5F5F5F5F5F5F5F5F5F5F5F5F5F5F5F5F5F5F5F5F5F5F5F5F5F5F5F5F5F5F5F5F5F5BEF5F5F5F5F5F5F5F5F5F5F5F5F5F5F5F5F5F5F5F5F5F5F5F5
310
F5F5F5F5F5F5F5F5E2E2E2E2E2F5F5F5F5F5F5F5F5F5F5F5F5F5F5F5F5F5F5F5F5F5F5F5F5F5F5F5F5F5F5F5F5F5F5BEF5F5F5F5F5F5F5F5F5F5F5F5F5F5F5F5F5F5F5F5F5F5F5F5F5F5F5F5F5F5F5F5F5F5F5F5F5E2F5E2E2E2F5E2F5F5F5F5F5F5F5F5F5F5F5F5F5F5F5F5F5F5F5F5F5F5F5F5F5F5F5F5F5F5F5F5F5F5F5
310
F5F5F5F5F5F5F5F5F5F5F5F5F5F5F5F5F5F5F5F5F5F5F5F5F5F5F5F5E2BEF5F5F5F5F5F5F5F5F5F5F5F5F5F5F5F5F5F5F5F5F5F5F5F5F5F5F5F5F5F5F5E2E2E2E2E2F5F5F5F5F5F5F5F5F5F5F5F5F5F5F5F5F5F5F5F5F5F5F5F5F5F5F5F5F5F5F5F5F5F5E2BEF5F5F5F5F5F5F5F5F5F5F5F5F5F5F5F5F5F5F5F5F5F5F5F5F5
310
F5F5F5F5F5F5F5F5F5F5F5E2F5E2E2E2F5E2F5F5F5F5F5F5F5F5F5F5F5F5F5F5F5F5F5F5F5F5F5F5F5F5F5F5F5F5F5F5F5F5F5F5F5F5F5F5F5F5F5F5F5F5F5F5F5F5F5F5F5F5F5F5F5F5F5F5F5F5F5F5F5F5F5F5F5F5F5F5F5F5F5F5F5F5F5F5F5F5F5F5F5F5F5F5F5F5F5F5F5F5F5F5F5F5E2E2E2E2E2F5F5F5F5F5F5F5F5
310
F5F5F5F5F5F5F5F5F5F5F5F5F5F5F5F5F5F5F5F5F5F5F5F5F5F5F5F5F5F5F5F5F5F5F5F5F5F5F5F5F5F5F5F5F5F5F5F5F5F5F5F5F5F5F5F5F5F5F5F5F5F5F5F5E2F5E2E2E2F5E2F5F5F5F5F5F5F5F5F5F5F5F5F5F5F5F5F5F5F5F5F5F5F5F5F5F5F5F5F5F5F5F5F5F5F5F5F5F5F5F5F5F5F5F5F5F5F5F5F5F5F5F5F5F5F5F5
310
F5F5F5F5F5F5F5F5F5F5F5F5F5F5F5F5F5F5F5F5F5F5F5F5F5F5F5F5F5F5F5F5F5F5F5F5F5F5F5F5E2E2E2E2E2F5F5F5F5F5F5F5F5F5F5F5F5F5F5F5F5F5F5F5F5F5F5F5F5F5F5F5F5F5F5F5F5F5F5F5F5F5F5F5F5F5F5F5F5F5F5F5F5F5F5F5F5F5F5F5F5F5F5F5F5F5F5F5F5F5F5F5F5F5F5F5F5E2F5E2E2E2F5E2F5F5F5
310
F5F5F5F5F5F5F5F5F5F5F5F5F5F5F5F5F5F5F5F5F5F5F5F5F5F5F5F5F5F5F5F5F5F5F5F5F5F5F5F5F5F5F5F5F5F5F5F5F5F5F5F5F5F5F5F5F5F5F5F5F5F5F5F5F5F5F5F5F5F5F5F5F5F5F5F5F5F5F5F5F5F5F5F5F5F5F5F5F5F5F5F5F5F5F5F5F5F5F5F5F5F5F5F5F5F5F5F5F5F5F5F5F5F5F5F5F5F5F5F5F5F5F5F5F5F5F5
310
F5F5F5F5F5F5F5F5F5F5F5F5F5F5F5F5F5F5F5F5F5F5F5F5F5F5F5F5F5F5F5F5F5F5F5F5F5F5F5F5F5F5F5E2F5E2E2E2F5E2F5F5F5F5F5F5F5F5F5F5F5F5F5F5F5F5F5F5F5F5F5F5F5F5F5F5F5F5F5F5F5F5F5F5F5F5F5F5F5F5F5F5F5F5F5F5F5F5F5F5F5F5F5F5F5F5F5F5F5F5F5F5F5F5F5F5F5F5F5F5F5F5F5F5F5F5F5
310
F5F5F5F5F5F5F5F5F5F5F5F5F5F5F5F5F5F5F5F5F5F5F5F5F5F5F5F5F5F5F5F5F5F5F5F5F5F5F5F5F5F5F5F5F5F5F5F5F5F5F5F5F5F5F5F5F5F5F5F5F5F5F5F5F5F5F5F5F5F5F5F5F5F5F5F5F5F5F5F5F5F5F5F5F5F5F5F5F5F5F5F5F5F5F5F5E2F5E2E2E2F5E2F5F5F5F5F5F5F5F5F5F5F5F5F5F5F5F5F5F5F5F5F5F5F5F5
310
F5F5F5F5F5F5F5F5F5F5F5F5F5F5F5F5F5F5F5F5F5F5F5F5F5F5F5F5F5F5F5F5F5F5F5F5F5F5F5F5F5F5F5F5F5F5F5F5F5F5F5F5F5F5F5F5F5F5F5F5F5F5F5F5F5F5F5F5F5F5F5F5F5F5F5F5F5F5F5F5F5F5F5F5F5F5F5F5F5F5F5F5F5F5F5F5F5F5F5F5F5F5F5F5F5F5F5F5F5F5F5F5F5F5F5F5F5F5F5F5F5F5F5F5F5F5F5
310
F5F5F5F5F5F5F5F5F5F5F5F5F5F5F5F5F5F5F5F5F5F5E2F5E2E2E2F5E2F5F5F5F5F5F5F5F5F5F5F5F5F5F5F5F5F5F5F5F5F5F5F5F5F5F5F5F5F5F5F5F5F5F5F5F5F5F5F5F5F5F5F5F5F5F5F5F5F5F5F5F5F5F5F5F5F5F5F5F5F5F5F5F5F5F5F5F5F5F5F5F5F5F5F5F5F5F5F5F5F5F5F5F5F5F5F5F5F5F5F5F5F5F5F5F5F5F5
310
F5F5F5F5F5F5F5F5F5F5F5F5F5F5F5F5F5F5F5F5F5F5F5F5F5F5F5F5F5F5F5F5F5F5F5F5F5F5F5F5F5F5F5F5F5F5F5F5F5F5F5F5F5F5F5F5F5F5F5F5F5F5F5F5F5F5F5F5F5F5F5F5F5F5F5E2F5E2E2E2F5E2F5F5F5F5F5F5F5F5F5F5F5F5F5F5F5F5F5F5F5F5F5F5F5F5F5F5F5F5F5F5F5F5F5F5F5F5F5F5F5F5F5F5F5F5F5
310
F5F5F5F5F5F5F5F5F5F5F5F5F5F5F5F5F5F5F5F5F5F5F5F5F5F5F5F5F5F5F5F5F5F5F5F5F5F5F5F5F5F5F5F5F5F5F5F5F5F5F5F5F5F5F5F5F5F5F5F5F5F5F5F5F5F5F5F5F5F5F5F5F5F5F5F5F5F5F5F5F5F5F5F5F5F5F5F5F5F5F5F5F5F5F5F5F5F5F5F5F5F5F5F5F5F5F5F5F5F5F5F5F5F5F5F5F5F5F5F5F5F5F5F5F5F5F5
310
F5E2F5E2E2E2F5E2F5F5F5F5F5F5F5F5F5F5F5F5F5F5F5F5F5F5F5F5F5F5F5F5F5F5F5F5F5F5F5F5F5F5F5F5F5F5F5F5F5F5F5F5F5F5F5F5F5F5F5F5F5F5F5F5F5F5F5F5F5F5F5F5F5F5F5F5F5F5F5F5F5F5F5F5F5F5F5F5F5F5F5F5F5F5F5F5F5F5F5F5F5F5F5F5F5F5F5F5F5F5F5F5F5F5F5F5F5F5F5F5F5F5F5F5F5F5F5
310
F5F5F5F5F5F5F5F5F5F5F5F5F5F5F5F5F5F5F5F5F5F5F5F5F5F5F5F5F5F5F5F5F5F5F5F5F5F5F5F5F5F5F5F5F5F5F5F5F5F5F5F5F5F5E2F5E2E2E2F5E2F5F5F5F5F5F5F5F5F5F5F5F5F5F5F5F5F5F5F5F5F5F5F5F5F5F5F5F5F5F5F5F5F5F5F5F5F5F5F5F5F5F5F5F5F5F5F5F5F5F5F5F5F5F5F5F5F5F5F5F5F5F5F5F5F5F5
310
F5F5F5F5F5F5F5F5F5F5F5F5F5F5F5F5F5F5F5F5F5F5F5F5F5F5F5F5F5F5F5F5F5F5F5F5F5F5F5F5F5F5F5F5F5F5F5F5F5F5F5F5F5F5F5F5F5F5F5F5F5F5F5F5F5F5F5F5F5F5F5F5F5F5F5F5F5F5F5F5F5F5F5F5F5F5F5F5F5F5F5F5F5F5F5F5F5F5F5F5F5F5F5F5F5F5F5E2F5E2E2E2F5E2F5F5F5F5F5F5F5F5F5F5F5F5F5
310
F5F5F5F5F5F5F5F5F5F5F5F5F5F5F5F5F5F5F5F5F5F5F5F5F5F5F5F5F5F5F5F5F5F5F5F5F5F5F5F5F5F5F5F5F5F5F5F5F5F5F5F5F5F5F5F5F5F5F5F5F5F5F5F5F5F5F5F5F5F5F5F5F5F5F5F5F5F5F5F5F5F5F5F5F5F5F5F5F5F5F5F5F5F5F5F5F5F5F5F5F5F5F5F5F5F5F5F5F5F5F5F5F5F5F5F5F5F5F5F5F5F5F5F5F5F5F5
310
F5F5F5F5F5F5F5F5F5F5F5F5F5F5F5F5F5F5F5F5F5F5F5F5F5F5F5F5F5F5F5F5F5E2F5E2E2E2F5E2F5F5F5F5F5F5F5F5F5F5F5F5F5F5F5F5F5F5F5F5F5F5F5F5F5F5F5F5F5F5F5F5F5F5F5F5F5F5F5F5F5F5F5F5F5F5F5F5F5F5F5F5F5F5F5F5F5F5F5F5F5F5F5F5F5F5F5F5F5F5F5F5F5F5F5F5F5F5F5F5F5F5F5F5F5F5F5
310
F5F5F5F5F5F5F5F5F5F5F5F5F5F5F5F5F5F5F5F5F5F5F5F5F5F5F5F5F5F5F5F5F5F5F5F5F5F5F5F5F5F5F5F5F5F5F5F5F5F5F5F5F5F5F5F5F5F5F5F5F5F5F5F5F5F5F5F5F5F5F5F5F5F5F5F5F5F5F5F5F5F5F5F5F5F5E2F5E2E2E2F5E2F5F5F5F5F5F5F5F5F5F5F5F5F5F5F5F5F5F5F5F5F5F5F5F5F5F5F5F5F5F5F5F5F5F5
310
F5F5F5F5F5F5F5F5F5F5F5F5F5F5F5F5F5F5F5F5F5F5F5F5F5F5F5F5F5F5F5F5F5F5F5F5F5F5F5F5F5F5F5F5F5F5F5F5F5F5F5F5F5F5F5F5F5F5F5F5F5F5F5F5F5F5F5F5F5F5F5F5F5F5F5F5F5F5F5F5F5F5F5F5F5F5F5F5F5F5F5F5F5F5F5F5F5F5F5F5F5F5F5F5F5F5F5F5F5F5F5F5F5F5F5F5F5F5F5F5F5F5F5F5F5F5F5
310
F5F5F5F5F5F5F5F5F5F5F5F5E2F5E2E2E2F5E2E2E2E2E2E2E2E2E2E2E2E2E2E2E2E2E2E2E2E2E2E2E2E2E2E2E2E2E2E2E2E2E2E2E2E2E2E2E2E2E2E2E2E2E2E2E2E2E2E2E2E2E2E2E2E2E2E2E2E2E2E2E2E2E2E2E2E2E2E2E2E2E2E2E2E2E2E2E2E2E2E2E2E2E2E2E2E2E2E2E2E2E2E2E2E2E2E2E2E2E2E2E2E2E2E2E2E2E2
310
E2E2E2E2E2E2E2E2E2E2E2E2E2E2E2E2E2E2E2E2E2E2E2E2E2E2E2E2E2E2E2E2E2E2E2E2E2E2E2E2E2E2E2E2E2E2E2E2E2E2E2E2E2E2E2E2E2E2E2E2E2E2E2E2E2E2F5E2E2E2F5F5F5F5F5F5F5F5F5F5F5F5F5F5F5F5F5F5F5F5F5F5F5F5F5F5F5F5F5F5F5F5F5F5F5F5F5F5F5F5F5F5F5F5F5F5F5F5F5F5F5F5F5F5F5F5F5
310
F5F5F5F5F5F5F5F5F5F5F5F5F5F5F5F5F5F5F5F5F5F5F5F5F5F5F5F5F5F5F5F5F5F5F5F5F5F5F5F5F5F5F5F5F5F5F5F5F5F5F5F5F5F5F5F5F5F5F5F5F5F5F5F5F5F5F5F5F5F5F5F5F5F5F5F5F5F5F5F5F5F5F5F5F5F5F5F5F5F5F5F5F5F5F5F5F5F5F5F5F5F5F5F5F5F5F5F5F5F5F5F5F5F5F5F5F5F5F5F5E2EFE2E2E2E2E2
310
E2E2E2E2E2E2E2E2E2E2E2E2E2E2E2E2E2E2E2E2E2E2E2E2E2E2E2E2E2E2E2E2E2E2E2E2E2E2E2E2E2E2E2E2E2E2E2E2E2E2E2E2E2E2E2E2E2E2E2E2E2E2E2E2E2E2E2E2E2E2E2E2E2E2E2E2E2E2E2E2E2E2E2E2E2E2E2E2E2E2E2E2E2E2E2E2E2E2E2E2E2E2E2E2E2E2E2E2E2E2E2E2E2E2E2E2E2E2E2E2E2E2E2E2E2E2E2
310
E2E2E2E2E2E2E2E2E2E2E2E2E2E2E2E2E2E2E2E2E2E2E2E2E2E2E2E2E2E2E2E2E2E2E2E2E2E2E2E2E2E2E2E2E2E2E2EF
  0
XRECORD
  5
5A89
102
{ACAD_REACTORS
330
5A88
102
}
330
5A88
100
AcDbXrecord
280
     1
102
MATERIAL
148
0.0
149
0.0
149
0.0
 93
        0
 94
      127
282
     0
 72
     1
 77
     1
171
     1
175
     1
179
     1
273
     0
  0
XRECORD
  5
5A87
102
{ACAD_REACTORS
330
5A86
102
}
330
5A86
100
AcDbXrecord
280
     1
102
MATERIAL
148
0.0
149
0.0
149
0.0
 93
        0
 94
      127
282
     0
 72
     1
 77
     1
171
     1
175
     1
179
     1
273
     0
  0
XRECORD
  5
5A8B
102
{ACAD_REACTORS
330
5A8A
102
}
330
5A8A
100
AcDbXrecord
280
     1
102
MATERIAL
148
0.0
149
0.0
149
0.0
 93
        0
 94
      127
282
     0
 72
     1
 77
     1
171
     1
175
     1
179
     1
273
     0
  0
CELLSTYLEMAP
  5
5A85
102
{ACAD_REACTORS
330
4242
102
}
330
4242
100
AcDbCellStyleMap
 90
        3
300
CELLSTYLE
  1
TABLEFORMAT_BEGIN
 90
        5
170
     1
 91
        0
 92
    32768
 62
   257
 93
        1
300
CONTENTFORMAT
  1
CONTENTFORMAT_BEGIN
 90
        0
 91
        0
 92
      512
 93
        0
300

 40
0.0
140
1.0
 94
        5
 62
     0
340
11
144
0.25
309
CONTENTFORMAT_END
171
     0
 94
        6
 95
        1
302
GRIDFORMAT
  1
GRIDFORMAT_BEGIN
 90
        0
 91
        1
 62
     0
 92
       -2
340
0
 93
        0
 40
0.045
309
GRIDFORMAT_END
 95
        2
302
GRIDFORMAT
  1
GRIDFORMAT_BEGIN
 90
        0
 91
        1
 62
     0
 92
       -2
340
0
 93
        0
 40
0.045
309
GRIDFORMAT_END
 95
        4
302
GRIDFORMAT
  1
GRIDFORMAT_BEGIN
 90
        0
 91
        1
 62
     0
 92
       -2
340
0
 93
        0
 40
0.045
309
GRIDFORMAT_END
 95
        8
302
GRIDFORMAT
  1
GRIDFORMAT_BEGIN
 90
        0
 91
        1
 62
     0
 92
       -2
340
0
 93
        0
 40
0.045
309
GRIDFORMAT_END
 95
       16
302
GRIDFORMAT
  1
GRIDFORMAT_BEGIN
 90
        0
 91
        1
 62
     0
 92
       -2
340
0
 93
        0
 40
0.045
309
GRIDFORMAT_END
 95
       32
302
GRIDFORMAT
  1
GRIDFORMAT_BEGIN
 90
        0
 91
        1
 62
     0
 92
       -2
340
0
 93
        0
 40
0.045
309
GRIDFORMAT_END
309
TABLEFORMAT_END
  1
CELLSTYLE_BEGIN
 90
        1
 91
        1
300
_TITLE
309
CELLSTYLE_END
300
CELLSTYLE
  1
TABLEFORMAT_BEGIN
 90
        5
170
     1
 91
        0
 92
        0
 62
   257
 93
        1
300
CONTENTFORMAT
  1
CONTENTFORMAT_BEGIN
 90
        0
 91
        0
 92
      512
 93
        0
300

 40
0.0
140
1.0
 94
        5
 62
     0
340
11
144
0.18
309
CONTENTFORMAT_END
171
     0
 94
        6
 95
        1
302
GRIDFORMAT
  1
GRIDFORMAT_BEGIN
 90
        0
 91
        1
 62
     0
 92
       -2
340
0
 93
        0
 40
0.045
309
GRIDFORMAT_END
 95
        2
302
GRIDFORMAT
  1
GRIDFORMAT_BEGIN
 90
        0
 91
        1
 62
     0
 92
       -2
340
0
 93
        0
 40
0.045
309
GRIDFORMAT_END
 95
        4
302
GRIDFORMAT
  1
GRIDFORMAT_BEGIN
 90
        0
 91
        1
 62
     0
 92
       -2
340
0
 93
        0
 40
0.045
309
GRIDFORMAT_END
 95
        8
302
GRIDFORMAT
  1
GRIDFORMAT_BEGIN
 90
        0
 91
        1
 62
     0
 92
       -2
340
0
 93
        0
 40
0.045
309
GRIDFORMAT_END
 95
       16
302
GRIDFORMAT
  1
GRIDFORMAT_BEGIN
 90
        0
 91
        1
 62
     0
 92
       -2
340
0
 93
        0
 40
0.045
309
GRIDFORMAT_END
 95
       32
302
GRIDFORMAT
  1
GRIDFORMAT_BEGIN
 90
        0
 91
        1
 62
     0
 92
       -2
340
0
 93
        0
 40
0.045
309
GRIDFORMAT_END
309
TABLEFORMAT_END
  1
CELLSTYLE_BEGIN
 90
        2
 91
        1
300
_HEADER
309
CELLSTYLE_END
300
CELLSTYLE
  1
TABLEFORMAT_BEGIN
 90
        5
170
     1
 91
        0
 92
        0
 62
   257
 93
        1
300
CONTENTFORMAT
  1
CONTENTFORMAT_BEGIN
 90
        0
 91
        0
 92
      512
 93
        0
300

 40
0.0
140
1.0
 94
        2
 62
     0
340
11
144
0.18
309
CONTENTFORMAT_END
171
     0
 94
        6
 95
        1
302
GRIDFORMAT
  1
GRIDFORMAT_BEGIN
 90
        0
 91
        1
 62
     0
 92
       -2
340
0
 93
        0
 40
0.045
309
GRIDFORMAT_END
 95
        2
302
GRIDFORMAT
  1
GRIDFORMAT_BEGIN
 90
        0
 91
        1
 62
     0
 92
       -2
340
0
 93
        0
 40
0.045
309
GRIDFORMAT_END
 95
        4
302
GRIDFORMAT
  1
GRIDFORMAT_BEGIN
 90
        0
 91
        1
 62
     0
 92
       -2
340
0
 93
        0
 40
0.045
309
GRIDFORMAT_END
 95
        8
302
GRIDFORMAT
  1
GRIDFORMAT_BEGIN
 90
        0
 91
        1
 62
     0
 92
       -2
340
0
 93
        0
 40
0.045
309
GRIDFORMAT_END
 95
       16
302
GRIDFORMAT
  1
GRIDFORMAT_BEGIN
 90
        0
 91
        1
 62
     0
 92
       -2
340
0
 93
        0
 40
0.045
309
GRIDFORMAT_END
 95
       32
302
GRIDFORMAT
  1
GRIDFORMAT_BEGIN
 90
        0
 91
        1
 62
     0
 92
       -2
340
0
 93
        0
 40
0.045
309
GRIDFORMAT_END
309
TABLEFORMAT_END
  1
CELLSTYLE_BEGIN
 90
        3
 91
        2
300
_DATA
309
CELLSTYLE_END
  0
XRECORD
  5
5A8C
102
{ACAD_REACTORS
330
4242
102
}
330
4242
100
AcDbXrecord
280
     1
102
ACAD_ROUNDTRIP_PRE2007_TABLESTYLE
 90
      512
 91
        0
  1

 92
      512
 93
        0
  2

 94
      512
 95
        0
  3

  0
XRECORD
  5
49B
102
{ACAD_REACTORS
330
49A
102
}
330
49A
100
AcDbXrecord
280
     1
102
RTVSPropertyOp0
 70
     1
102
RTVSPropertyOp1
 70
     1
102
RTVSPropertyOp2
 70
     1
102
RTVSPropertyOp3
 70
     1
102
RTVSPropertyOp4
 70
     1
102
RTVSPropertyOp5
 70
     1
102
RTVSPropertyOp6
 70
     1
102
RTVSPropertyOp7
 70
     1
102
RTVSPropertyOp8
 70
     1
102
RTVSPropertyOp9
 70
     1
102
RTVSPropertyOp10
 70
     1
102
RTVSPropertyOp11
 70
     1
102
RTVSPropertyOp12
 70
     1
102
RTVSPropertyOp13
 70
     1
102
RTVSPropertyOp14
 70
     1
102
RTVSPropertyOp15
 70
     1
102
RTVSPropertyOp16
 70
     1
102
RTVSPropertyOp17
 70
     1
102
RTVSPropertyOp18
 70
     1
102
RTVSPropertyOp19
 70
     1
102
RTVSPropertyOp20
 70
     1
102
RTVSPropertyOp21
 70
     1
102
RTVSPropertyOp22
 70
     1
102
RTVSPropertyOp23
 70
     1
102
RTVSPropertyOp24
 70
     1
102
RTVSPropertyOp25
 70
     1
102
RTVSPropertyOp26
 70
     1
102
RTVSPropertyOp27
 70
     1
  0
XRECORD
  5
A4A
102
{ACAD_REACTORS
330
A49
102
}
330
A49
100
AcDbXrecord
280
     1
102
RTVSPropertyOp0
 70
     1
102
RTVSPropertyOp1
 70
     1
102
RTVSPropertyOp2
 70
     1
102
RTVSPropertyOp3
 70
     1
102
RTVSPropertyOp4
 70
     1
102
RTVSPropertyOp5
 70
     1
102
RTVSPropertyOp6
 70
     1
102
RTVSPropertyOp7
 70
     1
102
RTVSPropertyOp8
 70
     1
102
RTVSPropertyOp9
 70
     1
102
RTVSPropertyOp10
 70
     1
102
RTVSPropertyOp11
 70
     1
102
RTVSPropertyOp12
 70
     1
102
RTVSPropertyOp13
 70
     1
102
RTVSPropertyOp14
 70
     1
102
RTVSPropertyOp15
 70
     1
102
RTVSPropertyOp16
 70
     1
102
RTVSPropertyOp17
 70
     1
102
RTVSPropertyOp18
 70
     1
102
RTVSPropertyOp19
 70
     1
102
RTVSPropertyOp20
 70
     1
102
RTVSPropertyOp21
 70
     1
102
RTVSPropertyOp22
 70
     1
102
RTVSPropertyOp23
 70
     1
102
RTVSPropertyOp24
 70
     1
102
RTVSPropertyOp25
 70
     1
102
RTVSPropertyOp26
 70
     1
102
RTVSPropertyOp27
 70
     1
  0
XRECORD
  5
4A1
102
{ACAD_REACTORS
330
4A0
102
}
330
4A0
100
AcDbXrecord
280
     1
102
RTVSPropertyOp0
 70
     1
102
RTVSPropertyOp1
 70
     1
102
RTVSPropertyOp2
 70
     1
102
RTVSPropertyOp3
 70
     1
102
RTVSPropertyOp4
 70
     1
102
RTVSPropertyOp5
 70
     1
102
RTVSPropertyOp6
 70
     1
102
RTVSPropertyOp7
 70
     1
102
RTVSPropertyOp8
 70
     1
102
RTVSPropertyOp9
 70
     1
102
RTVSPropertyOp10
 70
     1
102
RTVSPropertyOp11
 70
     1
102
RTVSPropertyOp12
 70
     1
102
RTVSPropertyOp13
 70
     1
102
RTVSPropertyOp14
 70
     1
102
RTVSPropertyOp15
 70
     1
102
RTVSPropertyOp16
 70
     1
102
RTVSPropertyOp17
 70
     1
102
RTVSPropertyOp18
 70
     1
102
RTVSPropertyOp19
 70
     1
102
RTVSPropertyOp20
 70
     1
102
RTVSPropertyOp21
 70
     1
102
RTVSPropertyOp22
 70
     1
102
RTVSPropertyOp23
 70
     1
102
RTVSPropertyOp24
 70
     1
102
RTVSPropertyOp25
 70
     1
102
RTVSPropertyOp26
 70
     1
102
RTVSPropertyOp27
 70
     1
  0
XRECORD
  5
4A9
102
{ACAD_REACTORS
330
4A8
102
}
330
4A8
100
AcDbXrecord
280
     1
102
RTVSPropertyOp0
 70
     1
102
RTVSPropertyOp1
 70
     1
102
RTVSPropertyOp2
 70
     1
102
RTVSPropertyOp3
 70
     1
102
RTVSPropertyOp4
 70
     1
102
RTVSPropertyOp5
 70
     1
102
RTVSPropertyOp6
 70
     1
102
RTVSPropertyOp7
 70
     1
102
RTVSPropertyOp8
 70
     1
102
RTVSPropertyOp9
 70
     1
102
RTVSPropertyOp10
 70
     1
102
RTVSPropertyOp11
 70
     1
102
RTVSPropertyOp12
 70
     1
102
RTVSPropertyOp13
 70
     1
102
RTVSPropertyOp14
 70
     1
102
RTVSPropertyOp15
 70
     1
102
RTVSPropertyOp16
 70
     1
102
RTVSPropertyOp17
 70
     1
102
RTVSPropertyOp18
 70
     1
102
RTVSPropertyOp19
 70
     1
102
RTVSPropertyOp20
 70
     1
102
RTVSPropertyOp21
 70
     1
102
RTVSPropertyOp22
 70
     1
102
RTVSPropertyOp23
 70
     1
102
RTVSPropertyOp24
 70
     1
102
RTVSPropertyOp25
 70
     1
102
RTVSPropertyOp26
 70
     1
102
RTVSPropertyOp27
 70
     1
  0
XRECORD
  5
4B1
102
{ACAD_REACTORS
330
4B0
102
}
330
4B0
100
AcDbXrecord
280
     1
102
RTVSPropertyOp0
 70
     1
102
RTVSPropertyOp1
 70
     1
102
RTVSPropertyOp2
 70
     1
102
RTVSPropertyOp3
 70
     1
102
RTVSPropertyOp4
 70
     1
102
RTVSPropertyOp5
 70
     1
102
RTVSPropertyOp6
 70
     1
102
RTVSPropertyOp7
 70
     1
102
RTVSPropertyOp8
 70
     1
102
RTVSPropertyOp9
 70
     1
102
RTVSPropertyOp10
 70
     1
102
RTVSPropertyOp11
 70
     1
102
RTVSPropertyOp12
 70
     1
102
RTVSPropertyOp13
 70
     1
102
RTVSPropertyOp14
 70
     1
102
RTVSPropertyOp15
 70
     1
102
RTVSPropertyOp16
 70
     1
102
RTVSPropertyOp17
 70
     1
102
RTVSPropertyOp18
 70
     1
102
RTVSPropertyOp19
 70
     1
102
RTVSPropertyOp20
 70
     1
102
RTVSPropertyOp21
 70
     1
102
RTVSPropertyOp22
 70
     1
102
RTVSPropertyOp23
 70
     1
102
RTVSPropertyOp24
 70
     1
102
RTVSPropertyOp25
 70
     1
102
RTVSPropertyOp26
 70
     1
102
RTVSPropertyOp27
 70
     1
  0
XRECORD
  5
4A7
102
{ACAD_REACTORS
330
4A6
102
}
330
4A6
100
AcDbXrecord
280
     1
102
RTVSPropertyOp0
 70
     1
102
RTVSPropertyOp1
 70
     1
102
RTVSPropertyOp2
 70
     1
102
RTVSPropertyOp3
 70
     1
102
RTVSPropertyOp4
 70
     1
102
RTVSPropertyOp5
 70
     1
102
RTVSPropertyOp6
 70
     1
102
RTVSPropertyOp7
 70
     1
102
RTVSPropertyOp8
 70
     1
102
RTVSPropertyOp9
 70
     1
102
RTVSPropertyOp10
 70
     1
102
RTVSPropertyOp11
 70
     1
102
RTVSPropertyOp12
 70
     1
102
RTVSPropertyOp13
 70
     1
102
RTVSPropertyOp14
 70
     1
102
RTVSPropertyOp15
 70
     1
102
RTVSPropertyOp16
 70
     1
102
RTVSPropertyOp17
 70
     1
102
RTVSPropertyOp18
 70
     1
102
RTVSPropertyOp19
 70
     1
102
RTVSPropertyOp20
 70
     1
102
RTVSPropertyOp21
 70
     1
102
RTVSPropertyOp22
 70
     1
102
RTVSPropertyOp23
 70
     1
102
RTVSPropertyOp24
 70
     1
102
RTVSPropertyOp25
 70
     1
102
RTVSPropertyOp26
 70
     1
102
RTVSPropertyOp27
 70
     1
  0
XRECORD
  5
4AF
102
{ACAD_REACTORS
330
4AE
102
}
330
4AE
100
AcDbXrecord
280
     1
102
RTVSPropertyOp0
 70
     1
102
RTVSPropertyOp1
 70
     1
102
RTVSPropertyOp2
 70
     1
102
RTVSPropertyOp3
 70
     1
102
RTVSPropertyOp4
 70
     1
102
RTVSPropertyOp5
 70
     1
102
RTVSPropertyOp6
 70
     1
102
RTVSPropertyOp7
 70
     1
102
RTVSPropertyOp8
 70
     1
102
RTVSPropertyOp9
 70
     1
102
RTVSPropertyOp10
 70
     1
102
RTVSPropertyOp11
 70
     1
102
RTVSPropertyOp12
 70
     1
102
RTVSPropertyOp13
 70
     1
102
RTVSPropertyOp14
 70
     1
102
RTVSPropertyOp15
 70
     1
102
RTVSPropertyOp16
 70
     1
102
RTVSPropertyOp17
 70
     1
102
RTVSPropertyOp18
 70
     1
102
RTVSPropertyOp19
 70
     1
102
RTVSPropertyOp20
 70
     1
102
RTVSPropertyOp21
 70
     1
102
RTVSPropertyOp22
 70
     1
102
RTVSPropertyOp23
 70
     1
102
RTVSPropertyOp24
 70
     1
102
RTVSPropertyOp25
 70
     1
102
RTVSPropertyOp26
 70
     1
102
RTVSPropertyOp27
 70
     1
  0
XRECORD
  5
493
102
{ACAD_REACTORS
330
492
102
}
330
492
100
AcDbXrecord
280
     1
102
RTVSPropertyOp0
 70
     1
102
RTVSPropertyOp1
 70
     1
102
RTVSPropertyOp2
 70
     1
102
RTVSPropertyOp3
 70
     1
102
RTVSPropertyOp4
 70
     1
102
RTVSPropertyOp5
 70
     1
102
RTVSPropertyOp6
 70
     1
102
RTVSPropertyOp7
 70
     1
102
RTVSPropertyOp8
 70
     1
102
RTVSPropertyOp9
 70
     1
102
RTVSPropertyOp10
 70
     1
102
RTVSPropertyOp11
 70
     1
102
RTVSPropertyOp12
 70
     1
102
RTVSPropertyOp13
 70
     1
102
RTVSPropertyOp14
 70
     1
102
RTVSPropertyOp15
 70
     1
102
RTVSPropertyOp16
 70
     1
102
RTVSPropertyOp17
 70
     1
102
RTVSPropertyOp18
 70
     1
102
RTVSPropertyOp19
 70
     1
102
RTVSPropertyOp20
 70
     1
102
RTVSPropertyOp21
 70
     1
102
RTVSPropertyOp22
 70
     1
102
RTVSPropertyOp23
 70
     1
102
RTVSPropertyOp24
 70
     1
102
RTVSPropertyOp25
 70
     1
102
RTVSPropertyOp26
 70
     1
102
RTVSPropertyOp27
 70
     1
  0
XRECORD
  5
495
102
{ACAD_REACTORS
330
494
102
}
330
494
100
AcDbXrecord
280
     1
102
RTVSPropertyOp0
 70
     1
102
RTVSPropertyOp1
 70
     1
102
RTVSPropertyOp2
 70
     1
102
RTVSPropertyOp3
 70
     1
102
RTVSPropertyOp4
 70
     1
102
RTVSPropertyOp5
 70
     1
102
RTVSPropertyOp6
 70
     1
102
RTVSPropertyOp7
 70
     1
102
RTVSPropertyOp8
 70
     1
102
RTVSPropertyOp9
 70
     1
102
RTVSPropertyOp10
 70
     1
102
RTVSPropertyOp11
 70
     1
102
RTVSPropertyOp12
 70
     1
102
RTVSPropertyOp13
 70
     1
102
RTVSPropertyOp14
 70
     1
102
RTVSPropertyOp15
 70
     1
102
RTVSPropertyOp16
 70
     1
102
RTVSPropertyOp17
 70
     1
102
RTVSPropertyOp18
 70
     1
102
RTVSPropertyOp19
 70
     1
102
RTVSPropertyOp20
 70
     1
102
RTVSPropertyOp21
 70
     1
102
RTVSPropertyOp22
 70
     1
102
RTVSPropertyOp23
 70
     1
102
RTVSPropertyOp24
 70
     1
102
RTVSPropertyOp25
 70
     1
102
RTVSPropertyOp26
 70
     1
102
RTVSPropertyOp27
 70
     1
  0
XRECORD
  5
497
102
{ACAD_REACTORS
330
496
102
}
330
496
100
AcDbXrecord
280
     1
102
RTVSPropertyOp0
 70
     1
102
RTVSPropertyOp1
 70
     1
102
RTVSPropertyOp2
 70
     1
102
RTVSPropertyOp3
 70
     1
102
RTVSPropertyOp4
 70
     1
102
RTVSPropertyOp5
 70
     1
102
RTVSPropertyOp6
 70
     1
102
RTVSPropertyOp7
 70
     1
102
RTVSPropertyOp8
 70
     1
102
RTVSPropertyOp9
 70
     1
102
RTVSPropertyOp10
 70
     1
102
RTVSPropertyOp11
 70
     1
102
RTVSPropertyOp12
 70
     1
102
RTVSPropertyOp13
 70
     1
102
RTVSPropertyOp14
 70
     1
102
RTVSPropertyOp15
 70
     1
102
RTVSPropertyOp16
 70
     1
102
RTVSPropertyOp17
 70
     1
102
RTVSPropertyOp18
 70
     1
102
RTVSPropertyOp19
 70
     1
102
RTVSPropertyOp20
 70
     1
102
RTVSPropertyOp21
 70
     1
102
RTVSPropertyOp22
 70
     1
102
RTVSPropertyOp23
 70
     1
102
RTVSPropertyOp24
 70
     1
102
RTVSPropertyOp25
 70
     1
102
RTVSPropertyOp26
 70
     1
102
RTVSPropertyOp27
 70
     1
  0
XRECORD
  5
499
102
{ACAD_REACTORS
330
498
102
}
330
498
100
AcDbXrecord
280
     1
102
RTVSPropertyOp0
 70
     1
102
RTVSPropertyOp1
 70
     1
102
RTVSPropertyOp2
 70
     1
102
RTVSPropertyOp3
 70
     1
102
RTVSPropertyOp4
 70
     1
102
RTVSPropertyOp5
 70
     1
102
RTVSPropertyOp6
 70
     1
102
RTVSPropertyOp7
 70
     1
102
RTVSPropertyOp8
 70
     1
102
RTVSPropertyOp9
 70
     1
102
RTVSPropertyOp10
 70
     1
102
RTVSPropertyOp11
 70
     1
102
RTVSPropertyOp12
 70
     1
102
RTVSPropertyOp13
 70
     1
102
RTVSPropertyOp14
 70
     1
102
RTVSPropertyOp15
 70
     1
102
RTVSPropertyOp16
 70
     1
102
RTVSPropertyOp17
 70
     1
102
RTVSPropertyOp18
 70
     1
102
RTVSPropertyOp19
 70
     1
102
RTVSPropertyOp20
 70
     1
102
RTVSPropertyOp21
 70
     1
102
RTVSPropertyOp22
 70
     1
102
RTVSPropertyOp23
 70
     1
102
RTVSPropertyOp24
 70
     1
102
RTVSPropertyOp25
 70
     1
102
RTVSPropertyOp26
 70
     1
102
RTVSPropertyOp27
 70
     1
  0
XRECORD
  5
4AD
102
{ACAD_REACTORS
330
4AC
102
}
330
4AC
100
AcDbXrecord
280
     1
102
RTVSPropertyOp0
 70
     1
102
RTVSPropertyOp1
 70
     1
102
RTVSPropertyOp2
 70
     1
102
RTVSPropertyOp3
 70
     1
102
RTVSPropertyOp4
 70
     1
102
RTVSPropertyOp5
 70
     1
102
RTVSPropertyOp6
 70
     1
102
RTVSPropertyOp7
 70
     1
102
RTVSPropertyOp8
 70
     1
102
RTVSPropertyOp9
 70
     1
102
RTVSPropertyOp10
 70
     1
102
RTVSPropertyOp11
 70
     1
102
RTVSPropertyOp12
 70
     1
102
RTVSPropertyOp13
 70
     1
102
RTVSPropertyOp14
 70
     1
102
RTVSPropertyOp15
 70
     1
102
RTVSPropertyOp16
 70
     1
102
RTVSPropertyOp17
 70
     1
102
RTVSPropertyOp18
 70
     1
102
RTVSPropertyOp19
 70
     1
102
RTVSPropertyOp20
 70
     1
102
RTVSPropertyOp21
 70
     1
102
RTVSPropertyOp22
 70
     1
102
RTVSPropertyOp23
 70
     1
102
RTVSPropertyOp24
 70
     1
102
RTVSPropertyOp25
 70
     1
102
RTVSPropertyOp26
 70
     1
102
RTVSPropertyOp27
 70
     1
  0
XRECORD
  5
A4E
102
{ACAD_REACTORS
330
A4D
102
}
330
A4D
100
AcDbXrecord
280
     1
102
RTVSPropertyOp0
 70
     1
102
RTVSPropertyOp1
 70
     1
102
RTVSPropertyOp2
 70
     1
102
RTVSPropertyOp3
 70
     1
102
RTVSPropertyOp4
 70
     1
102
RTVSPropertyOp5
 70
     1
102
RTVSPropertyOp6
 70
     1
102
RTVSPropertyOp7
 70
     1
102
RTVSPropertyOp8
 70
     1
102
RTVSPropertyOp9
 70
     1
102
RTVSPropertyOp10
 70
     1
102
RTVSPropertyOp11
 70
     1
102
RTVSPropertyOp12
 70
     1
102
RTVSPropertyOp13
 70
     1
102
RTVSPropertyOp14
 70
     1
102
RTVSPropertyOp15
 70
     1
102
RTVSPropertyOp16
 70
     1
102
RTVSPropertyOp17
 70
     1
102
RTVSPropertyOp18
 70
     1
102
RTVSPropertyOp19
 70
     1
102
RTVSPropertyOp20
 70
     1
102
RTVSPropertyOp21
 70
     1
102
RTVSPropertyOp22
 70
     1
102
RTVSPropertyOp23
 70
     1
102
RTVSPropertyOp24
 70
     1
102
RTVSPropertyOp25
 70
     1
102
RTVSPropertyOp26
 70
     1
102
RTVSPropertyOp27
 70
     1
  0
XRECORD
  5
4AB
102
{ACAD_REACTORS
330
4AA
102
}
330
4AA
100
AcDbXrecord
280
     1
102
RTVSPropertyOp0
 70
     1
102
RTVSPropertyOp1
 70
     1
102
RTVSPropertyOp2
 70
     1
102
RTVSPropertyOp3
 70
     1
102
RTVSPropertyOp4
 70
     1
102
RTVSPropertyOp5
 70
     1
102
RTVSPropertyOp6
 70
     1
102
RTVSPropertyOp7
 70
     1
102
RTVSPropertyOp8
 70
     1
102
RTVSPropertyOp9
 70
     1
102
RTVSPropertyOp10
 70
     1
102
RTVSPropertyOp11
 70
     1
102
RTVSPropertyOp12
 70
     1
102
RTVSPropertyOp13
 70
     1
102
RTVSPropertyOp14
 70
     1
102
RTVSPropertyOp15
 70
     1
102
RTVSPropertyOp16
 70
     1
102
RTVSPropertyOp17
 70
     1
102
RTVSPropertyOp18
 70
     1
102
RTVSPropertyOp19
 70
     1
102
RTVSPropertyOp20
 70
     1
102
RTVSPropertyOp21
 70
     1
102
RTVSPropertyOp22
 70
     1
102
RTVSPropertyOp23
 70
     1
102
RTVSPropertyOp24
 70
     1
102
RTVSPropertyOp25
 70
     1
102
RTVSPropertyOp26
 70
     1
102
RTVSPropertyOp27
 70
     1
  0
ENDSEC
  0
EOF
